<?xml version="1.0" standalone="no"?>
<!DOCTYPE svg PUBLIC "-//W3C//DTD SVG 1.1//EN" "http://www.w3.org/Graphics/SVG/1.1/DTD/svg11.dtd" >
<svg xmlns="http://www.w3.org/2000/svg" xmlns:xlink="http://www.w3.org/1999/xlink" version="1.1">
<metadata>
Created by FontForge 20170812 at Mon Jan 23 00:30:10 2023
 By ht,,,
Copyright (C) 2022-2023 Henrik Theiling, License CC-BY-NC4.0
</metadata>
<defs>
<font id="UkaliqSerifOblique" horiz-adv-x="578" >
  <font-face 
    font-family="Ukaliq Serif"
    font-weight="400"
    font-style="oblique"
    font-stretch="normal"
    units-per-em="1024"
    panose-1="2 0 5 3 0 0 0 0 0 0"
    ascent="727"
    descent="-297"
    bbox="0 -296 649 946"
    underline-thickness="78"
    underline-position="-171"
    unicode-range="U+000D-F1DFF"
  />
<missing-glyph 
d="M89 63h422l-12 -63h-422zM337 -184q-13 36 15 71q27 36 68 36t54 -36q14 -35 -14 -71q-27 -35 -68 -35t-55 35z" />
    <glyph glyph-name="UkaliqSpace_UkaliqModifierDot" unicode="&#xee00;&#x331;" 
d="M337 -184q-13 36 15 71q27 36 68 36t54 -36q14 -35 -14 -71q-27 -35 -68 -35t-55 35z" />
    <glyph glyph-name="UkaliqNumber_UkaliqModifierDot" unicode="&#xee01;&#x331;" 
d="M574 375l-75 -375h-86l75 375h86zM353 -184q-13 36 14 71q28 36 69 36t54 -36q14 -35 -14 -71q-27 -35 -68 -35t-55 35z" />
    <glyph glyph-name="UkaliqRightSingleQuotationMark_UkaliqModifierDot" unicode="&#xee02;&#x331;" 
d="M300 704l-75 -376h-86l75 376h86zM337 -184q-13 36 15 71q27 36 68 36t54 -36q14 -35 -14 -71q-27 -35 -68 -35t-55 35z" />
    <glyph glyph-name="UkaliqColon_UkaliqModifierDot" unicode="&#xee03;&#x331;" 
d="M574 375l-75 -375h-86l75 375h86zM300 704l-75 -376h-86l75 376h86zM353 -184q-13 36 14 71q28 36 69 36t54 -36q14 -35 -14 -71q-27 -35 -68 -35t-55 35z" />
    <glyph glyph-name="UkaliqFullStop_UkaliqModifierDot" unicode="&#xee04;&#x331;" 
d="M234 375l-75 -375h-86l75 375h86zM337 -184q-13 36 15 71q27 36 68 36t54 -36q14 -35 -14 -71q-27 -35 -68 -35t-55 35z" />
    <glyph glyph-name="UkaliqComma_UkaliqModifierDot" unicode="&#xee05;&#x331;" 
d="M574 375l-75 -375h-86l75 375h86zM234 375l-75 -375h-86l75 375h86zM353 -184q-13 36 14 71q28 36 69 36t54 -36q14 -35 -14 -71q-27 -35 -68 -35t-55 35z" />
    <glyph glyph-name="UkaliqRightParenthesis_UkaliqModifierDot" unicode="&#xee06;&#x331;" 
d="M300 704l-141 -704h-86l141 704h86zM337 -184q-13 36 15 71q27 36 68 36t54 -36q14 -35 -14 -71q-27 -35 -68 -35t-55 35z" />
    <glyph glyph-name="UkaliqExclamationMark_UkaliqModifierDot" unicode="&#xee07;&#x331;" 
d="M300 704l-141 -704h-86l141 704h86zM574 375l-75 -375h-86l75 375h86zM353 -184q-13 36 14 71q28 36 69 36t54 -36q14 -35 -14 -71q-27 -35 -68 -35t-55 35z" />
    <glyph glyph-name="UkaliqLeftSingleQuotationMark_UkaliqModifierDot" unicode="&#xee08;&#x331;" 
d="M640 704l-75 -376h-86l75 376h86zM337 -184q-13 36 15 71q27 36 68 36t54 -36q14 -35 -14 -71q-27 -35 -68 -35t-55 35z" />
    <glyph glyph-name="UkaliqLeftParenthesis_UkaliqModifierDot" unicode="&#xee09;&#x331;" 
d="M640 704l-141 -704h-86l141 704h86zM353 -184q-13 36 14 71q28 36 69 36t54 -36q14 -35 -14 -71q-27 -35 -68 -35t-55 35z" />
    <glyph glyph-name="UkaliqDoubleQuotationMark_UkaliqModifierDot" unicode="&#xee0a;&#x331;" 
d="M300 704l-75 -376h-86l75 376h86zM640 704l-75 -376h-86l75 376h86zM337 -184q-13 36 15 71q27 36 68 36t54 -36q14 -35 -14 -71q-27 -35 -68 -35t-55 35z" />
    <glyph glyph-name="UkaliqReversedQuestionMark_UkaliqModifierDot" unicode="&#xee0b;&#x331;" 
d="M640 704l-141 -704h-86l141 704h86zM300 704l-75 -376h-86l75 376h86zM353 -184q-13 36 14 71q28 36 69 36t54 -36q14 -35 -14 -71q-27 -35 -68 -35t-55 35z" />
    <glyph glyph-name="UkaliqSemicolon_UkaliqModifierDot" unicode="&#xee0c;&#x331;" 
d="M640 704l-75 -376h-86l75 376h86zM234 375l-75 -375h-86l75 375h86zM337 -184q-13 36 15 71q27 36 68 36t54 -36q14 -35 -14 -71q-27 -35 -68 -35t-55 35z" />
    <glyph glyph-name="UkaliqReversedExclamationMark_UkaliqModifierDot" unicode="&#xee0d;&#x331;" 
d="M640 704l-141 -704h-86l141 704h86zM234 375l-75 -375h-86l75 375h86zM353 -184q-13 36 14 71q28 36 69 36t54 -36q14 -35 -14 -71q-27 -35 -68 -35t-55 35z" />
    <glyph glyph-name="UkaliqQuestionMark_UkaliqModifierDot" unicode="&#xee0e;&#x331;" 
d="M300 704l-141 -704h-86l141 704h86zM640 704l-75 -376h-86l75 376h86zM337 -184q-13 36 15 71q27 36 68 36t54 -36q14 -35 -14 -71q-27 -35 -68 -35t-55 35z" />
    <glyph glyph-name="UkaliqEquals_UkaliqModifierDot" unicode="&#xee0f;&#x331;" 
d="M640 704l-141 -704h-86l141 704h86zM300 704l-141 -704h-86l141 704h86zM353 -184q-13 36 14 71q28 36 69 36t54 -36q14 -35 -14 -71q-27 -35 -68 -35t-55 35z" />
    <glyph glyph-name="UkaliqHyphen_UkaliqModifierDot" unicode="&#xee10;&#x331;" 
d="M89 63h422l-12 -63h-422zM337 -184q-13 36 15 71q27 36 68 36t54 -36q14 -35 -14 -71q-27 -35 -68 -35t-55 35z" />
    <glyph glyph-name="UkaliqLetterOzo_UkaliqModifierDot" unicode="&#xee11;&#x331;" 
d="M337 -184q-13 36 15 71q27 36 68 36t54 -36q14 -35 -14 -71q-27 -35 -68 -35t-55 35zM574 375l-35 -176q-40 -199 -274 -199h-192l-9 109h31q5 -62 50 -62h129q148 0 179 152l16 82q13 63 -50 63l7 31h148z" />
    <glyph glyph-name="UkaliqGreaterThan_UkaliqModifierDot" unicode="&#xee12;&#x331;" 
d="M89 63h422l-12 -63h-422zM300 704l-75 -376h-86l75 376h86zM337 -184q-13 36 15 71q27 36 68 36t54 -36q14 -35 -14 -71q-27 -35 -68 -35t-55 35z" />
    <glyph glyph-name="UkaliqLetterAtlha_UkaliqModifierDot" unicode="&#xee13;&#x331;" 
d="M300 704l-75 -376h-86l6 32l13 62l31 156q15 76 -50 63l6 31zM337 -184q-13 36 15 71q27 36 68 36t54 -36q14 -35 -14 -71q-27 -35 -68 -35t-55 35zM574 375l-35 -176q-40 -199 -274 -199h-192l-9 109h31q5 -62 50 -62h129q148 0 179 152l35 176h86z" />
    <glyph glyph-name="UkaliqLetterEdzre_UkaliqModifierDot" unicode="&#xee14;&#x331;" 
d="M234 375l-66 -328h278q45 0 75 62h31l-53 -109h-426l56 281q13 63 -50 63l7 31h148zM337 -184q-13 36 15 71q27 36 68 36t54 -36q14 -35 -14 -71q-27 -35 -68 -35t-55 35z" />
    <glyph glyph-name="UkaliqOr_UkaliqModifierDot" unicode="&#xee15;&#x331;" 
d="M234 375l-66 -328h127q127 0 158 152l35 176h86l-35 -176q-40 -199 -253 -199h-213l75 375h86zM337 -184q-13 36 15 71q27 36 68 36t54 -36q14 -35 -14 -71q-27 -35 -68 -35t-55 35z" />
    <glyph glyph-name="UkaliqLetterIdzji_UkaliqModifierDot" unicode="&#xee16;&#x331;" 
d="M300 704l-132 -657h278q45 0 75 62h31l-53 -109h-426l116 578q15 76 -50 63l6 31zM337 -184q-13 36 15 71q27 36 68 36t54 -36q14 -35 -14 -71q-27 -35 -68 -35t-55 35z" />
    <glyph glyph-name="UkaliqLetterOdzo_UkaliqModifierDot" unicode="&#xee17;&#x331;" 
d="M300 704l-132 -657h127q127 0 158 152l16 82q13 63 -50 63l7 31h148l-35 -176q-40 -199 -253 -199h-213l116 578q15 76 -50 63l6 31zM337 -184q-13 36 15 71q27 36 68 36t54 -36q14 -35 -14 -71q-27 -35 -68 -35t-55 35z" />
    <glyph glyph-name="UkaliqLessThan_UkaliqModifierDot" unicode="&#xee18;&#x331;" 
d="M89 63h422l-12 -63h-422zM640 704l-75 -376h-86l75 376h86zM337 -184q-13 36 15 71q27 36 68 36t54 -36q14 -35 -14 -71q-27 -35 -68 -35t-55 35z" />
    <glyph glyph-name="UkaliqLetterOso_UkaliqModifierDot" unicode="&#xee19;&#x331;" 
d="M640 704l-68 -341q-73 -363 -307 -363h-192l-9 109h31q5 -62 50 -62h129q148 0 212 316l43 215q15 76 -50 63l6 31zM337 -184q-13 36 15 71q27 36 68 36t54 -36q14 -35 -14 -71q-27 -35 -68 -35t-55 35z" />
    <glyph glyph-name="UkaliqMultiplication_UkaliqModifierDot" unicode="&#xee1a;&#x331;" 
d="M89 63h422l-12 -63h-422zM300 704l-75 -376h-86l75 376h86zM640 704l-75 -376h-86l75 376h86zM337 -184q-13 36 15 71q27 36 68 36t54 -36q14 -35 -14 -71q-27 -35 -68 -35t-55 35z" />
    <glyph glyph-name="UkaliqLetterApfa_UkaliqModifierDot" unicode="&#xee1b;&#x331;" 
d="M300 704l-50 -251l-13 -62l-6 -31l-92 -32l50 250q15 76 -50 63l6 31zM640 704l-68 -341q-73 -363 -307 -363h-192l-9 109h31q5 -62 50 -62h129q148 0 212 316l43 215q15 76 -50 63l6 31zM337 -184q-13 36 15 71q27 36 68 36t54 -36q14 -35 -14 -71q-27 -35 -68 -35
t-55 35z" />
    <glyph glyph-name="UkaliqLetterEtsre_UkaliqModifierDot" unicode="&#xee1c;&#x331;" 
d="M234 375l-66 -328h278q45 0 75 62h31l-53 -109h-426l56 281q13 63 -50 63l7 31h148zM640 704l-56 -282l-13 -62l-6 -32h-86l50 250q15 76 -50 63l6 31zM337 -184q-13 36 15 71q27 36 68 36t54 -36q14 -35 -14 -71q-27 -35 -68 -35t-55 35z" />
    <glyph glyph-name="UkaliqLetterUkkhu_UkaliqModifierDot" unicode="&#xee1d;&#x331;" 
d="M640 704l-68 -341q-73 -363 -286 -363h-213l56 281q13 63 -50 63l7 31h148l-66 -328h127q127 0 191 316l43 215q15 76 -50 63l6 31zM337 -184q-13 36 15 71q27 36 68 36t54 -36q14 -35 -14 -71q-27 -35 -68 -35t-55 35z" />
    <glyph glyph-name="UkaliqLetterItsji_UkaliqModifierDot" unicode="&#xee1e;&#x331;" 
d="M300 704l-132 -657h278q45 0 75 62h31l-53 -109h-426l116 578q15 76 -50 63l6 31zM640 704l-75 -376l-80 32l6 31l13 62l25 125q15 76 -50 63l6 31zM337 -184q-13 36 15 71q27 36 68 36t54 -36q14 -35 -14 -71q-27 -35 -68 -35t-55 35z" />
    <glyph glyph-name="UkaliqLetterOtso_UkaliqModifierDot" unicode="&#xee1f;&#x331;" 
d="M300 704l-132 -657h127q127 0 191 316l43 215q15 76 -50 63l6 31l155 32l-68 -341q-73 -363 -286 -363h-213l116 578q15 76 -50 63l6 31zM337 -184q-13 36 15 71q27 36 68 36t54 -36q14 -35 -14 -71q-27 -35 -68 -35t-55 35z" />
    <glyph glyph-name="UkaliqRange_UkaliqModifierDot" unicode="&#xee20;&#x331;" 
d="M337 -184q-13 36 15 71q27 36 68 36t54 -36q14 -35 -14 -71q-27 -35 -68 -35t-55 35zM217 704h422l-12 -63h-422z" />
    <glyph glyph-name="UkaliqLetterEo_UkaliqModifierDot" unicode="&#xee21;&#x331;" 
d="M574 375l-56 -281q-13 -63 50 -63l-6 -31h-211l6 31q62 0 75 63l37 187q13 63 -50 63l7 31h148zM353 -184q-13 36 14 71q28 36 69 36t54 -36q14 -35 -14 -71q-27 -35 -68 -35t-55 35zM217 704h422l-25 -126h-31q13 63 -50 63h-234q-63 0 -75 -63h-32z" />
    <glyph glyph-name="UkaliqLetterUh_UkaliqModifierDot" unicode="&#xee22;&#x331;" 
d="M649 594h-31q-5 63 -50 63h-129q-149 0 -179 -153l-10 -51l-13 -62l-6 -31l-92 -32l35 176q40 200 274 200h192zM337 -184q-13 36 15 71q27 36 68 36t54 -36q14 -35 -14 -71q-27 -35 -68 -35t-55 35z" />
    <glyph glyph-name="UkaliqLetterEu_UkaliqModifierDot" unicode="&#xee23;&#x331;" 
d="M574 375l-56 -281q-13 -63 50 -63l-6 -31h-211l6 31q62 0 75 63l56 281h86zM649 594h-31q-5 63 -50 63h-129q-149 0 -179 -153l-35 -176h-86l6 32l13 62l16 82q40 200 274 200h192zM353 -184q-13 36 14 71q28 36 69 36t54 -36q14 -35 -14 -71q-27 -35 -68 -35t-55 35z
" />
    <glyph glyph-name="UkaliqLetterOe_UkaliqModifierDot" unicode="&#xee24;&#x331;" 
d="M234 375l-56 -281q-13 -63 50 -63l-6 -31h-211l6 31q62 0 75 63l37 187q13 63 -50 63l7 31h148zM337 -184q-13 36 15 71q27 36 68 36t54 -36q14 -35 -14 -71q-27 -35 -68 -35t-55 35zM217 704h422l-25 -126h-31q13 63 -50 63h-234q-63 0 -75 -63h-32z" />
    <glyph glyph-name="UkaliqLetterOeh_UkaliqModifierDot" unicode="&#xee25;&#x331;" 
d="M574 375l-56 -281q-13 -63 50 -63l-6 -31h-211l6 31q62 0 75 63l37 187q13 63 -50 63l7 31h148zM234 375l-56 -281q-13 -63 50 -63l-6 -31h-211l6 31q62 0 75 63l37 187q13 63 -50 63l7 31h148zM353 -184q-13 36 14 71q28 36 69 36t54 -36q14 -35 -14 -71
q-27 -35 -68 -35t-55 35zM217 704h422l-25 -126h-31q13 63 -50 63h-234q-63 0 -75 -63h-32z" />
    <glyph glyph-name="UkaliqLetterUi_UkaliqModifierDot" unicode="&#xee26;&#x331;" 
d="M649 594h-31q-5 63 -50 63h-129q-149 0 -212 -317l-49 -246q-13 -63 50 -63l-6 -31h-211l6 31q62 0 75 63l49 246q73 364 307 364h192zM337 -184q-13 36 15 71q27 36 68 36t54 -36q14 -35 -14 -71q-27 -35 -68 -35t-55 35z" />
    <glyph glyph-name="UkaliqLetterAh_UkaliqModifierDot" unicode="&#xee27;&#x331;" 
d="M649 594h-31q-5 63 -50 63h-129q-149 0 -212 -317l-49 -246q-13 -63 50 -63l-6 -31h-211l6 31q62 0 75 63l49 246q73 364 307 364h192zM574 375l-56 -281q-13 -63 50 -63l-6 -31h-211l6 31q62 0 75 63l37 187q13 63 -50 63l7 31h148zM353 -184q-13 36 14 71q28 36 69 36
t54 -36q14 -35 -14 -71q-27 -35 -68 -35t-55 35z" />
    <glyph glyph-name="UkaliqLetterAe_UkaliqModifierDot" unicode="&#xee28;&#x331;" 
d="M214 704q426 0 351 -376l-80 32l6 31l13 62q40 204 -237 204q-45 0 -75 -63h-31zM337 -184q-13 36 15 71q27 36 68 36t54 -36q14 -35 -14 -71q-27 -35 -68 -35t-55 35z" />
    <glyph glyph-name="UkaliqLetterO_UkaliqModifierDot" unicode="&#xee29;&#x331;" 
d="M214 704q426 0 304 -610q-13 -63 50 -63l-6 -31h-211l6 31q62 0 75 63q112 563 -165 563q-45 0 -75 -63h-31zM353 -184q-13 36 14 71q28 36 69 36t54 -36q14 -35 -14 -71q-27 -35 -68 -35t-55 35z" />
    <glyph glyph-name="UkaliqLetterIh_UkaliqModifierDot" unicode="&#xee2a;&#x331;" 
d="M139 328l35 176q40 200 196 200q270 0 195 -376l-80 32l6 31l13 62q40 204 -143 204q-71 0 -101 -153l-10 -51l-13 -62l-6 -31zM337 -184q-13 36 15 71q27 36 68 36t54 -36q14 -35 -14 -71q-27 -35 -68 -35t-55 35z" />
    <glyph glyph-name="UkaliqLetterU_UkaliqModifierDot" unicode="&#xee2b;&#x331;" 
d="M139 328l35 176q40 200 196 200q270 0 148 -610q-13 -63 50 -63l-6 -31h-211l6 31q62 0 75 63q112 563 -71 563q-71 0 -101 -153l-10 -51l-13 -62l-6 -31zM353 -184q-13 36 14 71q28 36 69 36t54 -36q14 -35 -14 -71q-27 -35 -68 -35t-55 35z" />
    <glyph glyph-name="UkaliqLetterE_UkaliqModifierDot" unicode="&#xee2c;&#x331;" 
d="M214 704q426 0 370 -282l-13 -62l-6 -32h-86q65 329 -212 329q-45 0 -75 -63h-31zM234 375l-56 -281q-13 -63 50 -63l-6 -31h-211l6 31q62 0 75 63l37 187q13 63 -50 63l7 31h148zM337 -184q-13 36 15 71q27 36 68 36t54 -36q14 -35 -14 -71q-27 -35 -68 -35t-55 35z" />
    <glyph glyph-name="UkaliqLetterEh_UkaliqModifierDot" unicode="&#xee2d;&#x331;" 
d="M214 704q426 0 304 -610q-13 -63 50 -63l-6 -31h-211l6 31q62 0 75 63q112 563 -165 563q-45 0 -75 -63h-31zM234 375l-56 -281q-13 -63 50 -63l-6 -31h-211l6 31q62 0 75 63l37 187q13 63 -50 63l7 31h148zM353 -184q-13 36 14 71q28 36 69 36t54 -36q14 -35 -14 -71
q-27 -35 -68 -35t-55 35z" />
    <glyph glyph-name="UkaliqLetterI_UkaliqModifierDot" unicode="&#xee2e;&#x331;" 
d="M485 360l6 31l13 62q40 204 -143 204q-71 0 -134 -317l-49 -246q-13 -63 50 -63l-6 -31h-211l6 31q62 0 75 63l49 246q73 364 229 364q270 0 195 -376zM337 -184q-13 36 15 71q27 36 68 36t54 -36q14 -35 -14 -71q-27 -35 -68 -35t-55 35z" />
    <glyph glyph-name="UkaliqLetterOh_UkaliqModifierDot" unicode="&#xee2f;&#x331;" 
d="M11 0l6 31q62 0 75 63l49 246q73 364 229 364q270 0 148 -610q-13 -63 50 -63l-6 -31h-211l6 31q62 0 75 63q112 563 -71 563q-71 0 -134 -317l-49 -246q-13 -63 50 -63l-6 -31h-211zM353 -184q-13 36 14 71q28 36 69 36t54 -36q14 -35 -14 -71q-27 -35 -68 -35t-55 35z
" />
    <glyph glyph-name="UkaliqPlus_UkaliqModifierDot" unicode="&#xee30;&#x331;" 
d="M89 63h422l-12 -63h-422zM337 -184q-13 36 15 71q27 36 68 36t54 -36q14 -35 -14 -71q-27 -35 -68 -35t-55 35zM217 704h422l-12 -63h-422z" />
    <glyph glyph-name="UkaliqCurrency_UkaliqModifierDot" unicode="&#xee31;&#x331;" 
d="M337 -184q-13 36 15 71q27 36 68 36t54 -36q14 -35 -14 -71q-27 -35 -68 -35t-55 35zM574 375l-35 -176q-40 -199 -274 -199h-192l9 47h192q148 0 179 152l35 176h86zM217 704h422l-12 -63h-422z" />
    <glyph glyph-name="UkaliqAt_UkaliqModifierDot" unicode="&#xee32;&#x331;" 
d="M89 63h422l-12 -63h-422zM630 657h-191q-149 0 -179 -153l-35 -176h-86l35 176q40 200 274 200h192zM337 -184q-13 36 15 71q27 36 68 36t54 -36q14 -35 -14 -71q-27 -35 -68 -35t-55 35z" />
    <glyph glyph-name="UkaliqLetterAlha_UkaliqModifierDot" unicode="&#xee33;&#x331;" 
d="M649 594h-31q-5 63 -50 63h-129q-149 0 -179 -153l-35 -176h-86l6 32l13 62l16 82q40 200 274 200h192zM337 -184q-13 36 15 71q27 36 68 36t54 -36q14 -35 -14 -71q-27 -35 -68 -35t-55 35zM574 375l-35 -176q-40 -199 -274 -199h-192l-9 109h31q5 -62 50 -62h129
q148 0 179 152l35 176h86z" />
    <glyph glyph-name="UkaliqLetterElre_UkaliqModifierDot" unicode="&#xee34;&#x331;" 
d="M234 375l-66 -328h278q45 0 75 62h31l-53 -109h-426l56 281q13 63 -50 63l7 31h148zM337 -184q-13 36 15 71q27 36 68 36t54 -36q14 -35 -14 -71q-27 -35 -68 -35t-55 35zM217 704h422l-25 -126h-31q13 63 -50 63h-234q-63 0 -75 -63h-32z" />
    <glyph glyph-name="UkaliqLetterUlgu_UkaliqModifierDot" unicode="&#xee35;&#x331;" 
d="M234 375l-66 -328h127q127 0 158 152l16 82q13 63 -50 63l7 31h148l-35 -176q-40 -199 -253 -199h-213l56 281q13 63 -50 63l7 31h148zM337 -184q-13 36 15 71q27 36 68 36t54 -36q14 -35 -14 -71q-27 -35 -68 -35t-55 35zM217 704h422l-25 -126h-31q13 63 -50 63h-234
q-63 0 -75 -63h-32z" />
    <glyph glyph-name="UkaliqLetterIlji_UkaliqModifierDot" unicode="&#xee36;&#x331;" 
d="M649 594h-31q-5 63 -50 63h-129q-149 0 -210 -305l-61 -305h278q45 0 75 62h31l-53 -109h-426l70 352q71 352 305 352h192zM337 -184q-13 36 15 71q27 36 68 36t54 -36q14 -35 -14 -71q-27 -35 -68 -35t-55 35z" />
    <glyph glyph-name="UkaliqLetterOlo_UkaliqModifierDot" unicode="&#xee37;&#x331;" 
d="M649 594h-31q-5 63 -50 63h-129q-149 0 -210 -305l-61 -305h127q127 0 158 152l16 82q13 63 -50 63l7 31h148l-35 -176q-40 -199 -253 -199h-213l70 352q71 352 305 352h192zM337 -184q-13 36 15 71q27 36 68 36t54 -36q14 -35 -14 -71q-27 -35 -68 -35t-55 35z" />
    <glyph glyph-name="UkaliqDegree_UkaliqModifierDot" unicode="&#xee38;&#x331;" 
d="M89 63h422l-12 -63h-422zM214 704q426 0 351 -376h-86q65 329 -275 329zM337 -184q-13 36 15 71q27 36 68 36t54 -36q14 -35 -14 -71q-27 -35 -68 -35t-55 35z" />
    <glyph glyph-name="UkaliqLetterHbat_UkaliqModifierDot" unicode="&#xee39;&#x331;" 
d="M214 704q426 0 334 -462q-49 -242 -283 -242h-192l-9 109h31q5 -62 50 -62h129q148 0 188 195q82 415 -195 415q-45 0 -75 -63h-31zM337 -184q-13 36 15 71q27 36 68 36t54 -36q14 -35 -14 -71q-27 -35 -68 -35t-55 35z" />
    <glyph glyph-name="UkaliqLetterAnqa_UkaliqModifierDot" unicode="&#xee3a;&#x331;" 
d="M102 125h31q-13 -62 50 -62h234q63 0 75 62h32l-25 -125h-422zM139 328l35 176q40 200 196 200q270 0 195 -376l-80 32l6 31l13 62q40 204 -143 204q-71 0 -101 -153l-10 -51l-13 -62l-6 -31zM337 -184q-13 36 15 71q27 36 68 36t54 -36q14 -35 -14 -71q-27 -35 -68 -35
t-55 35z" />
    <glyph glyph-name="UkaliqLetterAma_UkaliqModifierDot" unicode="&#xee3b;&#x331;" 
d="M139 328l35 176q40 200 196 200q270 0 178 -462q-49 -242 -283 -242h-192l-9 109h31q5 -62 50 -62h129q148 0 188 195q82 415 -101 415q-71 0 -101 -153l-10 -51l-13 -62l-6 -31zM337 -184q-13 36 15 71q27 36 68 36t54 -36q14 -35 -14 -71q-27 -35 -68 -35t-55 35z" />
    <glyph glyph-name="UkaliqLetterEnre_UkaliqModifierDot" unicode="&#xee3c;&#x331;" 
d="M214 704q426 0 370 -282l-13 -62l-6 -32h-86q65 329 -212 329q-45 0 -75 -63h-31zM234 375l-66 -328h278q45 0 75 62h31l-53 -109h-426l56 281q13 63 -50 63l7 31h148zM337 -184q-13 36 15 71q27 36 68 36t54 -36q14 -35 -14 -71q-27 -35 -68 -35t-55 35z" />
    <glyph glyph-name="UkaliqLetterUngu_UkaliqModifierDot" unicode="&#xee3d;&#x331;" 
d="M214 704q426 0 334 -462q-49 -242 -262 -242h-213l56 281q13 63 -50 63l7 31h148l-66 -328h127q127 0 167 195q82 415 -195 415q-45 0 -75 -63h-31zM337 -184q-13 36 15 71q27 36 68 36t54 -36q14 -35 -14 -71q-27 -35 -68 -35t-55 35z" />
    <glyph glyph-name="UkaliqLetterInji_UkaliqModifierDot" unicode="&#xee3e;&#x331;" 
d="M485 360l6 31l13 62q40 204 -143 204q-71 0 -132 -305l-61 -305h278q45 0 75 62h31l-53 -109h-426l70 352q71 352 227 352q270 0 195 -376zM337 -184q-13 36 15 71q27 36 68 36t54 -36q14 -35 -14 -71q-27 -35 -68 -35t-55 35z" />
    <glyph glyph-name="UkaliqLetterOno_UkaliqModifierDot" unicode="&#xee3f;&#x331;" 
d="M337 -184q-13 36 15 71q27 36 68 36t54 -36q14 -35 -14 -71q-27 -35 -68 -35t-55 35zM229 352l-61 -305h127q127 0 167 195q82 415 -101 415q-71 0 -132 -305zM143 352q71 352 227 352q270 0 178 -462q-49 -242 -262 -242h-213z" />
    <glyph glyph-name="UkaliqDash_UkaliqModifierDot" unicode="&#xee40;&#x331;" 
d="M153 383h422l-12 -63h-422zM337 -184q-13 36 15 71q27 36 68 36t54 -36q14 -35 -14 -71q-27 -35 -68 -35t-55 35z" />
    <glyph glyph-name="UkaliqLetterA_UkaliqModifierDot" unicode="&#xee41;&#x331;" 
d="M148 375h192q234 0 194 -199l-16 -82q-13 -63 50 -63l-6 -31h-211l6 31q62 0 75 63l16 82q31 152 -118 152h-97q-63 0 -75 -62h-32zM353 -184q-13 36 14 71q28 36 69 36t54 -36q14 -35 -14 -71q-27 -35 -68 -35t-55 35z" />
    <glyph glyph-name="UkaliqMinus_UkaliqModifierDot" unicode="&#xee42;&#x331;" 
d="M300 704l-35 -176q-31 -153 118 -153h191l-9 -47h-192q-234 0 -194 200l35 176h86zM337 -184q-13 36 15 71q27 36 68 36t54 -36q14 -35 -14 -71q-27 -35 -68 -35t-55 35z" />
    <glyph glyph-name="UkaliqLetterAwa_UkaliqModifierDot" unicode="&#xee43;&#x331;" 
d="M353 -184q-13 36 14 71q28 36 69 36t54 -36q14 -35 -14 -71q-27 -35 -68 -35t-55 35zM300 704l-35 -176q-31 -153 96 -153h213l-56 -281q-13 -63 50 -63l-6 -31h-211l6 31q62 0 75 63l47 234h-127q-213 0 -173 200l10 50q15 76 -50 63l6 31z" />
    <glyph glyph-name="UkaliqLetterErre_UkaliqModifierDot" unicode="&#xee44;&#x331;" 
d="M552 266h-31q12 62 -50 62h-98q-148 0 -179 -152l-16 -82q-13 -63 50 -63l-6 -31h-211l6 31q62 0 75 63l16 82q40 199 275 199h191zM337 -184q-13 36 15 71q27 36 68 36t54 -36q14 -35 -14 -71q-27 -35 -68 -35t-55 35z" />
    <glyph glyph-name="UkaliqAnd_UkaliqModifierDot" unicode="&#xee45;&#x331;" 
d="M73 0l35 176q40 199 253 199t173 -199l-35 -176h-86l35 176q31 152 -96 152t-158 -152l-35 -176h-86zM353 -184q-13 36 14 71q28 36 69 36t54 -36q14 -35 -14 -71q-27 -35 -68 -35t-55 35z" />
    <glyph glyph-name="UkaliqLetterIzji_UkaliqModifierDot" unicode="&#xee46;&#x331;" 
d="M337 -184q-13 36 15 71q27 36 68 36t54 -36q14 -35 -14 -71q-27 -35 -68 -35t-55 35zM300 704l-53 -264l-13 -65h246q63 0 75 63h32l-35 -172h-31q12 62 -50 62h-246l-13 -64l-34 -170q-13 -63 50 -63l-6 -31h-211l6 31q62 0 75 63l34 170l35 176l28 138q15 76 -50 63
l6 31z" />
    <glyph glyph-name="UkaliqLetterOro_UkaliqModifierDot" unicode="&#xee47;&#x331;" 
d="M353 -184q-13 36 14 71q28 36 69 36t54 -36q14 -35 -14 -71q-27 -35 -68 -35t-55 35zM300 704l-53 -264l-13 -65h127q213 0 173 -199l-16 -82q-13 -63 50 -63l-6 -31h-211l6 31q62 0 75 63l16 82q31 152 -96 152h-127l-13 -64l-34 -170q-13 -63 50 -63l-6 -31h-211l6 31
q62 0 75 63l34 170l35 176l28 138q15 76 -50 63l6 31z" />
    <glyph glyph-name="UkaliqNot_UkaliqModifierDot" unicode="&#xee48;&#x331;" 
d="M640 704l-35 -176q-40 -200 -275 -200h-191l9 47h192q148 0 179 153l35 176h86zM337 -184q-13 36 15 71q27 36 68 36t54 -36q14 -35 -14 -71q-27 -35 -68 -35t-55 35z" />
    <glyph glyph-name="UkaliqDivision_UkaliqModifierDot" unicode="&#xee49;&#x331;" 
d="M640 704l-53 -264l-35 -176l-53 -264h-86l53 264l13 64h-340l9 47h340l13 65l53 264h86zM353 -184q-13 36 14 71q28 36 69 36t54 -36q14 -35 -14 -71q-27 -35 -68 -35t-55 35z" />
    <glyph glyph-name="UkaliqXor_UkaliqModifierDot" unicode="&#xee4a;&#x331;" 
d="M300 704l-35 -176q-31 -153 96 -153t158 153l35 176h86l-35 -176q-40 -200 -253 -200t-173 200l35 176h86zM337 -184q-13 36 15 71q27 36 68 36t54 -36q14 -35 -14 -71q-27 -35 -68 -35t-55 35z" />
    <glyph glyph-name="uniEE4B_UkaliqModifierDot" unicode="&#xee4b;&#x331;" 
d="M353 -184q-13 36 14 71q28 36 69 36t54 -36q14 -35 -14 -71q-27 -35 -68 -35t-55 35zM300 704l-35 -176q-31 -153 96 -153h127l13 65l53 264h86l-53 -264l-35 -176l-53 -264h-86l53 264l13 64h-127q-213 0 -173 200l35 176h86z" />
    <glyph glyph-name="UkaliqLetterIji_UkaliqModifierDot" unicode="&#xee4c;&#x331;" 
d="M640 704l-35 -176q-40 -200 -253 -200h-127l-47 -234q-13 -63 50 -63l-6 -31h-211l6 31q62 0 75 63l56 281h213q127 0 158 153l10 50q15 76 -50 63l6 31zM337 -184q-13 36 15 71q27 36 68 36t54 -36q14 -35 -14 -71q-27 -35 -68 -35t-55 35z" />
    <glyph glyph-name="UkaliqLetterTkot_UkaliqModifierDot" unicode="&#xee4d;&#x331;" 
d="M640 704l-53 -264l-35 -176l-34 -170q-13 -63 50 -63l-6 -31h-211l6 31q62 0 75 63l34 170l13 64h-127q-127 0 -158 -152l-16 -82q-13 -63 50 -63l-6 -31h-211l6 31q62 0 75 63l16 82q40 199 253 199h127l13 65l28 138q15 76 -50 63l6 31zM353 -184q-13 36 14 71
q28 36 69 36t54 -36q14 -35 -14 -71q-27 -35 -68 -35t-55 35z" />
    <glyph glyph-name="UkaliqLetterIsji_UkaliqModifierDot" unicode="&#xee4e;&#x331;" 
d="M337 -184q-13 36 15 71q27 36 68 36t54 -36q14 -35 -14 -71q-27 -35 -68 -35t-55 35zM640 704l-35 -176q-40 -200 -253 -200h-127l-13 -64l-34 -170q-13 -63 50 -63l-6 -31h-211l6 31q62 0 75 63l34 170l35 176l28 138q15 76 -50 63l6 31l155 32l-53 -264l-13 -65h127
q127 0 158 153l10 50q15 76 -50 63l6 31z" />
    <glyph glyph-name="UkaliqLetterOrro_UkaliqModifierDot" unicode="&#xee4f;&#x331;" 
d="M353 -184q-13 36 14 71q28 36 69 36t54 -36q14 -35 -14 -71q-27 -35 -68 -35t-55 35zM640 704l-53 -264l-35 -176l-34 -170q-13 -63 50 -63l-6 -31h-211l6 31q62 0 75 63l34 170l13 64h-254l-13 -64l-34 -170q-13 -63 50 -63l-6 -31h-211l6 31q62 0 75 63l34 170l35 176
l28 138q15 76 -50 63l6 31l155 32l-53 -264l-13 -65h254l13 65l28 138q15 76 -50 63l6 31z" />
    <glyph glyph-name="UkaliqDigitZero_UkaliqModifierDot" unicode="&#xee50;&#x331;" 
d="M102 125h31q-13 -62 50 -62h234q63 0 75 62h32l-25 -125h-422zM153 383h422l-25 -125h-31q13 62 -50 62h-234q-63 0 -76 -62h-31zM337 -184q-13 36 15 71q27 36 68 36t54 -36q14 -35 -14 -71q-27 -35 -68 -35t-55 35z" />
    <glyph glyph-name="UkaliqDigitOne_UkaliqModifierDot" unicode="&#xee51;&#x331;" 
d="M148 375h192q234 0 197 -187q-38 -188 -272 -188h-192l-9 109h31q5 -62 50 -62h129q148 0 177 141q28 140 -121 140h-97q-63 0 -75 -62h-32zM337 -184q-13 36 15 71q27 36 68 36t54 -36q14 -35 -14 -71q-27 -35 -68 -35t-55 35z" />
    <glyph glyph-name="UkaliqDigitTwo_UkaliqModifierDot" unicode="&#xee52;&#x331;" 
d="M300 704l-35 -176q-31 -153 118 -153h97q63 0 75 63h32l-35 -172h-31q12 62 -50 62h-98q-234 0 -194 200l10 50q15 76 -50 63l6 31zM102 125h31q-13 -62 50 -62h234q63 0 75 62h32l-25 -125h-422zM337 -184q-13 36 15 71q27 36 68 36t54 -36q14 -35 -14 -71
q-27 -35 -68 -35t-55 35z" />
    <glyph glyph-name="UkaliqDigitThree_UkaliqModifierDot" unicode="&#xee53;&#x331;" 
d="M337 -184q-13 36 15 71q27 36 68 36t54 -36q14 -35 -14 -71q-27 -35 -68 -35t-55 35zM300 704l-35 -176q-31 -153 96 -153h213l-37 -187q-38 -188 -272 -188h-192l-9 109h31q5 -62 50 -62h129q148 0 177 141l28 140h-127q-213 0 -173 200l10 50q15 76 -50 63l6 31z" />
    <glyph glyph-name="UkaliqDigitFour_UkaliqModifierDot" unicode="&#xee54;&#x331;" 
d="M552 266h-31q12 62 -50 62h-98q-148 0 -176 -140l-29 -141h278q45 0 75 62h31l-53 -109h-426l38 188q37 187 272 187h191zM337 -184q-13 36 15 71q27 36 68 36t54 -36q14 -35 -14 -71q-27 -35 -68 -35t-55 35z" />
    <glyph glyph-name="UkaliqDigitFive_UkaliqModifierDot" unicode="&#xee55;&#x331;" 
d="M337 -184q-13 36 15 71q27 36 68 36t54 -36q14 -35 -14 -71q-27 -35 -68 -35t-55 35zM197 188l-29 -141h127q127 0 156 141q28 140 -99 140t-155 -140zM111 188q37 187 250 187t176 -187q-38 -188 -251 -188h-213z" />
    <glyph glyph-name="UkaliqDigitSix_UkaliqModifierDot" unicode="&#xee56;&#x331;" 
d="M337 -184q-13 36 15 71q27 36 68 36t54 -36q14 -35 -14 -71q-27 -35 -68 -35t-55 35zM300 704l-53 -264l-13 -65h246q63 0 75 63h32l-35 -172h-31q12 62 -50 62h-246l-12 -58l-45 -223h278q45 0 75 62h31l-53 -109h-426l54 270l34 170l28 138q15 76 -50 63l6 31z" />
    <glyph glyph-name="UkaliqDigitSeven_UkaliqModifierDot" unicode="&#xee57;&#x331;" 
d="M337 -184q-13 36 15 71q27 36 68 36t54 -36q14 -35 -14 -71q-27 -35 -68 -35t-55 35zM300 704l-53 -264l-13 -65h127q213 0 176 -187q-38 -188 -251 -188h-213l54 270l34 170l28 138q15 76 -50 63l6 31zM225 328l-12 -58l-45 -223h127q127 0 156 141q28 140 -99 140h-127
z" />
    <glyph glyph-name="UkaliqDigitEight_UkaliqModifierDot" unicode="&#xee58;&#x331;" 
d="M102 125h31q-13 -62 50 -62h234q63 0 75 62h32l-25 -125h-422zM640 704l-35 -176q-40 -200 -275 -200h-97q-63 0 -75 -62h-32l35 172h31q-13 -63 50 -63h98q148 0 179 153l10 50q15 76 -50 63l6 31zM337 -184q-13 36 15 71q27 36 68 36t54 -36q14 -35 -14 -71
q-27 -35 -68 -35t-55 35z" />
    <glyph glyph-name="UkaliqDigitNine_UkaliqModifierDot" unicode="&#xee59;&#x331;" 
d="M161 438h31q-13 -63 50 -63h246l13 65l28 138q15 76 -50 63l6 31l155 32l-53 -264l-34 -170l-16 -82q-38 -188 -272 -188h-192l-9 109h31q5 -62 50 -62h129q148 0 177 141l16 82l12 58h-246q-63 0 -75 -62h-32zM337 -184q-13 36 15 71q27 36 68 36t54 -36q14 -35 -14 -71
q-27 -35 -68 -35t-55 35z" />
    <glyph glyph-name="UkaliqDigitTen_UkaliqModifierDot" unicode="&#xee5a;&#x331;" 
d="M300 704l-35 -176q-31 -153 96 -153t158 153l10 50q15 76 -50 63l6 31l155 32l-35 -176q-40 -200 -253 -200t-173 200l10 50q15 76 -50 63l6 31zM102 125h31q-13 -62 50 -62h234q63 0 75 62h32l-25 -125h-422zM337 -184q-13 36 15 71q27 36 68 36t54 -36q14 -35 -14 -71
q-27 -35 -68 -35t-55 35z" />
    <glyph glyph-name="UkaliqDigitEleven_UkaliqModifierDot" unicode="&#xee5b;&#x331;" 
d="M337 -184q-13 36 15 71q27 36 68 36t54 -36q14 -35 -14 -71q-27 -35 -68 -35t-55 35zM300 704l-35 -176q-31 -153 96 -153h127l13 65l28 138q15 76 -50 63l6 31l155 32l-53 -264l-34 -170l-16 -82q-38 -188 -272 -188h-192l-9 109h31q5 -62 50 -62h129q148 0 177 141
l16 82l12 58h-127q-213 0 -173 200l10 50q15 76 -50 63l6 31z" />
    <glyph glyph-name="UkaliqDigitTwelve_UkaliqModifierDot" unicode="&#xee5c;&#x331;" 
d="M640 704l-35 -176q-40 -200 -253 -200h-127l-57 -281h278q45 0 75 62h31l-53 -109h-426l75 375h213q127 0 158 153l10 50q15 76 -50 63l6 31zM337 -184q-13 36 15 71q27 36 68 36t54 -36q14 -35 -14 -71q-27 -35 -68 -35t-55 35z" />
    <glyph glyph-name="UkaliqDigitThirteen_UkaliqModifierDot" unicode="&#xee5d;&#x331;" 
d="M640 704l-53 -264l-34 -170l-16 -82q-38 -188 -251 -188h-213l38 188q37 187 250 187h127l13 65l28 138q15 76 -50 63l6 31zM337 -184q-13 36 15 71q27 36 68 36t54 -36q14 -35 -14 -71q-27 -35 -68 -35t-55 35zM479 328h-127q-127 0 -155 -140l-29 -141h127
q127 0 156 141l16 82z" />
    <glyph glyph-name="UkaliqDigitFourteen_UkaliqModifierDot" unicode="&#xee5e;&#x331;" 
d="M337 -184q-13 36 15 71q27 36 68 36t54 -36q14 -35 -14 -71q-27 -35 -68 -35t-55 35zM640 704l-35 -176q-40 -200 -253 -200h-127l-12 -58l-45 -223h278q45 0 75 62h31l-53 -109h-426l54 270l34 170l28 138q15 76 -50 63l6 31l155 32l-53 -264l-13 -65h127q127 0 158 153
l10 50q15 76 -50 63l6 31z" />
    <glyph glyph-name="UkaliqDigitFifteen_UkaliqModifierDot" unicode="&#xee5f;&#x331;" 
d="M337 -184q-13 36 15 71q27 36 68 36t54 -36q14 -35 -14 -71q-27 -35 -68 -35t-55 35zM300 704l-53 -264l-13 -65h254l13 65l28 138q15 76 -50 63l6 31l155 32l-53 -264l-34 -170l-16 -82q-38 -188 -251 -188h-213l54 270l34 170l28 138q15 76 -50 63l6 31zM479 328h-254
l-12 -58l-45 -223h127q127 0 156 141l16 82z" />
    <glyph glyph-name="UkaliqLetterSchwa_UkaliqModifierDot" unicode="&#xee60;&#x331;" 
d="M166 446h31q-13 -63 50 -63h235q62 0 75 63h31l-25 -126h-422zM337 -184q-13 36 15 71q27 36 68 36t54 -36q14 -35 -14 -71q-27 -35 -68 -35t-55 35zM217 704h422l-25 -126h-31q13 63 -50 63h-234q-63 0 -75 -63h-32z" />
    <glyph glyph-name="UkaliqLetterOhgo_UkaliqModifierDot" unicode="&#xee61;&#x331;" 
d="M161 438h31q-13 -63 50 -63h98q234 0 194 -199l-16 -82q-13 -63 50 -63l-6 -31h-211l6 31q62 0 75 63l16 82q31 152 -118 152h-97q-63 0 -75 -62h-32zM353 -184q-13 36 14 71q28 36 69 36t54 -36q14 -35 -14 -71q-27 -35 -68 -35t-55 35zM217 704h422l-25 -126h-31
q13 63 -50 63h-234q-63 0 -75 -63h-32z" />
    <glyph glyph-name="UkaliqLetterArha_UkaliqModifierDot" unicode="&#xee62;&#x331;" 
d="M649 594h-31q-5 63 -50 63h-129q-149 0 -177 -141t121 -141h97q63 0 75 63h32l-22 -110h-192q-234 0 -197 188q38 188 272 188h192zM337 -184q-13 36 15 71q27 36 68 36t54 -36q14 -35 -14 -71q-27 -35 -68 -35t-55 35z" />
    <glyph glyph-name="UkaliqLetterAva_UkaliqModifierDot" unicode="&#xee63;&#x331;" 
d="M353 -184q-13 36 14 71q28 36 69 36t54 -36q14 -35 -14 -71q-27 -35 -68 -35t-55 35zM649 594h-31q-5 63 -50 63h-129q-149 0 -177 -141t99 -141h213l-56 -281q-13 -63 50 -63l-6 -31h-211l6 31q62 0 75 63l47 234h-127q-213 0 -176 188q38 188 272 188h192z" />
    <glyph glyph-name="UkaliqLetterEzre_UkaliqModifierDot" unicode="&#xee64;&#x331;" 
d="M552 266h-31q12 62 -50 62h-98q-148 0 -179 -152l-16 -82q-13 -63 50 -63l-6 -31h-211l6 31q62 0 75 63l16 82q40 199 275 199h97q63 0 75 63h32zM337 -184q-13 36 15 71q27 36 68 36t54 -36q14 -35 -14 -71q-27 -35 -68 -35t-55 35zM217 704h422l-25 -126h-31
q13 63 -50 63h-234q-63 0 -75 -63h-32z" />
    <glyph glyph-name="UkaliqLetterUghu_UkaliqModifierDot" unicode="&#xee65;&#x331;" 
d="M11 0l6 31q62 0 75 63l16 82q40 199 253 199t173 -199l-16 -82q-13 -63 50 -63l-6 -31h-211l6 31q62 0 75 63l16 82q31 152 -96 152t-158 -152l-16 -82q-13 -63 50 -63l-6 -31h-211zM353 -184q-13 36 14 71q28 36 69 36t54 -36q14 -35 -14 -71q-27 -35 -68 -35t-55 35z
M217 704h422l-25 -126h-31q13 63 -50 63h-234q-63 0 -75 -63h-32z" />
    <glyph glyph-name="UkaliqLetterIjji_UkaliqModifierDot" unicode="&#xee66;&#x331;" 
d="M337 -184q-13 36 15 71q27 36 68 36t54 -36q14 -35 -14 -71q-27 -35 -68 -35t-55 35zM649 594h-31q-5 63 -50 63h-129q-149 0 -177 -141l-16 -82l-12 -59h246q63 0 75 63h32l-35 -172h-31q12 62 -50 62h-246l-13 -64l-34 -170q-13 -63 50 -63l-6 -31h-211l6 31
q62 0 75 63l34 170l34 170l16 82q38 188 272 188h192z" />
    <glyph glyph-name="UkaliqLetterOdho_UkaliqModifierDot" unicode="&#xee67;&#x331;" 
d="M353 -184q-13 36 14 71q28 36 69 36t54 -36q14 -35 -14 -71q-27 -35 -68 -35t-55 35zM649 594h-31q-5 63 -50 63h-129q-149 0 -177 -141l-16 -82l-12 -59h127q213 0 173 -199l-16 -82q-13 -63 50 -63l-6 -31h-211l6 31q62 0 75 63l16 82q31 152 -96 152h-127l-13 -64
l-34 -170q-13 -63 50 -63l-6 -31h-211l6 31q62 0 75 63l34 170l34 170l16 82q38 188 272 188h192z" />
    <glyph glyph-name="UkaliqLetterOhho_UkaliqModifierDot" unicode="&#xee68;&#x331;" 
d="M214 704q426 0 377 -243q-26 -133 -261 -133h-191l22 110h31q-13 -63 50 -63h98q148 0 165 86q39 196 -238 196q-45 0 -75 -63h-31zM337 -184q-13 36 15 71q27 36 68 36t54 -36q14 -35 -14 -71q-27 -35 -68 -35t-55 35z" />
    <glyph glyph-name="UkaliqLetterAha_UkaliqModifierDot" unicode="&#xee69;&#x331;" 
d="M161 438h31q-13 -63 50 -63h246l9 42q47 240 -230 240q-45 0 -75 -63h-31l53 110q426 0 369 -287l-31 -153l-34 -170q-13 -63 50 -63l-6 -31h-211l6 31q62 0 75 63l34 170l13 64h-246q-63 0 -75 -62h-32zM353 -184q-13 36 14 71q28 36 69 36t54 -36q14 -35 -14 -71
q-27 -35 -68 -35t-55 35z" />
    <glyph glyph-name="UkaliqLetterAqha_UkaliqModifierDot" unicode="&#xee6a;&#x331;" 
d="M337 -184q-13 36 15 71q27 36 68 36t54 -36q14 -35 -14 -71q-27 -35 -68 -35t-55 35zM262 516q-28 -141 99 -141t144 86q39 196 -144 196q-71 0 -99 -141zM176 516q38 188 194 188q270 0 221 -243q-26 -133 -239 -133t-176 188z" />
    <glyph glyph-name="UkaliqLetterAfa_UkaliqModifierDot" unicode="&#xee6b;&#x331;" 
d="M353 -184q-13 36 14 71q28 36 69 36t54 -36q14 -35 -14 -71q-27 -35 -68 -35t-55 35zM488 375l9 42q47 240 -136 240q-71 0 -99 -141t99 -141h127zM479 328h-127q-213 0 -176 188q38 188 194 188q270 0 213 -287l-31 -153l-34 -170q-13 -63 50 -63l-6 -31h-211l6 31
q62 0 75 63l34 170z" />
    <glyph glyph-name="UkaliqLetterEsre_UkaliqModifierDot" unicode="&#xee6c;&#x331;" 
d="M214 704q426 0 377 -243q-26 -133 -239 -133h-127l-47 -234q-13 -63 50 -63l-6 -31h-211l6 31q62 0 75 63l56 281h213q127 0 144 86q39 196 -238 196q-45 0 -75 -63h-31zM337 -184q-13 36 15 71q27 36 68 36t54 -36q14 -35 -14 -71q-27 -35 -68 -35t-55 35z" />
    <glyph glyph-name="UkaliqLetterUkhu_UkaliqModifierDot" unicode="&#xee6d;&#x331;" 
d="M214 704q426 0 369 -287l-31 -153l-34 -170q-13 -63 50 -63l-6 -31h-211l6 31q62 0 75 63l34 170l13 64h-127q-127 0 -158 -152l-16 -82q-13 -63 50 -63l-6 -31h-211l6 31q62 0 75 63l16 82q40 199 253 199h127l9 42q47 240 -230 240q-45 0 -75 -63h-31zM353 -184
q-13 36 14 71q28 36 69 36t54 -36q14 -35 -14 -71q-27 -35 -68 -35t-55 35z" />
    <glyph glyph-name="UkaliqLetterIcji_UkaliqModifierDot" unicode="&#xee6e;&#x331;" 
d="M337 -184q-13 36 15 71q27 36 68 36t54 -36q14 -35 -14 -71q-27 -35 -68 -35t-55 35zM225 328l-13 -64l-34 -170q-13 -63 50 -63l-6 -31h-211l6 31q62 0 75 63l34 170l34 170l16 82q38 188 194 188q270 0 221 -243q-26 -133 -239 -133h-127zM234 375h127q127 0 144 86
q39 196 -144 196q-71 0 -99 -141l-16 -82z" />
    <glyph glyph-name="UkaliqLetterOtho_UkaliqModifierDot" unicode="&#xee6f;&#x331;" 
d="M353 -184q-13 36 14 71q28 36 69 36t54 -36q14 -35 -14 -71q-27 -35 -68 -35t-55 35zM11 0l6 31q62 0 75 63l34 170l34 170l16 82q38 188 194 188q270 0 213 -287l-31 -153l-34 -170q-13 -63 50 -63l-6 -31h-211l6 31q62 0 75 63l34 170l13 64h-254l-13 -64l-34 -170
q-13 -63 50 -63l-6 -31h-211zM234 375h254l9 42q47 240 -136 240q-71 0 -99 -141l-16 -82z" />
    <glyph glyph-name="UkaliqIterationMark_UkaliqModifierDot" unicode="&#xee70;&#x331;" 
d="M89 63h422l-12 -63h-422zM153 383h422l-12 -63h-422zM337 -184q-13 36 15 71q27 36 68 36t54 -36q14 -35 -14 -71q-27 -35 -68 -35t-55 35zM217 704h422l-12 -63h-422z" />
    <glyph glyph-name="UkaliqPercent_UkaliqModifierDot" unicode="&#xee71;&#x331;" 
d="M148 375h192q234 0 197 -187q-38 -188 -272 -188h-192l9 47h192q148 0 177 141q28 140 -121 140h-191zM337 -184q-13 36 15 71q27 36 68 36t54 -36q14 -35 -14 -71q-27 -35 -68 -35t-55 35zM217 704h422l-12 -63h-422z" />
    <glyph glyph-name="UkaliqLetterAgqa_UkaliqModifierDot" unicode="&#xee72;&#x331;" 
d="M649 594h-31q-5 63 -50 63h-129q-149 0 -177 -141t121 -141h97q63 0 75 63h32l-35 -172h-31q12 62 -50 62h-98q-234 0 -197 188q38 188 272 188h192zM102 125h31q-13 -62 50 -62h234q63 0 75 62h32l-25 -125h-422zM337 -184q-13 36 15 71q27 36 68 36t54 -36
q14 -35 -14 -71q-27 -35 -68 -35t-55 35z" />
    <glyph glyph-name="UkaliqLetterAba_UkaliqModifierDot" unicode="&#xee73;&#x331;" 
d="M337 -184q-13 36 15 71q27 36 68 36t54 -36q14 -35 -14 -71q-27 -35 -68 -35t-55 35zM610 594h-31q-5 63 -50 63h-109q-130 0 -158 -141t99 -141h213l-37 -187q-38 -188 -262 -188h-180l-10 109h31q6 -62 50 -62h119q137 0 166 141l28 140h-127q-213 0 -176 188
q38 188 253 188h172z" />
    <glyph glyph-name="UkaliqLetterEdre_UkaliqModifierDot" unicode="&#xee74;&#x331;" 
d="M552 266h-31q12 62 -50 62h-98q-148 0 -176 -140l-29 -141h278q45 0 75 62h31l-53 -109h-426l38 188q37 187 272 187h97q63 0 75 63h32zM337 -184q-13 36 15 71q27 36 68 36t54 -36q14 -35 -14 -71q-27 -35 -68 -35t-55 35zM217 704h422l-25 -126h-31q13 63 -50 63h-234
q-63 0 -75 -63h-32z" />
    <glyph glyph-name="UkaliqLetterUgu_UkaliqModifierDot" unicode="&#xee75;&#x331;" 
d="M337 -184q-13 36 15 71q27 36 68 36t54 -36q14 -35 -14 -71q-27 -35 -68 -35t-55 35zM217 704h422l-25 -126h-31q13 63 -50 63h-234q-63 0 -75 -63h-32zM197 188l-29 -141h127q127 0 156 141q28 140 -99 140t-155 -140zM111 188q37 187 250 187t176 -187
q-38 -188 -251 -188h-213z" />
    <glyph glyph-name="UkaliqLetterIgji_UkaliqModifierDot" unicode="&#xee76;&#x331;" 
d="M337 -184q-13 36 15 71q27 36 68 36t54 -36q14 -35 -14 -71q-27 -35 -68 -35t-55 35zM649 594h-31q-5 63 -50 63h-129q-149 0 -177 -141l-16 -82l-12 -59h246q63 0 75 63h32l-35 -172h-31q12 62 -50 62h-246l-12 -58l-45 -223h278q45 0 75 62h31l-53 -109h-426l54 270
l33 164l16 82q38 188 272 188h192z" />
    <glyph glyph-name="UkaliqLetterOdo_UkaliqModifierDot" unicode="&#xee77;&#x331;" 
d="M337 -184q-13 36 15 71q27 36 68 36t54 -36q14 -35 -14 -71q-27 -35 -68 -35t-55 35zM610 594h-31q-5 63 -50 63h-109q-130 0 -158 -141l-16 -82l-12 -59h127q213 0 176 -187q-38 -188 -251 -188h-213l54 270l33 164l16 82q38 188 253 188h172zM225 328l-12 -58l-45 -223
h127q127 0 156 141q28 140 -99 140h-127z" />
    <glyph glyph-name="UkaliqLetterOhhko_UkaliqModifierDot" unicode="&#xee78;&#x331;" 
d="M102 125h31q-13 -62 50 -62h234q63 0 75 62h32l-25 -125h-422zM214 704q426 0 377 -243q-26 -133 -261 -133h-97q-63 0 -75 -62h-32l35 172h31q-13 -63 50 -63h98q148 0 165 86q39 196 -238 196q-45 0 -75 -63h-31zM337 -184q-13 36 15 71q27 36 68 36t54 -36
q14 -35 -14 -71q-27 -35 -68 -35t-55 35z" />
    <glyph glyph-name="UkaliqLetterAhka_UkaliqModifierDot" unicode="&#xee79;&#x331;" 
d="M161 438h31q-13 -63 50 -63h246l9 42q47 240 -230 240q-45 0 -75 -63h-31l53 110q426 0 369 -287l-30 -147l-16 -82q-38 -188 -272 -188h-192l-9 109h31q5 -62 50 -62h129q148 0 177 141l16 82l12 58h-246q-63 0 -75 -62h-32zM337 -184q-13 36 15 71q27 36 68 36t54 -36
q14 -35 -14 -71q-27 -35 -68 -35t-55 35z" />
    <glyph glyph-name="UkaliqLetterAqa_UkaliqModifierDot" unicode="&#xee7a;&#x331;" 
d="M102 125h31q-13 -62 50 -62h234q63 0 75 62h32l-25 -125h-422zM337 -184q-13 36 15 71q27 36 68 36t54 -36q14 -35 -14 -71q-27 -35 -68 -35t-55 35zM262 516q-28 -141 99 -141t144 86q39 196 -144 196q-71 0 -99 -141zM176 516q38 188 194 188q270 0 221 -243
q-26 -133 -239 -133t-176 188z" />
    <glyph glyph-name="UkaliqLetterApa_UkaliqModifierDot" unicode="&#xee7b;&#x331;" 
d="M337 -184q-13 36 15 71q27 36 68 36t54 -36q14 -35 -14 -71q-27 -35 -68 -35t-55 35zM488 375l9 42q47 240 -136 240q-71 0 -99 -141t99 -141h127zM479 328h-127q-213 0 -176 188q38 188 194 188q270 0 213 -287l-30 -147l-16 -82q-38 -188 -262 -188h-180l-10 109h31
q6 -62 50 -62h119q137 0 166 141l16 82z" />
    <glyph glyph-name="UkaliqLetterEtre_UkaliqModifierDot" unicode="&#xee7c;&#x331;" 
d="M252 704q388 0 339 -243q-26 -133 -239 -133h-127l-57 -281h256q45 0 75 62h32l-53 -109h-405l75 375h213q127 0 144 86q39 196 -199 196q-45 0 -75 -63h-32zM337 -184q-13 36 15 71q27 36 68 36t54 -36q14 -35 -14 -71q-27 -35 -68 -35t-55 35z" />
    <glyph glyph-name="UkaliqLetterUku_UkaliqModifierDot" unicode="&#xee7d;&#x331;" 
d="M252 704q388 0 331 -287l-30 -147l-16 -82q-38 -188 -251 -188h-213l38 188q37 187 250 187h127l9 42q47 240 -191 240q-45 0 -75 -63h-32zM337 -184q-13 36 15 71q27 36 68 36t54 -36q14 -35 -14 -71q-27 -35 -68 -35t-55 35zM479 328h-127q-127 0 -155 -140l-29 -141
h127q127 0 156 141l16 82z" />
    <glyph glyph-name="UkaliqLetterIci_UkaliqModifierDot" unicode="&#xee7e;&#x331;" 
d="M337 -184q-13 36 15 71q27 36 68 36t54 -36q14 -35 -14 -71q-27 -35 -68 -35t-55 35zM225 328l-12 -58l-45 -223h256q45 0 75 62h32l-53 -109h-405l54 270l33 164l16 82q38 188 194 188q270 0 221 -243q-26 -133 -239 -133h-127zM234 375h127q127 0 144 86
q39 196 -144 196q-71 0 -99 -141l-16 -82z" />
    <glyph glyph-name="UkaliqLetterOto_UkaliqModifierDot" unicode="&#xee7f;&#x331;" 
d="M337 -184q-13 36 15 71q27 36 68 36t54 -36q14 -35 -14 -71q-27 -35 -68 -35t-55 35zM488 375l9 42q47 240 -136 240q-71 0 -99 -141l-16 -82l-12 -59h254zM479 328h-254l-12 -58l-45 -223h127q127 0 156 141l16 82zM176 516q38 188 194 188q270 0 213 -287l-30 -147
l-16 -82q-38 -188 -251 -188h-213l54 270l33 164z" />
    <glyph glyph-name="UkaliqPatternBlank_UkaliqModifierDot" unicode="&#xf1d00;&#x331;" 
d="M337 -184q-13 36 15 71q27 36 68 36t54 -36q14 -35 -14 -71q-27 -35 -68 -35t-55 35z" />
    <glyph glyph-name="UkaliqPatternSegmentsC_UkaliqModifierDot" unicode="&#xf1d01;&#x331;" 
d="M574 375l-75 -375h-86l75 375h86zM353 -184q-13 36 14 71q28 36 69 36t54 -36q14 -35 -14 -71q-27 -35 -68 -35t-55 35z" />
    <glyph glyph-name="UkaliqPatternSegmentsF_UkaliqModifierDot" unicode="&#xf1d02;&#x331;" 
d="M300 704l-75 -376h-86l75 376h86zM337 -184q-13 36 15 71q27 36 68 36t54 -36q14 -35 -14 -71q-27 -35 -68 -35t-55 35z" />
    <glyph glyph-name="UkaliqPatternSegmentsCf_UkaliqModifierDot" unicode="&#xf1d03;&#x331;" 
d="M574 375l-75 -375h-86l75 375h86zM300 704l-75 -376h-86l75 376h86zM353 -184q-13 36 14 71q28 36 69 36t54 -36q14 -35 -14 -71q-27 -35 -68 -35t-55 35z" />
    <glyph glyph-name="UkaliqPatternSegmentsE_UkaliqModifierDot" unicode="&#xf1d04;&#x331;" 
d="M234 375l-75 -375h-86l75 375h86zM337 -184q-13 36 15 71q27 36 68 36t54 -36q14 -35 -14 -71q-27 -35 -68 -35t-55 35z" />
    <glyph glyph-name="UkaliqPatternSegmentsCe_UkaliqModifierDot" unicode="&#xf1d05;&#x331;" 
d="M574 375l-75 -375h-86l75 375h86zM234 375l-75 -375h-86l75 375h86zM353 -184q-13 36 14 71q28 36 69 36t54 -36q14 -35 -14 -71q-27 -35 -68 -35t-55 35z" />
    <glyph glyph-name="UkaliqPatternSegmentsEf_UkaliqModifierDot" unicode="&#xf1d06;&#x331;" 
d="M300 704l-141 -704h-86l141 704h86zM337 -184q-13 36 15 71q27 36 68 36t54 -36q14 -35 -14 -71q-27 -35 -68 -35t-55 35z" />
    <glyph glyph-name="UkaliqPatternSegmentsCef_UkaliqModifierDot" unicode="&#xf1d07;&#x331;" 
d="M300 704l-141 -704h-86l141 704h86zM574 375l-75 -375h-86l75 375h86zM353 -184q-13 36 14 71q28 36 69 36t54 -36q14 -35 -14 -71q-27 -35 -68 -35t-55 35z" />
    <glyph glyph-name="UkaliqPatternSegmentsB_UkaliqModifierDot" unicode="&#xf1d08;&#x331;" 
d="M640 704l-75 -376h-86l75 376h86zM337 -184q-13 36 15 71q27 36 68 36t54 -36q14 -35 -14 -71q-27 -35 -68 -35t-55 35z" />
    <glyph glyph-name="UkaliqPatternSegmentsBc_UkaliqModifierDot" unicode="&#xf1d09;&#x331;" 
d="M640 704l-141 -704h-86l141 704h86zM353 -184q-13 36 14 71q28 36 69 36t54 -36q14 -35 -14 -71q-27 -35 -68 -35t-55 35z" />
    <glyph glyph-name="UkaliqPatternSegmentsBf_UkaliqModifierDot" unicode="&#xf1d0a;&#x331;" 
d="M300 704l-75 -376h-86l75 376h86zM640 704l-75 -376h-86l75 376h86zM337 -184q-13 36 15 71q27 36 68 36t54 -36q14 -35 -14 -71q-27 -35 -68 -35t-55 35z" />
    <glyph glyph-name="UkaliqPatternSegmentsBcf_UkaliqModifierDot" unicode="&#xf1d0b;&#x331;" 
d="M640 704l-141 -704h-86l141 704h86zM300 704l-75 -376h-86l75 376h86zM353 -184q-13 36 14 71q28 36 69 36t54 -36q14 -35 -14 -71q-27 -35 -68 -35t-55 35z" />
    <glyph glyph-name="UkaliqPatternSegmentsBe_UkaliqModifierDot" unicode="&#xf1d0c;&#x331;" 
d="M640 704l-75 -376h-86l75 376h86zM234 375l-75 -375h-86l75 375h86zM337 -184q-13 36 15 71q27 36 68 36t54 -36q14 -35 -14 -71q-27 -35 -68 -35t-55 35z" />
    <glyph glyph-name="UkaliqPatternSegmentsBce_UkaliqModifierDot" unicode="&#xf1d0d;&#x331;" 
d="M640 704l-141 -704h-86l141 704h86zM234 375l-75 -375h-86l75 375h86zM353 -184q-13 36 14 71q28 36 69 36t54 -36q14 -35 -14 -71q-27 -35 -68 -35t-55 35z" />
    <glyph glyph-name="UkaliqPatternSegmentsBef_UkaliqModifierDot" unicode="&#xf1d0e;&#x331;" 
d="M300 704l-141 -704h-86l141 704h86zM640 704l-75 -376h-86l75 376h86zM337 -184q-13 36 15 71q27 36 68 36t54 -36q14 -35 -14 -71q-27 -35 -68 -35t-55 35z" />
    <glyph glyph-name="UkaliqPatternSegmentsBcef_UkaliqModifierDot" unicode="&#xf1d0f;&#x331;" 
d="M640 704l-141 -704h-86l141 704h86zM300 704l-141 -704h-86l141 704h86zM353 -184q-13 36 14 71q28 36 69 36t54 -36q14 -35 -14 -71q-27 -35 -68 -35t-55 35z" />
    <glyph glyph-name="UkaliqPatternSegmentsD_UkaliqModifierDot" unicode="&#xf1d10;&#x331;" 
d="M89 63h422l-12 -63h-422zM337 -184q-13 36 15 71q27 36 68 36t54 -36q14 -35 -14 -71q-27 -35 -68 -35t-55 35z" />
    <glyph glyph-name="UkaliqPatternSegmentsCd_UkaliqModifierDot" unicode="&#xf1d11;&#x331;" 
d="M337 -184q-13 36 15 71q27 36 68 36t54 -36q14 -35 -14 -71q-27 -35 -68 -35t-55 35zM574 375l-35 -176q-40 -199 -274 -199h-192l-9 109h31q5 -62 50 -62h129q148 0 179 152l16 82q13 63 -50 63l7 31h148z" />
    <glyph glyph-name="UkaliqPatternSegmentsDf_UkaliqModifierDot" unicode="&#xf1d12;&#x331;" 
d="M89 63h422l-12 -63h-422zM300 704l-75 -376h-86l75 376h86zM337 -184q-13 36 15 71q27 36 68 36t54 -36q14 -35 -14 -71q-27 -35 -68 -35t-55 35z" />
    <glyph glyph-name="UkaliqPatternSegmentsCdf_UkaliqModifierDot" unicode="&#xf1d13;&#x331;" 
d="M300 704l-75 -376h-86l6 32l13 62l31 156q15 76 -50 63l6 31zM337 -184q-13 36 15 71q27 36 68 36t54 -36q14 -35 -14 -71q-27 -35 -68 -35t-55 35zM574 375l-35 -176q-40 -199 -274 -199h-192l-9 109h31q5 -62 50 -62h129q148 0 179 152l35 176h86z" />
    <glyph glyph-name="UkaliqPatternSegmentsDe_UkaliqModifierDot" unicode="&#xf1d14;&#x331;" 
d="M234 375l-66 -328h278q45 0 75 62h31l-53 -109h-426l56 281q13 63 -50 63l7 31h148zM337 -184q-13 36 15 71q27 36 68 36t54 -36q14 -35 -14 -71q-27 -35 -68 -35t-55 35z" />
    <glyph glyph-name="UkaliqPatternSegmentsCde_UkaliqModifierDot" unicode="&#xf1d15;&#x331;" 
d="M234 375l-66 -328h127q127 0 158 152l35 176h86l-35 -176q-40 -199 -253 -199h-213l75 375h86zM337 -184q-13 36 15 71q27 36 68 36t54 -36q14 -35 -14 -71q-27 -35 -68 -35t-55 35z" />
    <glyph glyph-name="UkaliqPatternSegmentsDef_UkaliqModifierDot" unicode="&#xf1d16;&#x331;" 
d="M300 704l-132 -657h278q45 0 75 62h31l-53 -109h-426l116 578q15 76 -50 63l6 31zM337 -184q-13 36 15 71q27 36 68 36t54 -36q14 -35 -14 -71q-27 -35 -68 -35t-55 35z" />
    <glyph glyph-name="UkaliqPatternSegmentsCdef_UkaliqModifierDot" unicode="&#xf1d17;&#x331;" 
d="M300 704l-132 -657h127q127 0 158 152l16 82q13 63 -50 63l7 31h148l-35 -176q-40 -199 -253 -199h-213l116 578q15 76 -50 63l6 31zM337 -184q-13 36 15 71q27 36 68 36t54 -36q14 -35 -14 -71q-27 -35 -68 -35t-55 35z" />
    <glyph glyph-name="UkaliqPatternSegmentsBd_UkaliqModifierDot" unicode="&#xf1d18;&#x331;" 
d="M89 63h422l-12 -63h-422zM640 704l-75 -376h-86l75 376h86zM337 -184q-13 36 15 71q27 36 68 36t54 -36q14 -35 -14 -71q-27 -35 -68 -35t-55 35z" />
    <glyph glyph-name="UkaliqPatternSegmentsBcd_UkaliqModifierDot" unicode="&#xf1d19;&#x331;" 
d="M640 704l-68 -341q-73 -363 -307 -363h-192l-9 109h31q5 -62 50 -62h129q148 0 212 316l43 215q15 76 -50 63l6 31zM337 -184q-13 36 15 71q27 36 68 36t54 -36q14 -35 -14 -71q-27 -35 -68 -35t-55 35z" />
    <glyph glyph-name="UkaliqPatternSegmentsBdf_UkaliqModifierDot" unicode="&#xf1d1a;&#x331;" 
d="M89 63h422l-12 -63h-422zM300 704l-75 -376h-86l75 376h86zM640 704l-75 -376h-86l75 376h86zM337 -184q-13 36 15 71q27 36 68 36t54 -36q14 -35 -14 -71q-27 -35 -68 -35t-55 35z" />
    <glyph glyph-name="UkaliqPatternSegmentsBcdf_UkaliqModifierDot" unicode="&#xf1d1b;&#x331;" 
d="M300 704l-50 -251l-13 -62l-6 -31l-92 -32l50 250q15 76 -50 63l6 31zM640 704l-68 -341q-73 -363 -307 -363h-192l-9 109h31q5 -62 50 -62h129q148 0 212 316l43 215q15 76 -50 63l6 31zM337 -184q-13 36 15 71q27 36 68 36t54 -36q14 -35 -14 -71q-27 -35 -68 -35
t-55 35z" />
    <glyph glyph-name="UkaliqPatternSegmentsBde_UkaliqModifierDot" unicode="&#xf1d1c;&#x331;" 
d="M234 375l-66 -328h278q45 0 75 62h31l-53 -109h-426l56 281q13 63 -50 63l7 31h148zM640 704l-56 -282l-13 -62l-6 -32h-86l50 250q15 76 -50 63l6 31zM337 -184q-13 36 15 71q27 36 68 36t54 -36q14 -35 -14 -71q-27 -35 -68 -35t-55 35z" />
    <glyph glyph-name="UkaliqPatternSegmentsBcde_UkaliqModifierDot" unicode="&#xf1d1d;&#x331;" 
d="M640 704l-68 -341q-73 -363 -286 -363h-213l56 281q13 63 -50 63l7 31h148l-66 -328h127q127 0 191 316l43 215q15 76 -50 63l6 31zM337 -184q-13 36 15 71q27 36 68 36t54 -36q14 -35 -14 -71q-27 -35 -68 -35t-55 35z" />
    <glyph glyph-name="UkaliqPatternSegmentsBdef_UkaliqModifierDot" unicode="&#xf1d1e;&#x331;" 
d="M300 704l-132 -657h278q45 0 75 62h31l-53 -109h-426l116 578q15 76 -50 63l6 31zM640 704l-75 -376l-80 32l6 31l13 62l25 125q15 76 -50 63l6 31zM337 -184q-13 36 15 71q27 36 68 36t54 -36q14 -35 -14 -71q-27 -35 -68 -35t-55 35z" />
    <glyph glyph-name="UkaliqPatternSegmentsBcdef_UkaliqModifierDot" unicode="&#xf1d1f;&#x331;" 
d="M300 704l-132 -657h127q127 0 191 316l43 215q15 76 -50 63l6 31l155 32l-68 -341q-73 -363 -286 -363h-213l116 578q15 76 -50 63l6 31zM337 -184q-13 36 15 71q27 36 68 36t54 -36q14 -35 -14 -71q-27 -35 -68 -35t-55 35z" />
    <glyph glyph-name="UkaliqPatternSegmentsA_UkaliqModifierDot" unicode="&#xf1d20;&#x331;" 
d="M337 -184q-13 36 15 71q27 36 68 36t54 -36q14 -35 -14 -71q-27 -35 -68 -35t-55 35zM217 704h422l-12 -63h-422z" />
    <glyph glyph-name="UkaliqPatternSegmentsAc_UkaliqModifierDot" unicode="&#xf1d21;&#x331;" 
d="M574 375l-56 -281q-13 -63 50 -63l-6 -31h-211l6 31q62 0 75 63l37 187q13 63 -50 63l7 31h148zM353 -184q-13 36 14 71q28 36 69 36t54 -36q14 -35 -14 -71q-27 -35 -68 -35t-55 35zM217 704h422l-25 -126h-31q13 63 -50 63h-234q-63 0 -75 -63h-32z" />
    <glyph glyph-name="UkaliqPatternSegmentsAf_UkaliqModifierDot" unicode="&#xf1d22;&#x331;" 
d="M649 594h-31q-5 63 -50 63h-129q-149 0 -179 -153l-10 -51l-13 -62l-6 -31l-92 -32l35 176q40 200 274 200h192zM337 -184q-13 36 15 71q27 36 68 36t54 -36q14 -35 -14 -71q-27 -35 -68 -35t-55 35z" />
    <glyph glyph-name="UkaliqPatternSegmentsAcf_UkaliqModifierDot" unicode="&#xf1d23;&#x331;" 
d="M574 375l-56 -281q-13 -63 50 -63l-6 -31h-211l6 31q62 0 75 63l56 281h86zM649 594h-31q-5 63 -50 63h-129q-149 0 -179 -153l-35 -176h-86l6 32l13 62l16 82q40 200 274 200h192zM353 -184q-13 36 14 71q28 36 69 36t54 -36q14 -35 -14 -71q-27 -35 -68 -35t-55 35z
" />
    <glyph glyph-name="UkaliqPatternSegmentsAe_UkaliqModifierDot" unicode="&#xf1d24;&#x331;" 
d="M234 375l-56 -281q-13 -63 50 -63l-6 -31h-211l6 31q62 0 75 63l37 187q13 63 -50 63l7 31h148zM337 -184q-13 36 15 71q27 36 68 36t54 -36q14 -35 -14 -71q-27 -35 -68 -35t-55 35zM217 704h422l-25 -126h-31q13 63 -50 63h-234q-63 0 -75 -63h-32z" />
    <glyph glyph-name="UkaliqPatternSegmentsAce_UkaliqModifierDot" unicode="&#xf1d25;&#x331;" 
d="M574 375l-56 -281q-13 -63 50 -63l-6 -31h-211l6 31q62 0 75 63l37 187q13 63 -50 63l7 31h148zM234 375l-56 -281q-13 -63 50 -63l-6 -31h-211l6 31q62 0 75 63l37 187q13 63 -50 63l7 31h148zM353 -184q-13 36 14 71q28 36 69 36t54 -36q14 -35 -14 -71
q-27 -35 -68 -35t-55 35zM217 704h422l-25 -126h-31q13 63 -50 63h-234q-63 0 -75 -63h-32z" />
    <glyph glyph-name="UkaliqPatternSegmentsAef_UkaliqModifierDot" unicode="&#xf1d26;&#x331;" 
d="M649 594h-31q-5 63 -50 63h-129q-149 0 -212 -317l-49 -246q-13 -63 50 -63l-6 -31h-211l6 31q62 0 75 63l49 246q73 364 307 364h192zM337 -184q-13 36 15 71q27 36 68 36t54 -36q14 -35 -14 -71q-27 -35 -68 -35t-55 35z" />
    <glyph glyph-name="UkaliqPatternSegmentsAcef_UkaliqModifierDot" unicode="&#xf1d27;&#x331;" 
d="M649 594h-31q-5 63 -50 63h-129q-149 0 -212 -317l-49 -246q-13 -63 50 -63l-6 -31h-211l6 31q62 0 75 63l49 246q73 364 307 364h192zM574 375l-56 -281q-13 -63 50 -63l-6 -31h-211l6 31q62 0 75 63l37 187q13 63 -50 63l7 31h148zM353 -184q-13 36 14 71q28 36 69 36
t54 -36q14 -35 -14 -71q-27 -35 -68 -35t-55 35z" />
    <glyph glyph-name="UkaliqPatternSegmentsAb_UkaliqModifierDot" unicode="&#xf1d28;&#x331;" 
d="M214 704q426 0 351 -376l-80 32l6 31l13 62q40 204 -237 204q-45 0 -75 -63h-31zM337 -184q-13 36 15 71q27 36 68 36t54 -36q14 -35 -14 -71q-27 -35 -68 -35t-55 35z" />
    <glyph glyph-name="UkaliqPatternSegmentsAbc_UkaliqModifierDot" unicode="&#xf1d29;&#x331;" 
d="M214 704q426 0 304 -610q-13 -63 50 -63l-6 -31h-211l6 31q62 0 75 63q112 563 -165 563q-45 0 -75 -63h-31zM353 -184q-13 36 14 71q28 36 69 36t54 -36q14 -35 -14 -71q-27 -35 -68 -35t-55 35z" />
    <glyph glyph-name="UkaliqPatternSegmentsAbf_UkaliqModifierDot" unicode="&#xf1d2a;&#x331;" 
d="M139 328l35 176q40 200 196 200q270 0 195 -376l-80 32l6 31l13 62q40 204 -143 204q-71 0 -101 -153l-10 -51l-13 -62l-6 -31zM337 -184q-13 36 15 71q27 36 68 36t54 -36q14 -35 -14 -71q-27 -35 -68 -35t-55 35z" />
    <glyph glyph-name="UkaliqPatternSegmentsAbcf_UkaliqModifierDot" unicode="&#xf1d2b;&#x331;" 
d="M139 328l35 176q40 200 196 200q270 0 148 -610q-13 -63 50 -63l-6 -31h-211l6 31q62 0 75 63q112 563 -71 563q-71 0 -101 -153l-10 -51l-13 -62l-6 -31zM353 -184q-13 36 14 71q28 36 69 36t54 -36q14 -35 -14 -71q-27 -35 -68 -35t-55 35z" />
    <glyph glyph-name="UkaliqPatternSegmentsAbe_UkaliqModifierDot" unicode="&#xf1d2c;&#x331;" 
d="M214 704q426 0 370 -282l-13 -62l-6 -32h-86q65 329 -212 329q-45 0 -75 -63h-31zM234 375l-56 -281q-13 -63 50 -63l-6 -31h-211l6 31q62 0 75 63l37 187q13 63 -50 63l7 31h148zM337 -184q-13 36 15 71q27 36 68 36t54 -36q14 -35 -14 -71q-27 -35 -68 -35t-55 35z" />
    <glyph glyph-name="UkaliqPatternSegmentsAbce_UkaliqModifierDot" unicode="&#xf1d2d;&#x331;" 
d="M214 704q426 0 304 -610q-13 -63 50 -63l-6 -31h-211l6 31q62 0 75 63q112 563 -165 563q-45 0 -75 -63h-31zM234 375l-56 -281q-13 -63 50 -63l-6 -31h-211l6 31q62 0 75 63l37 187q13 63 -50 63l7 31h148zM353 -184q-13 36 14 71q28 36 69 36t54 -36q14 -35 -14 -71
q-27 -35 -68 -35t-55 35z" />
    <glyph glyph-name="UkaliqPatternSegmentsAbef_UkaliqModifierDot" unicode="&#xf1d2e;&#x331;" 
d="M485 360l6 31l13 62q40 204 -143 204q-71 0 -134 -317l-49 -246q-13 -63 50 -63l-6 -31h-211l6 31q62 0 75 63l49 246q73 364 229 364q270 0 195 -376zM337 -184q-13 36 15 71q27 36 68 36t54 -36q14 -35 -14 -71q-27 -35 -68 -35t-55 35z" />
    <glyph glyph-name="UkaliqPatternSegmentsAbcef_UkaliqModifierDot" unicode="&#xf1d2f;&#x331;" 
d="M11 0l6 31q62 0 75 63l49 246q73 364 229 364q270 0 148 -610q-13 -63 50 -63l-6 -31h-211l6 31q62 0 75 63q112 563 -71 563q-71 0 -134 -317l-49 -246q-13 -63 50 -63l-6 -31h-211zM353 -184q-13 36 14 71q28 36 69 36t54 -36q14 -35 -14 -71q-27 -35 -68 -35t-55 35z
" />
    <glyph glyph-name="UkaliqPatternSegmentsAd_UkaliqModifierDot" unicode="&#xf1d30;&#x331;" 
d="M89 63h422l-12 -63h-422zM337 -184q-13 36 15 71q27 36 68 36t54 -36q14 -35 -14 -71q-27 -35 -68 -35t-55 35zM217 704h422l-12 -63h-422z" />
    <glyph glyph-name="UkaliqPatternSegmentsAcd_UkaliqModifierDot" unicode="&#xf1d31;&#x331;" 
d="M337 -184q-13 36 15 71q27 36 68 36t54 -36q14 -35 -14 -71q-27 -35 -68 -35t-55 35zM574 375l-35 -176q-40 -199 -274 -199h-192l9 47h192q148 0 179 152l35 176h86zM217 704h422l-12 -63h-422z" />
    <glyph glyph-name="UkaliqPatternSegmentsAdf_UkaliqModifierDot" unicode="&#xf1d32;&#x331;" 
d="M89 63h422l-12 -63h-422zM630 657h-191q-149 0 -179 -153l-35 -176h-86l35 176q40 200 274 200h192zM337 -184q-13 36 15 71q27 36 68 36t54 -36q14 -35 -14 -71q-27 -35 -68 -35t-55 35z" />
    <glyph glyph-name="UkaliqPatternSegmentsAcdf_UkaliqModifierDot" unicode="&#xf1d33;&#x331;" 
d="M649 594h-31q-5 63 -50 63h-129q-149 0 -179 -153l-35 -176h-86l6 32l13 62l16 82q40 200 274 200h192zM337 -184q-13 36 15 71q27 36 68 36t54 -36q14 -35 -14 -71q-27 -35 -68 -35t-55 35zM574 375l-35 -176q-40 -199 -274 -199h-192l-9 109h31q5 -62 50 -62h129
q148 0 179 152l35 176h86z" />
    <glyph glyph-name="UkaliqPatternSegmentsAde_UkaliqModifierDot" unicode="&#xf1d34;&#x331;" 
d="M234 375l-66 -328h278q45 0 75 62h31l-53 -109h-426l56 281q13 63 -50 63l7 31h148zM337 -184q-13 36 15 71q27 36 68 36t54 -36q14 -35 -14 -71q-27 -35 -68 -35t-55 35zM217 704h422l-25 -126h-31q13 63 -50 63h-234q-63 0 -75 -63h-32z" />
    <glyph glyph-name="UkaliqPatternSegmentsAcde_UkaliqModifierDot" unicode="&#xf1d35;&#x331;" 
d="M234 375l-66 -328h127q127 0 158 152l16 82q13 63 -50 63l7 31h148l-35 -176q-40 -199 -253 -199h-213l56 281q13 63 -50 63l7 31h148zM337 -184q-13 36 15 71q27 36 68 36t54 -36q14 -35 -14 -71q-27 -35 -68 -35t-55 35zM217 704h422l-25 -126h-31q13 63 -50 63h-234
q-63 0 -75 -63h-32z" />
    <glyph glyph-name="UkaliqPatternSegmentsAdef_UkaliqModifierDot" unicode="&#xf1d36;&#x331;" 
d="M649 594h-31q-5 63 -50 63h-129q-149 0 -210 -305l-61 -305h278q45 0 75 62h31l-53 -109h-426l70 352q71 352 305 352h192zM337 -184q-13 36 15 71q27 36 68 36t54 -36q14 -35 -14 -71q-27 -35 -68 -35t-55 35z" />
    <glyph glyph-name="UkaliqPatternSegmentsAcdef_UkaliqModifierDot" unicode="&#xf1d37;&#x331;" 
d="M649 594h-31q-5 63 -50 63h-129q-149 0 -210 -305l-61 -305h127q127 0 158 152l16 82q13 63 -50 63l7 31h148l-35 -176q-40 -199 -253 -199h-213l70 352q71 352 305 352h192zM337 -184q-13 36 15 71q27 36 68 36t54 -36q14 -35 -14 -71q-27 -35 -68 -35t-55 35z" />
    <glyph glyph-name="UkaliqPatternSegmentsAbd_UkaliqModifierDot" unicode="&#xf1d38;&#x331;" 
d="M89 63h422l-12 -63h-422zM214 704q426 0 351 -376h-86q65 329 -275 329zM337 -184q-13 36 15 71q27 36 68 36t54 -36q14 -35 -14 -71q-27 -35 -68 -35t-55 35z" />
    <glyph glyph-name="UkaliqPatternSegmentsAbcd_UkaliqModifierDot" unicode="&#xf1d39;&#x331;" 
d="M214 704q426 0 334 -462q-49 -242 -283 -242h-192l-9 109h31q5 -62 50 -62h129q148 0 188 195q82 415 -195 415q-45 0 -75 -63h-31zM337 -184q-13 36 15 71q27 36 68 36t54 -36q14 -35 -14 -71q-27 -35 -68 -35t-55 35z" />
    <glyph glyph-name="UkaliqPatternSegmentsAbdf_UkaliqModifierDot" unicode="&#xf1d3a;&#x331;" 
d="M102 125h31q-13 -62 50 -62h234q63 0 75 62h32l-25 -125h-422zM139 328l35 176q40 200 196 200q270 0 195 -376l-80 32l6 31l13 62q40 204 -143 204q-71 0 -101 -153l-10 -51l-13 -62l-6 -31zM337 -184q-13 36 15 71q27 36 68 36t54 -36q14 -35 -14 -71q-27 -35 -68 -35
t-55 35z" />
    <glyph glyph-name="UkaliqPatternSegmentsAbcdf_UkaliqModifierDot" unicode="&#xf1d3b;&#x331;" 
d="M139 328l35 176q40 200 196 200q270 0 178 -462q-49 -242 -283 -242h-192l-9 109h31q5 -62 50 -62h129q148 0 188 195q82 415 -101 415q-71 0 -101 -153l-10 -51l-13 -62l-6 -31zM337 -184q-13 36 15 71q27 36 68 36t54 -36q14 -35 -14 -71q-27 -35 -68 -35t-55 35z" />
    <glyph glyph-name="UkaliqPatternSegmentsAbde_UkaliqModifierDot" unicode="&#xf1d3c;&#x331;" 
d="M214 704q426 0 370 -282l-13 -62l-6 -32h-86q65 329 -212 329q-45 0 -75 -63h-31zM234 375l-66 -328h278q45 0 75 62h31l-53 -109h-426l56 281q13 63 -50 63l7 31h148zM337 -184q-13 36 15 71q27 36 68 36t54 -36q14 -35 -14 -71q-27 -35 -68 -35t-55 35z" />
    <glyph glyph-name="UkaliqPatternSegmentsAbcde_UkaliqModifierDot" unicode="&#xf1d3d;&#x331;" 
d="M214 704q426 0 334 -462q-49 -242 -262 -242h-213l56 281q13 63 -50 63l7 31h148l-66 -328h127q127 0 167 195q82 415 -195 415q-45 0 -75 -63h-31zM337 -184q-13 36 15 71q27 36 68 36t54 -36q14 -35 -14 -71q-27 -35 -68 -35t-55 35z" />
    <glyph glyph-name="UkaliqPatternSegmentsAbdef_UkaliqModifierDot" unicode="&#xf1d3e;&#x331;" 
d="M485 360l6 31l13 62q40 204 -143 204q-71 0 -132 -305l-61 -305h278q45 0 75 62h31l-53 -109h-426l70 352q71 352 227 352q270 0 195 -376zM337 -184q-13 36 15 71q27 36 68 36t54 -36q14 -35 -14 -71q-27 -35 -68 -35t-55 35z" />
    <glyph glyph-name="UkaliqPatternSegmentsAbcdef_UkaliqModifierDot" unicode="&#xf1d3f;&#x331;" 
d="M337 -184q-13 36 15 71q27 36 68 36t54 -36q14 -35 -14 -71q-27 -35 -68 -35t-55 35zM229 352l-61 -305h127q127 0 167 195q82 415 -101 415q-71 0 -132 -305zM143 352q71 352 227 352q270 0 178 -462q-49 -242 -262 -242h-213z" />
    <glyph glyph-name="UkaliqPatternSegmentsG_UkaliqModifierDot" unicode="&#xf1d40;&#x331;" 
d="M153 383h422l-12 -63h-422zM337 -184q-13 36 15 71q27 36 68 36t54 -36q14 -35 -14 -71q-27 -35 -68 -35t-55 35z" />
    <glyph glyph-name="UkaliqPatternSegmentsCg_UkaliqModifierDot" unicode="&#xf1d41;&#x331;" 
d="M148 375h192q234 0 194 -199l-16 -82q-13 -63 50 -63l-6 -31h-211l6 31q62 0 75 63l16 82q31 152 -118 152h-97q-63 0 -75 -62h-32zM353 -184q-13 36 14 71q28 36 69 36t54 -36q14 -35 -14 -71q-27 -35 -68 -35t-55 35z" />
    <glyph glyph-name="UkaliqPatternSegmentsFg_UkaliqModifierDot" unicode="&#xf1d42;&#x331;" 
d="M300 704l-35 -176q-31 -153 118 -153h191l-9 -47h-192q-234 0 -194 200l35 176h86zM337 -184q-13 36 15 71q27 36 68 36t54 -36q14 -35 -14 -71q-27 -35 -68 -35t-55 35z" />
    <glyph glyph-name="UkaliqPatternSegmentsCfg_UkaliqModifierDot" unicode="&#xf1d43;&#x331;" 
d="M353 -184q-13 36 14 71q28 36 69 36t54 -36q14 -35 -14 -71q-27 -35 -68 -35t-55 35zM300 704l-35 -176q-31 -153 96 -153h213l-56 -281q-13 -63 50 -63l-6 -31h-211l6 31q62 0 75 63l47 234h-127q-213 0 -173 200l10 50q15 76 -50 63l6 31z" />
    <glyph glyph-name="UkaliqPatternSegmentsEg_UkaliqModifierDot" unicode="&#xf1d44;&#x331;" 
d="M552 266h-31q12 62 -50 62h-98q-148 0 -179 -152l-16 -82q-13 -63 50 -63l-6 -31h-211l6 31q62 0 75 63l16 82q40 199 275 199h191zM337 -184q-13 36 15 71q27 36 68 36t54 -36q14 -35 -14 -71q-27 -35 -68 -35t-55 35z" />
    <glyph glyph-name="UkaliqPatternSegmentsCeg_UkaliqModifierDot" unicode="&#xf1d45;&#x331;" 
d="M73 0l35 176q40 199 253 199t173 -199l-35 -176h-86l35 176q31 152 -96 152t-158 -152l-35 -176h-86zM353 -184q-13 36 14 71q28 36 69 36t54 -36q14 -35 -14 -71q-27 -35 -68 -35t-55 35z" />
    <glyph glyph-name="UkaliqPatternSegmentsEfg_UkaliqModifierDot" unicode="&#xf1d46;&#x331;" 
d="M337 -184q-13 36 15 71q27 36 68 36t54 -36q14 -35 -14 -71q-27 -35 -68 -35t-55 35zM300 704l-53 -264l-13 -65h246q63 0 75 63h32l-35 -172h-31q12 62 -50 62h-246l-13 -64l-34 -170q-13 -63 50 -63l-6 -31h-211l6 31q62 0 75 63l34 170l35 176l28 138q15 76 -50 63
l6 31z" />
    <glyph glyph-name="UkaliqPatternSegmentsCefg_UkaliqModifierDot" unicode="&#xf1d47;&#x331;" 
d="M353 -184q-13 36 14 71q28 36 69 36t54 -36q14 -35 -14 -71q-27 -35 -68 -35t-55 35zM300 704l-53 -264l-13 -65h127q213 0 173 -199l-16 -82q-13 -63 50 -63l-6 -31h-211l6 31q62 0 75 63l16 82q31 152 -96 152h-127l-13 -64l-34 -170q-13 -63 50 -63l-6 -31h-211l6 31
q62 0 75 63l34 170l35 176l28 138q15 76 -50 63l6 31z" />
    <glyph glyph-name="UkaliqPatternSegmentsBg_UkaliqModifierDot" unicode="&#xf1d48;&#x331;" 
d="M640 704l-35 -176q-40 -200 -275 -200h-191l9 47h192q148 0 179 153l35 176h86zM337 -184q-13 36 15 71q27 36 68 36t54 -36q14 -35 -14 -71q-27 -35 -68 -35t-55 35z" />
    <glyph glyph-name="UkaliqPatternSegmentsBcg_UkaliqModifierDot" unicode="&#xf1d49;&#x331;" 
d="M640 704l-53 -264l-35 -176l-53 -264h-86l53 264l13 64h-340l9 47h340l13 65l53 264h86zM353 -184q-13 36 14 71q28 36 69 36t54 -36q14 -35 -14 -71q-27 -35 -68 -35t-55 35z" />
    <glyph glyph-name="UkaliqPatternSegmentsBfg_UkaliqModifierDot" unicode="&#xf1d4a;&#x331;" 
d="M300 704l-35 -176q-31 -153 96 -153t158 153l35 176h86l-35 -176q-40 -200 -253 -200t-173 200l35 176h86zM337 -184q-13 36 15 71q27 36 68 36t54 -36q14 -35 -14 -71q-27 -35 -68 -35t-55 35z" />
    <glyph glyph-name="UkaliqPatternSegmentsBcfg_UkaliqModifierDot" unicode="&#xf1d4b;&#x331;" 
d="M353 -184q-13 36 14 71q28 36 69 36t54 -36q14 -35 -14 -71q-27 -35 -68 -35t-55 35zM300 704l-35 -176q-31 -153 96 -153h127l13 65l53 264h86l-53 -264l-35 -176l-53 -264h-86l53 264l13 64h-127q-213 0 -173 200l35 176h86z" />
    <glyph glyph-name="UkaliqPatternSegmentsBeg_UkaliqModifierDot" unicode="&#xf1d4c;&#x331;" 
d="M640 704l-35 -176q-40 -200 -253 -200h-127l-47 -234q-13 -63 50 -63l-6 -31h-211l6 31q62 0 75 63l56 281h213q127 0 158 153l10 50q15 76 -50 63l6 31zM337 -184q-13 36 15 71q27 36 68 36t54 -36q14 -35 -14 -71q-27 -35 -68 -35t-55 35z" />
    <glyph glyph-name="UkaliqPatternSegmentsBceg_UkaliqModifierDot" unicode="&#xf1d4d;&#x331;" 
d="M640 704l-53 -264l-35 -176l-34 -170q-13 -63 50 -63l-6 -31h-211l6 31q62 0 75 63l34 170l13 64h-127q-127 0 -158 -152l-16 -82q-13 -63 50 -63l-6 -31h-211l6 31q62 0 75 63l16 82q40 199 253 199h127l13 65l28 138q15 76 -50 63l6 31zM353 -184q-13 36 14 71
q28 36 69 36t54 -36q14 -35 -14 -71q-27 -35 -68 -35t-55 35z" />
    <glyph glyph-name="UkaliqPatternSegmentsBefg_UkaliqModifierDot" unicode="&#xf1d4e;&#x331;" 
d="M337 -184q-13 36 15 71q27 36 68 36t54 -36q14 -35 -14 -71q-27 -35 -68 -35t-55 35zM640 704l-35 -176q-40 -200 -253 -200h-127l-13 -64l-34 -170q-13 -63 50 -63l-6 -31h-211l6 31q62 0 75 63l34 170l35 176l28 138q15 76 -50 63l6 31l155 32l-53 -264l-13 -65h127
q127 0 158 153l10 50q15 76 -50 63l6 31z" />
    <glyph glyph-name="UkaliqPatternSegmentsBcefg_UkaliqModifierDot" unicode="&#xf1d4f;&#x331;" 
d="M353 -184q-13 36 14 71q28 36 69 36t54 -36q14 -35 -14 -71q-27 -35 -68 -35t-55 35zM640 704l-53 -264l-35 -176l-34 -170q-13 -63 50 -63l-6 -31h-211l6 31q62 0 75 63l34 170l13 64h-254l-13 -64l-34 -170q-13 -63 50 -63l-6 -31h-211l6 31q62 0 75 63l34 170l35 176
l28 138q15 76 -50 63l6 31l155 32l-53 -264l-13 -65h254l13 65l28 138q15 76 -50 63l6 31z" />
    <glyph glyph-name="UkaliqPatternSegmentsDg_UkaliqModifierDot" unicode="&#xf1d50;&#x331;" 
d="M102 125h31q-13 -62 50 -62h234q63 0 75 62h32l-25 -125h-422zM153 383h422l-25 -125h-31q13 62 -50 62h-234q-63 0 -76 -62h-31zM337 -184q-13 36 15 71q27 36 68 36t54 -36q14 -35 -14 -71q-27 -35 -68 -35t-55 35z" />
    <glyph glyph-name="UkaliqPatternSegmentsCdg_UkaliqModifierDot" unicode="&#xf1d51;&#x331;" 
d="M148 375h192q234 0 197 -187q-38 -188 -272 -188h-192l-9 109h31q5 -62 50 -62h129q148 0 177 141q28 140 -121 140h-97q-63 0 -75 -62h-32zM337 -184q-13 36 15 71q27 36 68 36t54 -36q14 -35 -14 -71q-27 -35 -68 -35t-55 35z" />
    <glyph glyph-name="UkaliqPatternSegmentsDfg_UkaliqModifierDot" unicode="&#xf1d52;&#x331;" 
d="M300 704l-35 -176q-31 -153 118 -153h97q63 0 75 63h32l-35 -172h-31q12 62 -50 62h-98q-234 0 -194 200l10 50q15 76 -50 63l6 31zM102 125h31q-13 -62 50 -62h234q63 0 75 62h32l-25 -125h-422zM337 -184q-13 36 15 71q27 36 68 36t54 -36q14 -35 -14 -71
q-27 -35 -68 -35t-55 35z" />
    <glyph glyph-name="UkaliqPatternSegmentsCdfg_UkaliqModifierDot" unicode="&#xf1d53;&#x331;" 
d="M337 -184q-13 36 15 71q27 36 68 36t54 -36q14 -35 -14 -71q-27 -35 -68 -35t-55 35zM300 704l-35 -176q-31 -153 96 -153h213l-37 -187q-38 -188 -272 -188h-192l-9 109h31q5 -62 50 -62h129q148 0 177 141l28 140h-127q-213 0 -173 200l10 50q15 76 -50 63l6 31z" />
    <glyph glyph-name="UkaliqPatternSegmentsDeg_UkaliqModifierDot" unicode="&#xf1d54;&#x331;" 
d="M552 266h-31q12 62 -50 62h-98q-148 0 -176 -140l-29 -141h278q45 0 75 62h31l-53 -109h-426l38 188q37 187 272 187h191zM337 -184q-13 36 15 71q27 36 68 36t54 -36q14 -35 -14 -71q-27 -35 -68 -35t-55 35z" />
    <glyph glyph-name="UkaliqPatternSegmentsCdeg_UkaliqModifierDot" unicode="&#xf1d55;&#x331;" 
d="M337 -184q-13 36 15 71q27 36 68 36t54 -36q14 -35 -14 -71q-27 -35 -68 -35t-55 35zM197 188l-29 -141h127q127 0 156 141q28 140 -99 140t-155 -140zM111 188q37 187 250 187t176 -187q-38 -188 -251 -188h-213z" />
    <glyph glyph-name="UkaliqPatternSegmentsDefg_UkaliqModifierDot" unicode="&#xf1d56;&#x331;" 
d="M337 -184q-13 36 15 71q27 36 68 36t54 -36q14 -35 -14 -71q-27 -35 -68 -35t-55 35zM300 704l-53 -264l-13 -65h246q63 0 75 63h32l-35 -172h-31q12 62 -50 62h-246l-12 -58l-45 -223h278q45 0 75 62h31l-53 -109h-426l54 270l34 170l28 138q15 76 -50 63l6 31z" />
    <glyph glyph-name="UkaliqPatternSegmentsCdefg_UkaliqModifierDot" unicode="&#xf1d57;&#x331;" 
d="M337 -184q-13 36 15 71q27 36 68 36t54 -36q14 -35 -14 -71q-27 -35 -68 -35t-55 35zM300 704l-53 -264l-13 -65h127q213 0 176 -187q-38 -188 -251 -188h-213l54 270l34 170l28 138q15 76 -50 63l6 31zM225 328l-12 -58l-45 -223h127q127 0 156 141q28 140 -99 140h-127
z" />
    <glyph glyph-name="UkaliqPatternSegmentsBdg_UkaliqModifierDot" unicode="&#xf1d58;&#x331;" 
d="M102 125h31q-13 -62 50 -62h234q63 0 75 62h32l-25 -125h-422zM640 704l-35 -176q-40 -200 -275 -200h-97q-63 0 -75 -62h-32l35 172h31q-13 -63 50 -63h98q148 0 179 153l10 50q15 76 -50 63l6 31zM337 -184q-13 36 15 71q27 36 68 36t54 -36q14 -35 -14 -71
q-27 -35 -68 -35t-55 35z" />
    <glyph glyph-name="UkaliqPatternSegmentsBcdg_UkaliqModifierDot" unicode="&#xf1d59;&#x331;" 
d="M161 438h31q-13 -63 50 -63h246l13 65l28 138q15 76 -50 63l6 31l155 32l-53 -264l-34 -170l-16 -82q-38 -188 -272 -188h-192l-9 109h31q5 -62 50 -62h129q148 0 177 141l16 82l12 58h-246q-63 0 -75 -62h-32zM337 -184q-13 36 15 71q27 36 68 36t54 -36q14 -35 -14 -71
q-27 -35 -68 -35t-55 35z" />
    <glyph glyph-name="UkaliqPatternSegmentsBdfg_UkaliqModifierDot" unicode="&#xf1d5a;&#x331;" 
d="M300 704l-35 -176q-31 -153 96 -153t158 153l10 50q15 76 -50 63l6 31l155 32l-35 -176q-40 -200 -253 -200t-173 200l10 50q15 76 -50 63l6 31zM102 125h31q-13 -62 50 -62h234q63 0 75 62h32l-25 -125h-422zM337 -184q-13 36 15 71q27 36 68 36t54 -36q14 -35 -14 -71
q-27 -35 -68 -35t-55 35z" />
    <glyph glyph-name="UkaliqPatternSegmentsBcdfg_UkaliqModifierDot" unicode="&#xf1d5b;&#x331;" 
d="M337 -184q-13 36 15 71q27 36 68 36t54 -36q14 -35 -14 -71q-27 -35 -68 -35t-55 35zM300 704l-35 -176q-31 -153 96 -153h127l13 65l28 138q15 76 -50 63l6 31l155 32l-53 -264l-34 -170l-16 -82q-38 -188 -272 -188h-192l-9 109h31q5 -62 50 -62h129q148 0 177 141
l16 82l12 58h-127q-213 0 -173 200l10 50q15 76 -50 63l6 31z" />
    <glyph glyph-name="UkaliqPatternSegmentsBdeg_UkaliqModifierDot" unicode="&#xf1d5c;&#x331;" 
d="M640 704l-35 -176q-40 -200 -253 -200h-127l-57 -281h278q45 0 75 62h31l-53 -109h-426l75 375h213q127 0 158 153l10 50q15 76 -50 63l6 31zM337 -184q-13 36 15 71q27 36 68 36t54 -36q14 -35 -14 -71q-27 -35 -68 -35t-55 35z" />
    <glyph glyph-name="UkaliqPatternSegmentsBcdeg_UkaliqModifierDot" unicode="&#xf1d5d;&#x331;" 
d="M640 704l-53 -264l-34 -170l-16 -82q-38 -188 -251 -188h-213l38 188q37 187 250 187h127l13 65l28 138q15 76 -50 63l6 31zM337 -184q-13 36 15 71q27 36 68 36t54 -36q14 -35 -14 -71q-27 -35 -68 -35t-55 35zM479 328h-127q-127 0 -155 -140l-29 -141h127
q127 0 156 141l16 82z" />
    <glyph glyph-name="UkaliqPatternSegmentsBdefg_UkaliqModifierDot" unicode="&#xf1d5e;&#x331;" 
d="M337 -184q-13 36 15 71q27 36 68 36t54 -36q14 -35 -14 -71q-27 -35 -68 -35t-55 35zM640 704l-35 -176q-40 -200 -253 -200h-127l-12 -58l-45 -223h278q45 0 75 62h31l-53 -109h-426l54 270l34 170l28 138q15 76 -50 63l6 31l155 32l-53 -264l-13 -65h127q127 0 158 153
l10 50q15 76 -50 63l6 31z" />
    <glyph glyph-name="UkaliqPatternSegmentsBcdefg_UkaliqModifierDot" unicode="&#xf1d5f;&#x331;" 
d="M337 -184q-13 36 15 71q27 36 68 36t54 -36q14 -35 -14 -71q-27 -35 -68 -35t-55 35zM300 704l-53 -264l-13 -65h254l13 65l28 138q15 76 -50 63l6 31l155 32l-53 -264l-34 -170l-16 -82q-38 -188 -251 -188h-213l54 270l34 170l28 138q15 76 -50 63l6 31zM479 328h-254
l-12 -58l-45 -223h127q127 0 156 141l16 82z" />
    <glyph glyph-name="UkaliqPatternSegmentsAg_UkaliqModifierDot" unicode="&#xf1d60;&#x331;" 
d="M166 446h31q-13 -63 50 -63h235q62 0 75 63h31l-25 -126h-422zM337 -184q-13 36 15 71q27 36 68 36t54 -36q14 -35 -14 -71q-27 -35 -68 -35t-55 35zM217 704h422l-25 -126h-31q13 63 -50 63h-234q-63 0 -75 -63h-32z" />
    <glyph glyph-name="UkaliqPatternSegmentsAcg_UkaliqModifierDot" unicode="&#xf1d61;&#x331;" 
d="M161 438h31q-13 -63 50 -63h98q234 0 194 -199l-16 -82q-13 -63 50 -63l-6 -31h-211l6 31q62 0 75 63l16 82q31 152 -118 152h-97q-63 0 -75 -62h-32zM353 -184q-13 36 14 71q28 36 69 36t54 -36q14 -35 -14 -71q-27 -35 -68 -35t-55 35zM217 704h422l-25 -126h-31
q13 63 -50 63h-234q-63 0 -75 -63h-32z" />
    <glyph glyph-name="UkaliqPatternSegmentsAfg_UkaliqModifierDot" unicode="&#xf1d62;&#x331;" 
d="M649 594h-31q-5 63 -50 63h-129q-149 0 -177 -141t121 -141h97q63 0 75 63h32l-22 -110h-192q-234 0 -197 188q38 188 272 188h192zM337 -184q-13 36 15 71q27 36 68 36t54 -36q14 -35 -14 -71q-27 -35 -68 -35t-55 35z" />
    <glyph glyph-name="UkaliqPatternSegmentsAcfg_UkaliqModifierDot" unicode="&#xf1d63;&#x331;" 
d="M353 -184q-13 36 14 71q28 36 69 36t54 -36q14 -35 -14 -71q-27 -35 -68 -35t-55 35zM649 594h-31q-5 63 -50 63h-129q-149 0 -177 -141t99 -141h213l-56 -281q-13 -63 50 -63l-6 -31h-211l6 31q62 0 75 63l47 234h-127q-213 0 -176 188q38 188 272 188h192z" />
    <glyph glyph-name="UkaliqPatternSegmentsAeg_UkaliqModifierDot" unicode="&#xf1d64;&#x331;" 
d="M552 266h-31q12 62 -50 62h-98q-148 0 -179 -152l-16 -82q-13 -63 50 -63l-6 -31h-211l6 31q62 0 75 63l16 82q40 199 275 199h97q63 0 75 63h32zM337 -184q-13 36 15 71q27 36 68 36t54 -36q14 -35 -14 -71q-27 -35 -68 -35t-55 35zM217 704h422l-25 -126h-31
q13 63 -50 63h-234q-63 0 -75 -63h-32z" />
    <glyph glyph-name="UkaliqPatternSegmentsAceg_UkaliqModifierDot" unicode="&#xf1d65;&#x331;" 
d="M11 0l6 31q62 0 75 63l16 82q40 199 253 199t173 -199l-16 -82q-13 -63 50 -63l-6 -31h-211l6 31q62 0 75 63l16 82q31 152 -96 152t-158 -152l-16 -82q-13 -63 50 -63l-6 -31h-211zM353 -184q-13 36 14 71q28 36 69 36t54 -36q14 -35 -14 -71q-27 -35 -68 -35t-55 35z
M217 704h422l-25 -126h-31q13 63 -50 63h-234q-63 0 -75 -63h-32z" />
    <glyph glyph-name="UkaliqPatternSegmentsAefg_UkaliqModifierDot" unicode="&#xf1d66;&#x331;" 
d="M337 -184q-13 36 15 71q27 36 68 36t54 -36q14 -35 -14 -71q-27 -35 -68 -35t-55 35zM649 594h-31q-5 63 -50 63h-129q-149 0 -177 -141l-16 -82l-12 -59h246q63 0 75 63h32l-35 -172h-31q12 62 -50 62h-246l-13 -64l-34 -170q-13 -63 50 -63l-6 -31h-211l6 31
q62 0 75 63l34 170l34 170l16 82q38 188 272 188h192z" />
    <glyph glyph-name="UkaliqPatternSegmentsAcefg_UkaliqModifierDot" unicode="&#xf1d67;&#x331;" 
d="M353 -184q-13 36 14 71q28 36 69 36t54 -36q14 -35 -14 -71q-27 -35 -68 -35t-55 35zM649 594h-31q-5 63 -50 63h-129q-149 0 -177 -141l-16 -82l-12 -59h127q213 0 173 -199l-16 -82q-13 -63 50 -63l-6 -31h-211l6 31q62 0 75 63l16 82q31 152 -96 152h-127l-13 -64
l-34 -170q-13 -63 50 -63l-6 -31h-211l6 31q62 0 75 63l34 170l34 170l16 82q38 188 272 188h192z" />
    <glyph glyph-name="UkaliqPatternSegmentsAbg_UkaliqModifierDot" unicode="&#xf1d68;&#x331;" 
d="M214 704q426 0 377 -243q-26 -133 -261 -133h-191l22 110h31q-13 -63 50 -63h98q148 0 165 86q39 196 -238 196q-45 0 -75 -63h-31zM337 -184q-13 36 15 71q27 36 68 36t54 -36q14 -35 -14 -71q-27 -35 -68 -35t-55 35z" />
    <glyph glyph-name="UkaliqPatternSegmentsAbcg_UkaliqModifierDot" unicode="&#xf1d69;&#x331;" 
d="M161 438h31q-13 -63 50 -63h246l9 42q47 240 -230 240q-45 0 -75 -63h-31l53 110q426 0 369 -287l-31 -153l-34 -170q-13 -63 50 -63l-6 -31h-211l6 31q62 0 75 63l34 170l13 64h-246q-63 0 -75 -62h-32zM353 -184q-13 36 14 71q28 36 69 36t54 -36q14 -35 -14 -71
q-27 -35 -68 -35t-55 35z" />
    <glyph glyph-name="UkaliqPatternSegmentsAbfg_UkaliqModifierDot" unicode="&#xf1d6a;&#x331;" 
d="M337 -184q-13 36 15 71q27 36 68 36t54 -36q14 -35 -14 -71q-27 -35 -68 -35t-55 35zM262 516q-28 -141 99 -141t144 86q39 196 -144 196q-71 0 -99 -141zM176 516q38 188 194 188q270 0 221 -243q-26 -133 -239 -133t-176 188z" />
    <glyph glyph-name="UkaliqPatternSegmentsAbcfg_UkaliqModifierDot" unicode="&#xf1d6b;&#x331;" 
d="M353 -184q-13 36 14 71q28 36 69 36t54 -36q14 -35 -14 -71q-27 -35 -68 -35t-55 35zM488 375l9 42q47 240 -136 240q-71 0 -99 -141t99 -141h127zM479 328h-127q-213 0 -176 188q38 188 194 188q270 0 213 -287l-31 -153l-34 -170q-13 -63 50 -63l-6 -31h-211l6 31
q62 0 75 63l34 170z" />
    <glyph glyph-name="UkaliqPatternSegmentsAbeg_UkaliqModifierDot" unicode="&#xf1d6c;&#x331;" 
d="M214 704q426 0 377 -243q-26 -133 -239 -133h-127l-47 -234q-13 -63 50 -63l-6 -31h-211l6 31q62 0 75 63l56 281h213q127 0 144 86q39 196 -238 196q-45 0 -75 -63h-31zM337 -184q-13 36 15 71q27 36 68 36t54 -36q14 -35 -14 -71q-27 -35 -68 -35t-55 35z" />
    <glyph glyph-name="UkaliqPatternSegmentsAbceg_UkaliqModifierDot" unicode="&#xf1d6d;&#x331;" 
d="M214 704q426 0 369 -287l-31 -153l-34 -170q-13 -63 50 -63l-6 -31h-211l6 31q62 0 75 63l34 170l13 64h-127q-127 0 -158 -152l-16 -82q-13 -63 50 -63l-6 -31h-211l6 31q62 0 75 63l16 82q40 199 253 199h127l9 42q47 240 -230 240q-45 0 -75 -63h-31zM353 -184
q-13 36 14 71q28 36 69 36t54 -36q14 -35 -14 -71q-27 -35 -68 -35t-55 35z" />
    <glyph glyph-name="UkaliqPatternSegmentsAbefg_UkaliqModifierDot" unicode="&#xf1d6e;&#x331;" 
d="M337 -184q-13 36 15 71q27 36 68 36t54 -36q14 -35 -14 -71q-27 -35 -68 -35t-55 35zM225 328l-13 -64l-34 -170q-13 -63 50 -63l-6 -31h-211l6 31q62 0 75 63l34 170l34 170l16 82q38 188 194 188q270 0 221 -243q-26 -133 -239 -133h-127zM234 375h127q127 0 144 86
q39 196 -144 196q-71 0 -99 -141l-16 -82z" />
    <glyph glyph-name="UkaliqPatternSegmentsAbcefg_UkaliqModifierDot" unicode="&#xf1d6f;&#x331;" 
d="M353 -184q-13 36 14 71q28 36 69 36t54 -36q14 -35 -14 -71q-27 -35 -68 -35t-55 35zM11 0l6 31q62 0 75 63l34 170l34 170l16 82q38 188 194 188q270 0 213 -287l-31 -153l-34 -170q-13 -63 50 -63l-6 -31h-211l6 31q62 0 75 63l34 170l13 64h-254l-13 -64l-34 -170
q-13 -63 50 -63l-6 -31h-211zM234 375h254l9 42q47 240 -136 240q-71 0 -99 -141l-16 -82z" />
    <glyph glyph-name="UkaliqPatternSegmentsAdg_UkaliqModifierDot" unicode="&#xf1d70;&#x331;" 
d="M89 63h422l-12 -63h-422zM153 383h422l-12 -63h-422zM337 -184q-13 36 15 71q27 36 68 36t54 -36q14 -35 -14 -71q-27 -35 -68 -35t-55 35zM217 704h422l-12 -63h-422z" />
    <glyph glyph-name="UkaliqPatternSegmentsAcdg_UkaliqModifierDot" unicode="&#xf1d71;&#x331;" 
d="M148 375h192q234 0 197 -187q-38 -188 -272 -188h-192l9 47h192q148 0 177 141q28 140 -121 140h-191zM337 -184q-13 36 15 71q27 36 68 36t54 -36q14 -35 -14 -71q-27 -35 -68 -35t-55 35zM217 704h422l-12 -63h-422z" />
    <glyph glyph-name="UkaliqPatternSegmentsAdfg_UkaliqModifierDot" unicode="&#xf1d72;&#x331;" 
d="M649 594h-31q-5 63 -50 63h-129q-149 0 -177 -141t121 -141h97q63 0 75 63h32l-35 -172h-31q12 62 -50 62h-98q-234 0 -197 188q38 188 272 188h192zM102 125h31q-13 -62 50 -62h234q63 0 75 62h32l-25 -125h-422zM337 -184q-13 36 15 71q27 36 68 36t54 -36
q14 -35 -14 -71q-27 -35 -68 -35t-55 35z" />
    <glyph glyph-name="UkaliqPatternSegmentsAcdfg_UkaliqModifierDot" unicode="&#xf1d73;&#x331;" 
d="M337 -184q-13 36 15 71q27 36 68 36t54 -36q14 -35 -14 -71q-27 -35 -68 -35t-55 35zM610 594h-31q-5 63 -50 63h-109q-130 0 -158 -141t99 -141h213l-37 -187q-38 -188 -262 -188h-180l-10 109h31q6 -62 50 -62h119q137 0 166 141l28 140h-127q-213 0 -176 188
q38 188 253 188h172z" />
    <glyph glyph-name="UkaliqPatternSegmentsAdeg_UkaliqModifierDot" unicode="&#xf1d74;&#x331;" 
d="M552 266h-31q12 62 -50 62h-98q-148 0 -176 -140l-29 -141h278q45 0 75 62h31l-53 -109h-426l38 188q37 187 272 187h97q63 0 75 63h32zM337 -184q-13 36 15 71q27 36 68 36t54 -36q14 -35 -14 -71q-27 -35 -68 -35t-55 35zM217 704h422l-25 -126h-31q13 63 -50 63h-234
q-63 0 -75 -63h-32z" />
    <glyph glyph-name="UkaliqPatternSegmentsAcdeg_UkaliqModifierDot" unicode="&#xf1d75;&#x331;" 
d="M337 -184q-13 36 15 71q27 36 68 36t54 -36q14 -35 -14 -71q-27 -35 -68 -35t-55 35zM217 704h422l-25 -126h-31q13 63 -50 63h-234q-63 0 -75 -63h-32zM197 188l-29 -141h127q127 0 156 141q28 140 -99 140t-155 -140zM111 188q37 187 250 187t176 -187
q-38 -188 -251 -188h-213z" />
    <glyph glyph-name="UkaliqPatternSegmentsAdefg_UkaliqModifierDot" unicode="&#xf1d76;&#x331;" 
d="M337 -184q-13 36 15 71q27 36 68 36t54 -36q14 -35 -14 -71q-27 -35 -68 -35t-55 35zM649 594h-31q-5 63 -50 63h-129q-149 0 -177 -141l-16 -82l-12 -59h246q63 0 75 63h32l-35 -172h-31q12 62 -50 62h-246l-12 -58l-45 -223h278q45 0 75 62h31l-53 -109h-426l54 270
l33 164l16 82q38 188 272 188h192z" />
    <glyph glyph-name="UkaliqPatternSegmentsAcdefg_UkaliqModifierDot" unicode="&#xf1d77;&#x331;" 
d="M337 -184q-13 36 15 71q27 36 68 36t54 -36q14 -35 -14 -71q-27 -35 -68 -35t-55 35zM610 594h-31q-5 63 -50 63h-109q-130 0 -158 -141l-16 -82l-12 -59h127q213 0 176 -187q-38 -188 -251 -188h-213l54 270l33 164l16 82q38 188 253 188h172zM225 328l-12 -58l-45 -223
h127q127 0 156 141q28 140 -99 140h-127z" />
    <glyph glyph-name="UkaliqPatternSegmentsAbdg_UkaliqModifierDot" unicode="&#xf1d78;&#x331;" 
d="M102 125h31q-13 -62 50 -62h234q63 0 75 62h32l-25 -125h-422zM214 704q426 0 377 -243q-26 -133 -261 -133h-97q-63 0 -75 -62h-32l35 172h31q-13 -63 50 -63h98q148 0 165 86q39 196 -238 196q-45 0 -75 -63h-31zM337 -184q-13 36 15 71q27 36 68 36t54 -36
q14 -35 -14 -71q-27 -35 -68 -35t-55 35z" />
    <glyph glyph-name="UkaliqPatternSegmentsAbcdg_UkaliqModifierDot" unicode="&#xf1d79;&#x331;" 
d="M161 438h31q-13 -63 50 -63h246l9 42q47 240 -230 240q-45 0 -75 -63h-31l53 110q426 0 369 -287l-30 -147l-16 -82q-38 -188 -272 -188h-192l-9 109h31q5 -62 50 -62h129q148 0 177 141l16 82l12 58h-246q-63 0 -75 -62h-32zM337 -184q-13 36 15 71q27 36 68 36t54 -36
q14 -35 -14 -71q-27 -35 -68 -35t-55 35z" />
    <glyph glyph-name="UkaliqPatternSegmentsAbdfg_UkaliqModifierDot" unicode="&#xf1d7a;&#x331;" 
d="M102 125h31q-13 -62 50 -62h234q63 0 75 62h32l-25 -125h-422zM337 -184q-13 36 15 71q27 36 68 36t54 -36q14 -35 -14 -71q-27 -35 -68 -35t-55 35zM262 516q-28 -141 99 -141t144 86q39 196 -144 196q-71 0 -99 -141zM176 516q38 188 194 188q270 0 221 -243
q-26 -133 -239 -133t-176 188z" />
    <glyph glyph-name="UkaliqPatternSegmentsAbcdfg_UkaliqModifierDot" unicode="&#xf1d7b;&#x331;" 
d="M337 -184q-13 36 15 71q27 36 68 36t54 -36q14 -35 -14 -71q-27 -35 -68 -35t-55 35zM488 375l9 42q47 240 -136 240q-71 0 -99 -141t99 -141h127zM479 328h-127q-213 0 -176 188q38 188 194 188q270 0 213 -287l-30 -147l-16 -82q-38 -188 -262 -188h-180l-10 109h31
q6 -62 50 -62h119q137 0 166 141l16 82z" />
    <glyph glyph-name="UkaliqPatternSegmentsAbdeg_UkaliqModifierDot" unicode="&#xf1d7c;&#x331;" 
d="M252 704q388 0 339 -243q-26 -133 -239 -133h-127l-57 -281h256q45 0 75 62h32l-53 -109h-405l75 375h213q127 0 144 86q39 196 -199 196q-45 0 -75 -63h-32zM337 -184q-13 36 15 71q27 36 68 36t54 -36q14 -35 -14 -71q-27 -35 -68 -35t-55 35z" />
    <glyph glyph-name="UkaliqPatternSegmentsAbcdeg_UkaliqModifierDot" unicode="&#xf1d7d;&#x331;" 
d="M252 704q388 0 331 -287l-30 -147l-16 -82q-38 -188 -251 -188h-213l38 188q37 187 250 187h127l9 42q47 240 -191 240q-45 0 -75 -63h-32zM337 -184q-13 36 15 71q27 36 68 36t54 -36q14 -35 -14 -71q-27 -35 -68 -35t-55 35zM479 328h-127q-127 0 -155 -140l-29 -141
h127q127 0 156 141l16 82z" />
    <glyph glyph-name="UkaliqPatternSegmentsAbdefg_UkaliqModifierDot" unicode="&#xf1d7e;&#x331;" 
d="M337 -184q-13 36 15 71q27 36 68 36t54 -36q14 -35 -14 -71q-27 -35 -68 -35t-55 35zM225 328l-12 -58l-45 -223h256q45 0 75 62h32l-53 -109h-405l54 270l33 164l16 82q38 188 194 188q270 0 221 -243q-26 -133 -239 -133h-127zM234 375h127q127 0 144 86
q39 196 -144 196q-71 0 -99 -141l-16 -82z" />
    <glyph glyph-name="UkaliqPatternSegmentsAbcdefg_UkaliqModifierDot" unicode="&#xf1d7f;&#x331;" 
d="M337 -184q-13 36 15 71q27 36 68 36t54 -36q14 -35 -14 -71q-27 -35 -68 -35t-55 35zM488 375l9 42q47 240 -136 240q-71 0 -99 -141l-16 -82l-12 -59h254zM479 328h-254l-12 -58l-45 -223h127q127 0 156 141l16 82zM176 516q38 188 194 188q270 0 213 -287l-30 -147
l-16 -82q-38 -188 -251 -188h-213l54 270l33 164z" />
    <glyph glyph-name=".notdef" 
d="M89 63h422l-12 -63h-422zM337 -184q-13 36 15 71q27 36 68 36t54 -36q14 -35 -14 -71q-27 -35 -68 -35t-55 35z" />
    <glyph glyph-name="NULL" horiz-adv-x="0" 
 />
    <glyph glyph-name="uni000D" unicode="&#xd;" horiz-adv-x="0" 
 />
    <glyph glyph-name="uni200D" unicode="&#x200d;" horiz-adv-x="0" 
 />
    <glyph glyph-name="uni200B" unicode="&#x200b;" horiz-adv-x="0" 
 />
    <glyph glyph-name="uni200C" unicode="&#x200c;" horiz-adv-x="0" 
 />
    <glyph glyph-name="uniFEFF" unicode="&#xfeff;" horiz-adv-x="0" 
 />
    <glyph glyph-name="space" unicode=" " 
 />
    <glyph glyph-name="uni00A0" unicode="&#xa0;" 
 />
    <glyph glyph-name="UkaliqModifierDot" unicode="&#x331;" 
d="M337 -184q-13 36 15 71q27 36 68 36t54 -36q14 -35 -14 -71q-27 -35 -68 -35t-55 35z" />
    <glyph glyph-name="uni2002" unicode="&#x2002;" 
 />
    <glyph glyph-name="uni2007" unicode="&#x2007;" 
 />
    <glyph glyph-name="uni2B1B" unicode="&#x2b1b;" 
d="M0 946h578v-1242h-578v1242z" />
    <glyph glyph-name="UkaliqSpace" unicode="&#xee00;" 
 />
    <glyph glyph-name="UkaliqNumber" unicode="&#xee01;" 
d="M574 375l-75 -375h-86l75 375h86z" />
    <glyph glyph-name="UkaliqRightSingleQuotationMark" unicode="&#xee02;" 
d="M300 704l-75 -376h-86l75 376h86z" />
    <glyph glyph-name="UkaliqColon" unicode="&#xee03;" 
d="M574 375l-75 -375h-86l75 375h86zM300 704l-75 -376h-86l75 376h86z" />
    <glyph glyph-name="UkaliqFullStop" unicode="&#xee04;" 
d="M234 375l-75 -375h-86l75 375h86z" />
    <glyph glyph-name="UkaliqComma" unicode="&#xee05;" 
d="M574 375l-75 -375h-86l75 375h86zM234 375l-75 -375h-86l75 375h86z" />
    <glyph glyph-name="UkaliqRightParenthesis" unicode="&#xee06;" 
d="M300 704l-141 -704h-86l141 704h86z" />
    <glyph glyph-name="UkaliqExclamationMark" unicode="&#xee07;" 
d="M300 704l-141 -704h-86l141 704h86zM574 375l-75 -375h-86l75 375h86z" />
    <glyph glyph-name="UkaliqLeftSingleQuotationMark" unicode="&#xee08;" 
d="M640 704l-75 -376h-86l75 376h86z" />
    <glyph glyph-name="UkaliqLeftParenthesis" unicode="&#xee09;" 
d="M640 704l-141 -704h-86l141 704h86z" />
    <glyph glyph-name="UkaliqDoubleQuotationMark" unicode="&#xee0a;" 
d="M300 704l-75 -376h-86l75 376h86zM640 704l-75 -376h-86l75 376h86z" />
    <glyph glyph-name="UkaliqReversedQuestionMark" unicode="&#xee0b;" 
d="M640 704l-141 -704h-86l141 704h86zM300 704l-75 -376h-86l75 376h86z" />
    <glyph glyph-name="UkaliqSemicolon" unicode="&#xee0c;" 
d="M640 704l-75 -376h-86l75 376h86zM234 375l-75 -375h-86l75 375h86z" />
    <glyph glyph-name="UkaliqReversedExclamationMark" unicode="&#xee0d;" 
d="M640 704l-141 -704h-86l141 704h86zM234 375l-75 -375h-86l75 375h86z" />
    <glyph glyph-name="UkaliqQuestionMark" unicode="&#xee0e;" 
d="M300 704l-141 -704h-86l141 704h86zM640 704l-75 -376h-86l75 376h86z" />
    <glyph glyph-name="UkaliqEquals" unicode="&#xee0f;" 
d="M640 704l-141 -704h-86l141 704h86zM300 704l-141 -704h-86l141 704h86z" />
    <glyph glyph-name="UkaliqHyphen" unicode="&#xee10;" 
d="M89 63h422l-12 -63h-422z" />
    <glyph glyph-name="UkaliqLetterOzo" unicode="&#xee11;" 
d="M574 375l-35 -176q-40 -199 -274 -199h-192l-9 109h31q5 -62 50 -62h129q148 0 179 152l16 82q13 63 -50 63l7 31h148z" />
    <glyph glyph-name="UkaliqGreaterThan" unicode="&#xee12;" 
d="M89 63h422l-12 -63h-422zM300 704l-75 -376h-86l75 376h86z" />
    <glyph glyph-name="UkaliqLetterAtlha" unicode="&#xee13;" 
d="M300 704l-75 -376h-86l6 32l13 62l31 156q15 76 -50 63l6 31zM574 375l-35 -176q-40 -199 -274 -199h-192l-9 109h31q5 -62 50 -62h129q148 0 179 152l35 176h86z" />
    <glyph glyph-name="UkaliqLetterEdzre" unicode="&#xee14;" 
d="M234 375l-66 -328h278q45 0 75 62h31l-53 -109h-426l56 281q13 63 -50 63l7 31h148z" />
    <glyph glyph-name="UkaliqOr" unicode="&#xee15;" 
d="M234 375l-66 -328h127q127 0 158 152l35 176h86l-35 -176q-40 -199 -253 -199h-213l75 375h86z" />
    <glyph glyph-name="UkaliqLetterIdzji" unicode="&#xee16;" 
d="M300 704l-132 -657h278q45 0 75 62h31l-53 -109h-426l116 578q15 76 -50 63l6 31z" />
    <glyph glyph-name="UkaliqLetterOdzo" unicode="&#xee17;" 
d="M300 704l-132 -657h127q127 0 158 152l16 82q13 63 -50 63l7 31h148l-35 -176q-40 -199 -253 -199h-213l116 578q15 76 -50 63l6 31z" />
    <glyph glyph-name="UkaliqLessThan" unicode="&#xee18;" 
d="M89 63h422l-12 -63h-422zM640 704l-75 -376h-86l75 376h86z" />
    <glyph glyph-name="UkaliqLetterOso" unicode="&#xee19;" 
d="M640 704l-68 -341q-73 -363 -307 -363h-192l-9 109h31q5 -62 50 -62h129q148 0 212 316l43 215q15 76 -50 63l6 31z" />
    <glyph glyph-name="UkaliqMultiplication" unicode="&#xee1a;" 
d="M89 63h422l-12 -63h-422zM300 704l-75 -376h-86l75 376h86zM640 704l-75 -376h-86l75 376h86z" />
    <glyph glyph-name="UkaliqLetterApfa" unicode="&#xee1b;" 
d="M300 704l-50 -251l-13 -62l-6 -31l-92 -32l50 250q15 76 -50 63l6 31zM640 704l-68 -341q-73 -363 -307 -363h-192l-9 109h31q5 -62 50 -62h129q148 0 212 316l43 215q15 76 -50 63l6 31z" />
    <glyph glyph-name="UkaliqLetterEtsre" unicode="&#xee1c;" 
d="M234 375l-66 -328h278q45 0 75 62h31l-53 -109h-426l56 281q13 63 -50 63l7 31h148zM640 704l-56 -282l-13 -62l-6 -32h-86l50 250q15 76 -50 63l6 31z" />
    <glyph glyph-name="UkaliqLetterUkkhu" unicode="&#xee1d;" 
d="M640 704l-68 -341q-73 -363 -286 -363h-213l56 281q13 63 -50 63l7 31h148l-66 -328h127q127 0 191 316l43 215q15 76 -50 63l6 31z" />
    <glyph glyph-name="UkaliqLetterItsji" unicode="&#xee1e;" 
d="M300 704l-132 -657h278q45 0 75 62h31l-53 -109h-426l116 578q15 76 -50 63l6 31zM640 704l-75 -376l-80 32l6 31l13 62l25 125q15 76 -50 63l6 31z" />
    <glyph glyph-name="UkaliqLetterOtso" unicode="&#xee1f;" 
d="M300 704l-132 -657h127q127 0 191 316l43 215q15 76 -50 63l6 31l155 32l-68 -341q-73 -363 -286 -363h-213l116 578q15 76 -50 63l6 31z" />
    <glyph glyph-name="UkaliqRange" unicode="&#xee20;" 
d="M217 704h422l-12 -63h-422z" />
    <glyph glyph-name="UkaliqLetterEo" unicode="&#xee21;" 
d="M574 375l-56 -281q-13 -63 50 -63l-6 -31h-211l6 31q62 0 75 63l37 187q13 63 -50 63l7 31h148zM217 704h422l-25 -126h-31q13 63 -50 63h-234q-63 0 -75 -63h-32z" />
    <glyph glyph-name="UkaliqLetterUh" unicode="&#xee22;" 
d="M649 594h-31q-5 63 -50 63h-129q-149 0 -179 -153l-10 -51l-13 -62l-6 -31l-92 -32l35 176q40 200 274 200h192z" />
    <glyph glyph-name="UkaliqLetterEu" unicode="&#xee23;" 
d="M574 375l-56 -281q-13 -63 50 -63l-6 -31h-211l6 31q62 0 75 63l56 281h86zM649 594h-31q-5 63 -50 63h-129q-149 0 -179 -153l-35 -176h-86l6 32l13 62l16 82q40 200 274 200h192z" />
    <glyph glyph-name="UkaliqLetterOe" unicode="&#xee24;" 
d="M234 375l-56 -281q-13 -63 50 -63l-6 -31h-211l6 31q62 0 75 63l37 187q13 63 -50 63l7 31h148zM217 704h422l-25 -126h-31q13 63 -50 63h-234q-63 0 -75 -63h-32z" />
    <glyph glyph-name="UkaliqLetterOeh" unicode="&#xee25;" 
d="M574 375l-56 -281q-13 -63 50 -63l-6 -31h-211l6 31q62 0 75 63l37 187q13 63 -50 63l7 31h148zM234 375l-56 -281q-13 -63 50 -63l-6 -31h-211l6 31q62 0 75 63l37 187q13 63 -50 63l7 31h148zM217 704h422l-25 -126h-31q13 63 -50 63h-234q-63 0 -75 -63h-32z" />
    <glyph glyph-name="UkaliqLetterUi" unicode="&#xee26;" 
d="M649 594h-31q-5 63 -50 63h-129q-149 0 -212 -317l-49 -246q-13 -63 50 -63l-6 -31h-211l6 31q62 0 75 63l49 246q73 364 307 364h192z" />
    <glyph glyph-name="UkaliqLetterAh" unicode="&#xee27;" 
d="M649 594h-31q-5 63 -50 63h-129q-149 0 -212 -317l-49 -246q-13 -63 50 -63l-6 -31h-211l6 31q62 0 75 63l49 246q73 364 307 364h192zM574 375l-56 -281q-13 -63 50 -63l-6 -31h-211l6 31q62 0 75 63l37 187q13 63 -50 63l7 31h148z" />
    <glyph glyph-name="UkaliqLetterAe" unicode="&#xee28;" 
d="M214 704q426 0 351 -376l-80 32l6 31l13 62q40 204 -237 204q-45 0 -75 -63h-31z" />
    <glyph glyph-name="UkaliqLetterO" unicode="&#xee29;" 
d="M214 704q426 0 304 -610q-13 -63 50 -63l-6 -31h-211l6 31q62 0 75 63q112 563 -165 563q-45 0 -75 -63h-31z" />
    <glyph glyph-name="UkaliqLetterIh" unicode="&#xee2a;" 
d="M139 328l35 176q40 200 196 200q270 0 195 -376l-80 32l6 31l13 62q40 204 -143 204q-71 0 -101 -153l-10 -51l-13 -62l-6 -31z" />
    <glyph glyph-name="UkaliqLetterU" unicode="&#xee2b;" 
d="M139 328l35 176q40 200 196 200q270 0 148 -610q-13 -63 50 -63l-6 -31h-211l6 31q62 0 75 63q112 563 -71 563q-71 0 -101 -153l-10 -51l-13 -62l-6 -31z" />
    <glyph glyph-name="UkaliqLetterE" unicode="&#xee2c;" 
d="M214 704q426 0 370 -282l-13 -62l-6 -32h-86q65 329 -212 329q-45 0 -75 -63h-31zM234 375l-56 -281q-13 -63 50 -63l-6 -31h-211l6 31q62 0 75 63l37 187q13 63 -50 63l7 31h148z" />
    <glyph glyph-name="UkaliqLetterEh" unicode="&#xee2d;" 
d="M214 704q426 0 304 -610q-13 -63 50 -63l-6 -31h-211l6 31q62 0 75 63q112 563 -165 563q-45 0 -75 -63h-31zM234 375l-56 -281q-13 -63 50 -63l-6 -31h-211l6 31q62 0 75 63l37 187q13 63 -50 63l7 31h148z" />
    <glyph glyph-name="UkaliqLetterI" unicode="&#xee2e;" 
d="M485 360l6 31l13 62q40 204 -143 204q-71 0 -134 -317l-49 -246q-13 -63 50 -63l-6 -31h-211l6 31q62 0 75 63l49 246q73 364 229 364q270 0 195 -376z" />
    <glyph glyph-name="UkaliqLetterOh" unicode="&#xee2f;" 
d="M11 0l6 31q62 0 75 63l49 246q73 364 229 364q270 0 148 -610q-13 -63 50 -63l-6 -31h-211l6 31q62 0 75 63q112 563 -71 563q-71 0 -134 -317l-49 -246q-13 -63 50 -63l-6 -31h-211z" />
    <glyph glyph-name="UkaliqPlus" unicode="&#xee30;" 
d="M89 63h422l-12 -63h-422zM217 704h422l-12 -63h-422z" />
    <glyph glyph-name="UkaliqCurrency" unicode="&#xee31;" 
d="M574 375l-35 -176q-40 -199 -274 -199h-192l9 47h192q148 0 179 152l35 176h86zM217 704h422l-12 -63h-422z" />
    <glyph glyph-name="UkaliqAt" unicode="&#xee32;" 
d="M89 63h422l-12 -63h-422zM630 657h-191q-149 0 -179 -153l-35 -176h-86l35 176q40 200 274 200h192z" />
    <glyph glyph-name="UkaliqLetterAlha" unicode="&#xee33;" 
d="M649 594h-31q-5 63 -50 63h-129q-149 0 -179 -153l-35 -176h-86l6 32l13 62l16 82q40 200 274 200h192zM574 375l-35 -176q-40 -199 -274 -199h-192l-9 109h31q5 -62 50 -62h129q148 0 179 152l35 176h86z" />
    <glyph glyph-name="UkaliqLetterElre" unicode="&#xee34;" 
d="M234 375l-66 -328h278q45 0 75 62h31l-53 -109h-426l56 281q13 63 -50 63l7 31h148zM217 704h422l-25 -126h-31q13 63 -50 63h-234q-63 0 -75 -63h-32z" />
    <glyph glyph-name="UkaliqLetterUlgu" unicode="&#xee35;" 
d="M234 375l-66 -328h127q127 0 158 152l16 82q13 63 -50 63l7 31h148l-35 -176q-40 -199 -253 -199h-213l56 281q13 63 -50 63l7 31h148zM217 704h422l-25 -126h-31q13 63 -50 63h-234q-63 0 -75 -63h-32z" />
    <glyph glyph-name="UkaliqLetterIlji" unicode="&#xee36;" 
d="M649 594h-31q-5 63 -50 63h-129q-149 0 -210 -305l-61 -305h278q45 0 75 62h31l-53 -109h-426l70 352q71 352 305 352h192z" />
    <glyph glyph-name="UkaliqLetterOlo" unicode="&#xee37;" 
d="M649 594h-31q-5 63 -50 63h-129q-149 0 -210 -305l-61 -305h127q127 0 158 152l16 82q13 63 -50 63l7 31h148l-35 -176q-40 -199 -253 -199h-213l70 352q71 352 305 352h192z" />
    <glyph glyph-name="UkaliqDegree" unicode="&#xee38;" 
d="M89 63h422l-12 -63h-422zM214 704q426 0 351 -376h-86q65 329 -275 329z" />
    <glyph glyph-name="UkaliqLetterHbat" unicode="&#xee39;" 
d="M214 704q426 0 334 -462q-49 -242 -283 -242h-192l-9 109h31q5 -62 50 -62h129q148 0 188 195q82 415 -195 415q-45 0 -75 -63h-31z" />
    <glyph glyph-name="UkaliqLetterAnqa" unicode="&#xee3a;" 
d="M102 125h31q-13 -62 50 -62h234q63 0 75 62h32l-25 -125h-422zM139 328l35 176q40 200 196 200q270 0 195 -376l-80 32l6 31l13 62q40 204 -143 204q-71 0 -101 -153l-10 -51l-13 -62l-6 -31z" />
    <glyph glyph-name="UkaliqLetterAma" unicode="&#xee3b;" 
d="M139 328l35 176q40 200 196 200q270 0 178 -462q-49 -242 -283 -242h-192l-9 109h31q5 -62 50 -62h129q148 0 188 195q82 415 -101 415q-71 0 -101 -153l-10 -51l-13 -62l-6 -31z" />
    <glyph glyph-name="UkaliqLetterEnre" unicode="&#xee3c;" 
d="M214 704q426 0 370 -282l-13 -62l-6 -32h-86q65 329 -212 329q-45 0 -75 -63h-31zM234 375l-66 -328h278q45 0 75 62h31l-53 -109h-426l56 281q13 63 -50 63l7 31h148z" />
    <glyph glyph-name="UkaliqLetterUngu" unicode="&#xee3d;" 
d="M214 704q426 0 334 -462q-49 -242 -262 -242h-213l56 281q13 63 -50 63l7 31h148l-66 -328h127q127 0 167 195q82 415 -195 415q-45 0 -75 -63h-31z" />
    <glyph glyph-name="UkaliqLetterInji" unicode="&#xee3e;" 
d="M485 360l6 31l13 62q40 204 -143 204q-71 0 -132 -305l-61 -305h278q45 0 75 62h31l-53 -109h-426l70 352q71 352 227 352q270 0 195 -376z" />
    <glyph glyph-name="UkaliqLetterOno" unicode="&#xee3f;" 
d="M229 352l-61 -305h127q127 0 167 195q82 415 -101 415q-71 0 -132 -305zM143 352q71 352 227 352q270 0 178 -462q-49 -242 -262 -242h-213z" />
    <glyph glyph-name="UkaliqDash" unicode="&#xee40;" 
d="M153 383h422l-12 -63h-422z" />
    <glyph glyph-name="UkaliqLetterA" unicode="&#xee41;" 
d="M148 375h192q234 0 194 -199l-16 -82q-13 -63 50 -63l-6 -31h-211l6 31q62 0 75 63l16 82q31 152 -118 152h-97q-63 0 -75 -62h-32z" />
    <glyph glyph-name="UkaliqMinus" unicode="&#xee42;" 
d="M300 704l-35 -176q-31 -153 118 -153h191l-9 -47h-192q-234 0 -194 200l35 176h86z" />
    <glyph glyph-name="UkaliqLetterAwa" unicode="&#xee43;" 
d="M300 704l-35 -176q-31 -153 96 -153h213l-56 -281q-13 -63 50 -63l-6 -31h-211l6 31q62 0 75 63l47 234h-127q-213 0 -173 200l10 50q15 76 -50 63l6 31z" />
    <glyph glyph-name="UkaliqLetterErre" unicode="&#xee44;" 
d="M552 266h-31q12 62 -50 62h-98q-148 0 -179 -152l-16 -82q-13 -63 50 -63l-6 -31h-211l6 31q62 0 75 63l16 82q40 199 275 199h191z" />
    <glyph glyph-name="UkaliqAnd" unicode="&#xee45;" 
d="M73 0l35 176q40 199 253 199t173 -199l-35 -176h-86l35 176q31 152 -96 152t-158 -152l-35 -176h-86z" />
    <glyph glyph-name="UkaliqLetterIzji" unicode="&#xee46;" 
d="M300 704l-53 -264l-13 -65h246q63 0 75 63h32l-35 -172h-31q12 62 -50 62h-246l-13 -64l-34 -170q-13 -63 50 -63l-6 -31h-211l6 31q62 0 75 63l34 170l35 176l28 138q15 76 -50 63l6 31z" />
    <glyph glyph-name="UkaliqLetterOro" unicode="&#xee47;" 
d="M300 704l-53 -264l-13 -65h127q213 0 173 -199l-16 -82q-13 -63 50 -63l-6 -31h-211l6 31q62 0 75 63l16 82q31 152 -96 152h-127l-13 -64l-34 -170q-13 -63 50 -63l-6 -31h-211l6 31q62 0 75 63l34 170l35 176l28 138q15 76 -50 63l6 31z" />
    <glyph glyph-name="UkaliqNot" unicode="&#xee48;" 
d="M640 704l-35 -176q-40 -200 -275 -200h-191l9 47h192q148 0 179 153l35 176h86z" />
    <glyph glyph-name="UkaliqDivision" unicode="&#xee49;" 
d="M640 704l-53 -264l-35 -176l-53 -264h-86l53 264l13 64h-340l9 47h340l13 65l53 264h86z" />
    <glyph glyph-name="UkaliqXor" unicode="&#xee4a;" 
d="M300 704l-35 -176q-31 -153 96 -153t158 153l35 176h86l-35 -176q-40 -200 -253 -200t-173 200l35 176h86z" />
    <glyph glyph-name="uniEE4B" unicode="&#xee4b;" 
d="M300 704l-35 -176q-31 -153 96 -153h127l13 65l53 264h86l-53 -264l-35 -176l-53 -264h-86l53 264l13 64h-127q-213 0 -173 200l35 176h86z" />
    <glyph glyph-name="UkaliqLetterIji" unicode="&#xee4c;" 
d="M640 704l-35 -176q-40 -200 -253 -200h-127l-47 -234q-13 -63 50 -63l-6 -31h-211l6 31q62 0 75 63l56 281h213q127 0 158 153l10 50q15 76 -50 63l6 31z" />
    <glyph glyph-name="UkaliqLetterTkot" unicode="&#xee4d;" 
d="M640 704l-53 -264l-35 -176l-34 -170q-13 -63 50 -63l-6 -31h-211l6 31q62 0 75 63l34 170l13 64h-127q-127 0 -158 -152l-16 -82q-13 -63 50 -63l-6 -31h-211l6 31q62 0 75 63l16 82q40 199 253 199h127l13 65l28 138q15 76 -50 63l6 31z" />
    <glyph glyph-name="UkaliqLetterIsji" unicode="&#xee4e;" 
d="M640 704l-35 -176q-40 -200 -253 -200h-127l-13 -64l-34 -170q-13 -63 50 -63l-6 -31h-211l6 31q62 0 75 63l34 170l35 176l28 138q15 76 -50 63l6 31l155 32l-53 -264l-13 -65h127q127 0 158 153l10 50q15 76 -50 63l6 31z" />
    <glyph glyph-name="UkaliqLetterOrro" unicode="&#xee4f;" 
d="M640 704l-53 -264l-35 -176l-34 -170q-13 -63 50 -63l-6 -31h-211l6 31q62 0 75 63l34 170l13 64h-254l-13 -64l-34 -170q-13 -63 50 -63l-6 -31h-211l6 31q62 0 75 63l34 170l35 176l28 138q15 76 -50 63l6 31l155 32l-53 -264l-13 -65h254l13 65l28 138q15 76 -50 63
l6 31z" />
    <glyph glyph-name="UkaliqDigitZero" unicode="&#xee50;" 
d="M102 125h31q-13 -62 50 -62h234q63 0 75 62h32l-25 -125h-422zM153 383h422l-25 -125h-31q13 62 -50 62h-234q-63 0 -76 -62h-31z" />
    <glyph glyph-name="UkaliqDigitOne" unicode="&#xee51;" 
d="M148 375h192q234 0 197 -187q-38 -188 -272 -188h-192l-9 109h31q5 -62 50 -62h129q148 0 177 141q28 140 -121 140h-97q-63 0 -75 -62h-32z" />
    <glyph glyph-name="UkaliqDigitTwo" unicode="&#xee52;" 
d="M300 704l-35 -176q-31 -153 118 -153h97q63 0 75 63h32l-35 -172h-31q12 62 -50 62h-98q-234 0 -194 200l10 50q15 76 -50 63l6 31zM102 125h31q-13 -62 50 -62h234q63 0 75 62h32l-25 -125h-422z" />
    <glyph glyph-name="UkaliqDigitThree" unicode="&#xee53;" 
d="M300 704l-35 -176q-31 -153 96 -153h213l-37 -187q-38 -188 -272 -188h-192l-9 109h31q5 -62 50 -62h129q148 0 177 141l28 140h-127q-213 0 -173 200l10 50q15 76 -50 63l6 31z" />
    <glyph glyph-name="UkaliqDigitFour" unicode="&#xee54;" 
d="M552 266h-31q12 62 -50 62h-98q-148 0 -176 -140l-29 -141h278q45 0 75 62h31l-53 -109h-426l38 188q37 187 272 187h191z" />
    <glyph glyph-name="UkaliqDigitFive" unicode="&#xee55;" 
d="M197 188l-29 -141h127q127 0 156 141q28 140 -99 140t-155 -140zM111 188q37 187 250 187t176 -187q-38 -188 -251 -188h-213z" />
    <glyph glyph-name="UkaliqDigitSix" unicode="&#xee56;" 
d="M300 704l-53 -264l-13 -65h246q63 0 75 63h32l-35 -172h-31q12 62 -50 62h-246l-12 -58l-45 -223h278q45 0 75 62h31l-53 -109h-426l54 270l34 170l28 138q15 76 -50 63l6 31z" />
    <glyph glyph-name="UkaliqDigitSeven" unicode="&#xee57;" 
d="M300 704l-53 -264l-13 -65h127q213 0 176 -187q-38 -188 -251 -188h-213l54 270l34 170l28 138q15 76 -50 63l6 31zM225 328l-12 -58l-45 -223h127q127 0 156 141q28 140 -99 140h-127z" />
    <glyph glyph-name="UkaliqDigitEight" unicode="&#xee58;" 
d="M102 125h31q-13 -62 50 -62h234q63 0 75 62h32l-25 -125h-422zM640 704l-35 -176q-40 -200 -275 -200h-97q-63 0 -75 -62h-32l35 172h31q-13 -63 50 -63h98q148 0 179 153l10 50q15 76 -50 63l6 31z" />
    <glyph glyph-name="UkaliqDigitNine" unicode="&#xee59;" 
d="M161 438h31q-13 -63 50 -63h246l13 65l28 138q15 76 -50 63l6 31l155 32l-53 -264l-34 -170l-16 -82q-38 -188 -272 -188h-192l-9 109h31q5 -62 50 -62h129q148 0 177 141l16 82l12 58h-246q-63 0 -75 -62h-32z" />
    </font>
</defs>
</svg>
