<?xml version="1.0" standalone="no"?>
<!DOCTYPE svg PUBLIC "-//W3C//DTD SVG 1.1//EN" "http://www.w3.org/Graphics/SVG/1.1/DTD/svg11.dtd" >
<svg xmlns="http://www.w3.org/2000/svg" xmlns:xlink="http://www.w3.org/1999/xlink" version="1.1">
<metadata>
Created by FontForge 20170812 at Mon Jan 23 00:30:10 2023
 By ht,,,
Copyright (C) 2022-2023 Henrik Theiling, License CC-BY-NC4.0
</metadata>
<defs>
<font id="UkaliqSansOblique" horiz-adv-x="578" >
  <font-face 
    font-family="Ukaliq Sans"
    font-weight="400"
    font-style="oblique"
    font-stretch="normal"
    units-per-em="1024"
    panose-1="2 0 5 3 0 0 0 0 0 0"
    ascent="727"
    descent="-297"
    bbox="0 -296 640 946"
    underline-thickness="78"
    underline-position="-171"
    unicode-range="U+000D-F1DFF"
  />
<missing-glyph 
d="M97 63h406l-12 -63h-407zM337 -184q-13 36 15 71q27 36 68 36t54 -36q14 -35 -14 -71q-27 -35 -68 -35t-55 35z" />
    <glyph glyph-name="UkaliqSpace_UkaliqModifierDot" unicode="&#xee00;&#x331;" 
d="M337 -184q-13 36 15 71q27 36 68 36t54 -36q14 -35 -14 -71q-27 -35 -68 -35t-55 35z" />
    <glyph glyph-name="UkaliqNumber_UkaliqModifierDot" unicode="&#xee01;&#x331;" 
d="M574 375l-75 -375h-86l75 375h86zM353 -184q-13 36 14 71q28 36 69 36t54 -36q14 -35 -14 -71q-27 -35 -68 -35t-55 35z" />
    <glyph glyph-name="UkaliqRightSingleQuotationMark_UkaliqModifierDot" unicode="&#xee02;&#x331;" 
d="M300 704l-75 -376h-86l75 376h86zM337 -184q-13 36 15 71q27 36 68 36t54 -36q14 -35 -14 -71q-27 -35 -68 -35t-55 35z" />
    <glyph glyph-name="UkaliqColon_UkaliqModifierDot" unicode="&#xee03;&#x331;" 
d="M574 375l-75 -375h-86l75 375h86zM300 704l-75 -376h-86l75 376h86zM353 -184q-13 36 14 71q28 36 69 36t54 -36q14 -35 -14 -71q-27 -35 -68 -35t-55 35z" />
    <glyph glyph-name="UkaliqFullStop_UkaliqModifierDot" unicode="&#xee04;&#x331;" 
d="M234 375l-75 -375h-86l75 375h86zM337 -184q-13 36 15 71q27 36 68 36t54 -36q14 -35 -14 -71q-27 -35 -68 -35t-55 35z" />
    <glyph glyph-name="UkaliqComma_UkaliqModifierDot" unicode="&#xee05;&#x331;" 
d="M574 375l-75 -375h-86l75 375h86zM234 375l-75 -375h-86l75 375h86zM353 -184q-13 36 14 71q28 36 69 36t54 -36q14 -35 -14 -71q-27 -35 -68 -35t-55 35z" />
    <glyph glyph-name="UkaliqRightParenthesis_UkaliqModifierDot" unicode="&#xee06;&#x331;" 
d="M300 704l-141 -704h-86l141 704h86zM337 -184q-13 36 15 71q27 36 68 36t54 -36q14 -35 -14 -71q-27 -35 -68 -35t-55 35z" />
    <glyph glyph-name="UkaliqExclamationMark_UkaliqModifierDot" unicode="&#xee07;&#x331;" 
d="M300 704l-141 -704h-86l141 704h86zM574 375l-75 -375h-86l75 375h86zM353 -184q-13 36 14 71q28 36 69 36t54 -36q14 -35 -14 -71q-27 -35 -68 -35t-55 35z" />
    <glyph glyph-name="UkaliqLeftSingleQuotationMark_UkaliqModifierDot" unicode="&#xee08;&#x331;" 
d="M640 704l-75 -376h-86l75 376h86zM337 -184q-13 36 15 71q27 36 68 36t54 -36q14 -35 -14 -71q-27 -35 -68 -35t-55 35z" />
    <glyph glyph-name="UkaliqLeftParenthesis_UkaliqModifierDot" unicode="&#xee09;&#x331;" 
d="M640 704l-141 -704h-86l141 704h86zM353 -184q-13 36 14 71q28 36 69 36t54 -36q14 -35 -14 -71q-27 -35 -68 -35t-55 35z" />
    <glyph glyph-name="UkaliqDoubleQuotationMark_UkaliqModifierDot" unicode="&#xee0a;&#x331;" 
d="M300 704l-75 -376h-86l75 376h86zM640 704l-75 -376h-86l75 376h86zM337 -184q-13 36 15 71q27 36 68 36t54 -36q14 -35 -14 -71q-27 -35 -68 -35t-55 35z" />
    <glyph glyph-name="UkaliqReversedQuestionMark_UkaliqModifierDot" unicode="&#xee0b;&#x331;" 
d="M640 704l-141 -704h-86l141 704h86zM300 704l-75 -376h-86l75 376h86zM353 -184q-13 36 14 71q28 36 69 36t54 -36q14 -35 -14 -71q-27 -35 -68 -35t-55 35z" />
    <glyph glyph-name="UkaliqSemicolon_UkaliqModifierDot" unicode="&#xee0c;&#x331;" 
d="M640 704l-75 -376h-86l75 376h86zM234 375l-75 -375h-86l75 375h86zM337 -184q-13 36 15 71q27 36 68 36t54 -36q14 -35 -14 -71q-27 -35 -68 -35t-55 35z" />
    <glyph glyph-name="UkaliqReversedExclamationMark_UkaliqModifierDot" unicode="&#xee0d;&#x331;" 
d="M640 704l-141 -704h-86l141 704h86zM234 375l-75 -375h-86l75 375h86zM353 -184q-13 36 14 71q28 36 69 36t54 -36q14 -35 -14 -71q-27 -35 -68 -35t-55 35z" />
    <glyph glyph-name="UkaliqQuestionMark_UkaliqModifierDot" unicode="&#xee0e;&#x331;" 
d="M300 704l-141 -704h-86l141 704h86zM640 704l-75 -376h-86l75 376h86zM337 -184q-13 36 15 71q27 36 68 36t54 -36q14 -35 -14 -71q-27 -35 -68 -35t-55 35z" />
    <glyph glyph-name="UkaliqEquals_UkaliqModifierDot" unicode="&#xee0f;&#x331;" 
d="M640 704l-141 -704h-86l141 704h86zM300 704l-141 -704h-86l141 704h86zM353 -184q-13 36 14 71q28 36 69 36t54 -36q14 -35 -14 -71q-27 -35 -68 -35t-55 35z" />
    <glyph glyph-name="UkaliqHyphen_UkaliqModifierDot" unicode="&#xee10;&#x331;" 
d="M97 63h406l-12 -63h-407zM337 -184q-13 36 15 71q27 36 68 36t54 -36q14 -35 -14 -71q-27 -35 -68 -35t-55 35z" />
    <glyph glyph-name="UkaliqLetterOzo_UkaliqModifierDot" unicode="&#xee11;&#x331;" 
d="M337 -184q-13 36 15 71q27 36 68 36t54 -36q14 -35 -14 -71q-27 -35 -68 -35t-55 35zM574 375l-35 -176q-40 -199 -270 -199h-187l9 47h187q144 0 175 152l35 176h86z" />
    <glyph glyph-name="UkaliqGreaterThan_UkaliqModifierDot" unicode="&#xee12;&#x331;" 
d="M97 63h406l-12 -63h-407zM300 704l-75 -376h-86l75 376h86zM337 -184q-13 36 15 71q27 36 68 36t54 -36q14 -35 -14 -71q-27 -35 -68 -35t-55 35z" />
    <glyph glyph-name="UkaliqLetterAtlha_UkaliqModifierDot" unicode="&#xee13;&#x331;" 
d="M300 704l-75 -376h-86l75 376h86zM337 -184q-13 36 15 71q27 36 68 36t54 -36q14 -35 -14 -71q-27 -35 -68 -35t-55 35zM574 375l-35 -176q-40 -199 -270 -199h-187l9 47h187q144 0 175 152l35 176h86z" />
    <glyph glyph-name="UkaliqLetterEdzre_UkaliqModifierDot" unicode="&#xee14;&#x331;" 
d="M234 375l-66 -328h332l-9 -47h-418l75 375h86zM337 -184q-13 36 15 71q27 36 68 36t54 -36q14 -35 -14 -71q-27 -35 -68 -35t-55 35z" />
    <glyph glyph-name="UkaliqOr_UkaliqModifierDot" unicode="&#xee15;&#x331;" 
d="M234 375l-66 -328h127q127 0 158 152l35 176h86l-35 -176q-40 -199 -253 -199h-213l75 375h86zM337 -184q-13 36 15 71q27 36 68 36t54 -36q14 -35 -14 -71q-27 -35 -68 -35t-55 35z" />
    <glyph glyph-name="UkaliqLetterIdzji_UkaliqModifierDot" unicode="&#xee16;&#x331;" 
d="M300 704l-132 -657h332l-9 -47h-418l141 704h86zM337 -184q-13 36 15 71q27 36 68 36t54 -36q14 -35 -14 -71q-27 -35 -68 -35t-55 35z" />
    <glyph glyph-name="UkaliqLetterOdzo_UkaliqModifierDot" unicode="&#xee17;&#x331;" 
d="M300 704l-132 -657h127q127 0 158 152l35 176h86l-35 -176q-40 -199 -253 -199h-213l141 704h86zM337 -184q-13 36 15 71q27 36 68 36t54 -36q14 -35 -14 -71q-27 -35 -68 -35t-55 35z" />
    <glyph glyph-name="UkaliqLessThan_UkaliqModifierDot" unicode="&#xee18;&#x331;" 
d="M97 63h406l-12 -63h-407zM640 704l-75 -376h-86l75 376h86zM337 -184q-13 36 15 71q27 36 68 36t54 -36q14 -35 -14 -71q-27 -35 -68 -35t-55 35z" />
    <glyph glyph-name="UkaliqLetterOso_UkaliqModifierDot" unicode="&#xee19;&#x331;" 
d="M640 704l-68 -341q-73 -363 -303 -363h-187l9 47h187q144 0 208 316l68 341h86zM337 -184q-13 36 15 71q27 36 68 36t54 -36q14 -35 -14 -71q-27 -35 -68 -35t-55 35z" />
    <glyph glyph-name="UkaliqMultiplication_UkaliqModifierDot" unicode="&#xee1a;&#x331;" 
d="M97 63h406l-12 -63h-407zM300 704l-75 -376h-86l75 376h86zM640 704l-75 -376h-86l75 376h86zM337 -184q-13 36 15 71q27 36 68 36t54 -36q14 -35 -14 -71q-27 -35 -68 -35t-55 35z" />
    <glyph glyph-name="UkaliqLetterApfa_UkaliqModifierDot" unicode="&#xee1b;&#x331;" 
d="M300 704l-75 -376h-86l75 376h86zM640 704l-68 -341q-73 -363 -303 -363h-187l9 47h187q144 0 208 316l68 341h86zM337 -184q-13 36 15 71q27 36 68 36t54 -36q14 -35 -14 -71q-27 -35 -68 -35t-55 35z" />
    <glyph glyph-name="UkaliqLetterEtsre_UkaliqModifierDot" unicode="&#xee1c;&#x331;" 
d="M234 375l-66 -328h332l-9 -47h-418l75 375h86zM640 704l-75 -376h-86l75 376h86zM337 -184q-13 36 15 71q27 36 68 36t54 -36q14 -35 -14 -71q-27 -35 -68 -35t-55 35z" />
    <glyph glyph-name="UkaliqLetterUkkhu_UkaliqModifierDot" unicode="&#xee1d;&#x331;" 
d="M640 704l-68 -341q-73 -363 -286 -363h-213l75 375h86l-66 -328h127q127 0 191 316l68 341h86zM337 -184q-13 36 15 71q27 36 68 36t54 -36q14 -35 -14 -71q-27 -35 -68 -35t-55 35z" />
    <glyph glyph-name="UkaliqLetterItsji_UkaliqModifierDot" unicode="&#xee1e;&#x331;" 
d="M300 704l-132 -657h332l-9 -47h-418l141 704h86zM640 704l-75 -376h-86l75 376h86zM337 -184q-13 36 15 71q27 36 68 36t54 -36q14 -35 -14 -71q-27 -35 -68 -35t-55 35z" />
    <glyph glyph-name="UkaliqLetterOtso_UkaliqModifierDot" unicode="&#xee1f;&#x331;" 
d="M300 704l-132 -657h127q127 0 191 316l68 341h86l-68 -341q-73 -363 -286 -363h-213l141 704h86zM337 -184q-13 36 15 71q27 36 68 36t54 -36q14 -35 -14 -71q-27 -35 -68 -35t-55 35z" />
    <glyph glyph-name="UkaliqRange_UkaliqModifierDot" unicode="&#xee20;&#x331;" 
d="M337 -184q-13 36 15 71q27 36 68 36t54 -36q14 -35 -14 -71q-27 -35 -68 -35t-55 35zM225 704h407l-13 -63h-406z" />
    <glyph glyph-name="UkaliqLetterEo_UkaliqModifierDot" unicode="&#xee21;&#x331;" 
d="M574 375l-75 -375h-86l75 375h86zM353 -184q-13 36 14 71q28 36 69 36t54 -36q14 -35 -14 -71q-27 -35 -68 -35t-55 35zM225 704h407l-13 -63h-406z" />
    <glyph glyph-name="UkaliqLetterUh_UkaliqModifierDot" unicode="&#xee22;&#x331;" 
d="M622 657h-187q-145 0 -175 -153l-35 -176h-86l35 176q40 200 270 200h187zM337 -184q-13 36 15 71q27 36 68 36t54 -36q14 -35 -14 -71q-27 -35 -68 -35t-55 35z" />
    <glyph glyph-name="UkaliqLetterEu_UkaliqModifierDot" unicode="&#xee23;&#x331;" 
d="M574 375l-75 -375h-86l75 375h86zM622 657h-187q-145 0 -175 -153l-35 -176h-86l35 176q40 200 270 200h187zM353 -184q-13 36 14 71q28 36 69 36t54 -36q14 -35 -14 -71q-27 -35 -68 -35t-55 35z" />
    <glyph glyph-name="UkaliqLetterOe_UkaliqModifierDot" unicode="&#xee24;&#x331;" 
d="M234 375l-75 -375h-86l75 375h86zM337 -184q-13 36 15 71q27 36 68 36t54 -36q14 -35 -14 -71q-27 -35 -68 -35t-55 35zM225 704h407l-13 -63h-406z" />
    <glyph glyph-name="UkaliqLetterOeh_UkaliqModifierDot" unicode="&#xee25;&#x331;" 
d="M574 375l-75 -375h-86l75 375h86zM234 375l-75 -375h-86l75 375h86zM353 -184q-13 36 14 71q28 36 69 36t54 -36q14 -35 -14 -71q-27 -35 -68 -35t-55 35zM225 704h407l-13 -63h-406z" />
    <glyph glyph-name="UkaliqLetterUi_UkaliqModifierDot" unicode="&#xee26;&#x331;" 
d="M622 657h-187q-145 0 -208 -317l-68 -340h-86l68 340q73 364 303 364h187zM337 -184q-13 36 15 71q27 36 68 36t54 -36q14 -35 -14 -71q-27 -35 -68 -35t-55 35z" />
    <glyph glyph-name="UkaliqLetterAh_UkaliqModifierDot" unicode="&#xee27;&#x331;" 
d="M622 657h-187q-145 0 -208 -317l-68 -340h-86l68 340q73 364 303 364h187zM574 375l-75 -375h-86l75 375h86zM353 -184q-13 36 14 71q28 36 69 36t54 -36q14 -35 -14 -71q-27 -35 -68 -35t-55 35z" />
    <glyph glyph-name="UkaliqLetterAe_UkaliqModifierDot" unicode="&#xee28;&#x331;" 
d="M222 704q418 0 343 -376h-86q65 329 -266 329zM337 -184q-13 36 15 71q27 36 68 36t54 -36q14 -35 -14 -71q-27 -35 -68 -35t-55 35z" />
    <glyph glyph-name="UkaliqLetterO_UkaliqModifierDot" unicode="&#xee29;&#x331;" 
d="M222 704q418 0 277 -704h-86q131 657 -200 657zM353 -184q-13 36 14 71q28 36 69 36t54 -36q14 -35 -14 -71q-27 -35 -68 -35t-55 35z" />
    <glyph glyph-name="UkaliqLetterIh_UkaliqModifierDot" unicode="&#xee2a;&#x331;" 
d="M139 328l35 176q40 200 196 200q270 0 195 -376h-86q65 329 -118 329q-71 0 -101 -153l-35 -176h-86zM337 -184q-13 36 15 71q27 36 68 36t54 -36q14 -35 -14 -71q-27 -35 -68 -35t-55 35z" />
    <glyph glyph-name="UkaliqLetterU_UkaliqModifierDot" unicode="&#xee2b;&#x331;" 
d="M139 328l35 176q40 200 196 200q270 0 129 -704h-86q131 657 -52 657q-71 0 -101 -153l-35 -176h-86zM353 -184q-13 36 14 71q28 36 69 36t54 -36q14 -35 -14 -71q-27 -35 -68 -35t-55 35z" />
    <glyph glyph-name="UkaliqLetterE_UkaliqModifierDot" unicode="&#xee2c;&#x331;" 
d="M222 704q418 0 343 -376h-86q65 329 -266 329zM234 375l-75 -375h-86l75 375h86zM337 -184q-13 36 15 71q27 36 68 36t54 -36q14 -35 -14 -71q-27 -35 -68 -35t-55 35z" />
    <glyph glyph-name="UkaliqLetterEh_UkaliqModifierDot" unicode="&#xee2d;&#x331;" 
d="M222 704q418 0 277 -704h-86q131 657 -200 657zM234 375l-75 -375h-86l75 375h86zM353 -184q-13 36 14 71q28 36 69 36t54 -36q14 -35 -14 -71q-27 -35 -68 -35t-55 35z" />
    <glyph glyph-name="UkaliqLetterI_UkaliqModifierDot" unicode="&#xee2e;&#x331;" 
d="M479 328q65 329 -118 329q-71 0 -134 -317l-68 -340h-86l68 340q73 364 229 364q270 0 195 -376h-86zM337 -184q-13 36 15 71q27 36 68 36t54 -36q14 -35 -14 -71q-27 -35 -68 -35t-55 35z" />
    <glyph glyph-name="UkaliqLetterOh_UkaliqModifierDot" unicode="&#xee2f;&#x331;" 
d="M73 0l68 340q73 364 229 364q270 0 129 -704h-86q131 657 -52 657q-71 0 -134 -317l-68 -340h-86zM353 -184q-13 36 14 71q28 36 69 36t54 -36q14 -35 -14 -71q-27 -35 -68 -35t-55 35z" />
    <glyph glyph-name="UkaliqPlus_UkaliqModifierDot" unicode="&#xee30;&#x331;" 
d="M97 63h406l-12 -63h-407zM337 -184q-13 36 15 71q27 36 68 36t54 -36q14 -35 -14 -71q-27 -35 -68 -35t-55 35zM225 704h407l-13 -63h-406z" />
    <glyph glyph-name="UkaliqCurrency_UkaliqModifierDot" unicode="&#xee31;&#x331;" 
d="M337 -184q-13 36 15 71q27 36 68 36t54 -36q14 -35 -14 -71q-27 -35 -68 -35t-55 35zM574 375l-35 -176q-40 -199 -270 -199h-187l9 47h187q144 0 175 152l35 176h86zM225 704h407l-13 -63h-406z" />
    <glyph glyph-name="UkaliqAt_UkaliqModifierDot" unicode="&#xee32;&#x331;" 
d="M97 63h406l-12 -63h-407zM622 657h-187q-145 0 -175 -153l-35 -176h-86l35 176q40 200 270 200h187zM337 -184q-13 36 15 71q27 36 68 36t54 -36q14 -35 -14 -71q-27 -35 -68 -35t-55 35z" />
    <glyph glyph-name="UkaliqLetterAlha_UkaliqModifierDot" unicode="&#xee33;&#x331;" 
d="M622 657h-187q-145 0 -175 -153l-35 -176h-86l35 176q40 200 270 200h187zM337 -184q-13 36 15 71q27 36 68 36t54 -36q14 -35 -14 -71q-27 -35 -68 -35t-55 35zM574 375l-35 -176q-40 -199 -270 -199h-187l9 47h187q144 0 175 152l35 176h86z" />
    <glyph glyph-name="UkaliqLetterElre_UkaliqModifierDot" unicode="&#xee34;&#x331;" 
d="M234 375l-66 -328h332l-9 -47h-418l75 375h86zM337 -184q-13 36 15 71q27 36 68 36t54 -36q14 -35 -14 -71q-27 -35 -68 -35t-55 35zM225 704h407l-13 -63h-406z" />
    <glyph glyph-name="UkaliqLetterUlgu_UkaliqModifierDot" unicode="&#xee35;&#x331;" 
d="M234 375l-66 -328h127q127 0 158 152l35 176h86l-35 -176q-40 -199 -253 -199h-213l75 375h86zM337 -184q-13 36 15 71q27 36 68 36t54 -36q14 -35 -14 -71q-27 -35 -68 -35t-55 35zM225 704h407l-13 -63h-406z" />
    <glyph glyph-name="UkaliqLetterIlji_UkaliqModifierDot" unicode="&#xee36;&#x331;" 
d="M622 657h-187q-145 0 -206 -305l-61 -305h332l-9 -47h-418l70 352q71 352 301 352h187zM337 -184q-13 36 15 71q27 36 68 36t54 -36q14 -35 -14 -71q-27 -35 -68 -35t-55 35z" />
    <glyph glyph-name="UkaliqLetterOlo_UkaliqModifierDot" unicode="&#xee37;&#x331;" 
d="M622 657h-187q-145 0 -206 -305l-61 -305h127q127 0 158 152l35 176h86l-35 -176q-40 -199 -253 -199h-213l70 352q71 352 301 352h187zM337 -184q-13 36 15 71q27 36 68 36t54 -36q14 -35 -14 -71q-27 -35 -68 -35t-55 35z" />
    <glyph glyph-name="UkaliqDegree_UkaliqModifierDot" unicode="&#xee38;&#x331;" 
d="M97 63h406l-12 -63h-407zM222 704q418 0 343 -376h-86q65 329 -266 329zM337 -184q-13 36 15 71q27 36 68 36t54 -36q14 -35 -14 -71q-27 -35 -68 -35t-55 35z" />
    <glyph glyph-name="UkaliqLetterHbat_UkaliqModifierDot" unicode="&#xee39;&#x331;" 
d="M222 704q418 0 326 -462q-49 -242 -279 -242h-187l9 47h187q144 0 184 195q82 415 -249 415zM337 -184q-13 36 15 71q27 36 68 36t54 -36q14 -35 -14 -71q-27 -35 -68 -35t-55 35z" />
    <glyph glyph-name="UkaliqLetterAnqa_UkaliqModifierDot" unicode="&#xee3a;&#x331;" 
d="M97 63h406l-12 -63h-407zM139 328l35 176q40 200 196 200q270 0 195 -376h-86q65 329 -118 329q-71 0 -101 -153l-35 -176h-86zM337 -184q-13 36 15 71q27 36 68 36t54 -36q14 -35 -14 -71q-27 -35 -68 -35t-55 35z" />
    <glyph glyph-name="UkaliqLetterAma_UkaliqModifierDot" unicode="&#xee3b;&#x331;" 
d="M139 328l35 176q40 200 196 200q270 0 178 -462q-49 -242 -279 -242h-187l9 47h187q144 0 184 195q82 415 -101 415q-71 0 -101 -153l-35 -176h-86zM337 -184q-13 36 15 71q27 36 68 36t54 -36q14 -35 -14 -71q-27 -35 -68 -35t-55 35z" />
    <glyph glyph-name="UkaliqLetterEnre_UkaliqModifierDot" unicode="&#xee3c;&#x331;" 
d="M222 704q418 0 343 -376h-86q65 329 -266 329zM234 375l-66 -328h332l-9 -47h-418l75 375h86zM337 -184q-13 36 15 71q27 36 68 36t54 -36q14 -35 -14 -71q-27 -35 -68 -35t-55 35z" />
    <glyph glyph-name="UkaliqLetterUngu_UkaliqModifierDot" unicode="&#xee3d;&#x331;" 
d="M222 704q418 0 326 -462q-49 -242 -262 -242h-213l75 375h86l-66 -328h127q127 0 167 195q82 415 -249 415zM337 -184q-13 36 15 71q27 36 68 36t54 -36q14 -35 -14 -71q-27 -35 -68 -35t-55 35z" />
    <glyph glyph-name="UkaliqLetterInji_UkaliqModifierDot" unicode="&#xee3e;&#x331;" 
d="M479 328q65 329 -118 329q-71 0 -132 -305l-61 -305h332l-9 -47h-418l70 352q71 352 227 352q270 0 195 -376h-86zM337 -184q-13 36 15 71q27 36 68 36t54 -36q14 -35 -14 -71q-27 -35 -68 -35t-55 35z" />
    <glyph glyph-name="UkaliqLetterOno_UkaliqModifierDot" unicode="&#xee3f;&#x331;" 
d="M337 -184q-13 36 15 71q27 36 68 36t54 -36q14 -35 -14 -71q-27 -35 -68 -35t-55 35zM229 352l-61 -305h127q127 0 167 195q82 415 -101 415q-71 0 -132 -305zM143 352q71 352 227 352q270 0 178 -462q-49 -242 -262 -242h-213z" />
    <glyph glyph-name="UkaliqDash_UkaliqModifierDot" unicode="&#xee40;&#x331;" 
d="M161 383h406l-12 -63h-406zM337 -184q-13 36 15 71q27 36 68 36t54 -36q14 -35 -14 -71q-27 -35 -68 -35t-55 35z" />
    <glyph glyph-name="UkaliqLetterA_UkaliqModifierDot" unicode="&#xee41;&#x331;" 
d="M157 375h187q230 0 190 -199l-35 -176h-86l35 176q31 152 -113 152h-188zM353 -184q-13 36 14 71q28 36 69 36t54 -36q14 -35 -14 -71q-27 -35 -68 -35t-55 35z" />
    <glyph glyph-name="UkaliqMinus_UkaliqModifierDot" unicode="&#xee42;&#x331;" 
d="M300 704l-35 -176q-31 -153 113 -153h188l-10 -47h-187q-230 0 -190 200l35 176h86zM337 -184q-13 36 15 71q27 36 68 36t54 -36q14 -35 -14 -71q-27 -35 -68 -35t-55 35z" />
    <glyph glyph-name="UkaliqLetterAwa_UkaliqModifierDot" unicode="&#xee43;&#x331;" 
d="M353 -184q-13 36 14 71q28 36 69 36t54 -36q14 -35 -14 -71q-27 -35 -68 -35t-55 35zM300 704l-35 -176q-31 -153 96 -153h213l-75 -375h-86l66 328h-127q-213 0 -173 200l35 176h86z" />
    <glyph glyph-name="UkaliqLetterErre_UkaliqModifierDot" unicode="&#xee44;&#x331;" 
d="M556 328h-187q-144 0 -175 -152l-35 -176h-86l35 176q40 199 270 199h188zM337 -184q-13 36 15 71q27 36 68 36t54 -36q14 -35 -14 -71q-27 -35 -68 -35t-55 35z" />
    <glyph glyph-name="UkaliqAnd_UkaliqModifierDot" unicode="&#xee45;&#x331;" 
d="M73 0l35 176q40 199 253 199t173 -199l-35 -176h-86l35 176q31 152 -96 152t-158 -152l-35 -176h-86zM353 -184q-13 36 14 71q28 36 69 36t54 -36q14 -35 -14 -71q-27 -35 -68 -35t-55 35z" />
    <glyph glyph-name="UkaliqLetterIzji_UkaliqModifierDot" unicode="&#xee46;&#x331;" 
d="M337 -184q-13 36 15 71q27 36 68 36t54 -36q14 -35 -14 -71q-27 -35 -68 -35t-55 35zM300 704l-53 -264l-13 -65h332l-10 -47h-331l-13 -64l-53 -264h-86l53 264l35 176l53 264h86z" />
    <glyph glyph-name="UkaliqLetterOro_UkaliqModifierDot" unicode="&#xee47;&#x331;" 
d="M353 -184q-13 36 14 71q28 36 69 36t54 -36q14 -35 -14 -71q-27 -35 -68 -35t-55 35zM300 704l-53 -264l-13 -65h127q213 0 173 -199l-35 -176h-86l35 176q31 152 -96 152h-127l-13 -64l-53 -264h-86l53 264l35 176l53 264h86z" />
    <glyph glyph-name="UkaliqNot_UkaliqModifierDot" unicode="&#xee48;&#x331;" 
d="M640 704l-35 -176q-40 -200 -270 -200h-188l10 47h187q144 0 175 153l35 176h86zM337 -184q-13 36 15 71q27 36 68 36t54 -36q14 -35 -14 -71q-27 -35 -68 -35t-55 35z" />
    <glyph glyph-name="UkaliqDivision_UkaliqModifierDot" unicode="&#xee49;&#x331;" 
d="M640 704l-53 -264l-35 -176l-53 -264h-86l53 264l13 64h-332l10 47h331l13 65l53 264h86zM353 -184q-13 36 14 71q28 36 69 36t54 -36q14 -35 -14 -71q-27 -35 -68 -35t-55 35z" />
    <glyph glyph-name="UkaliqXor_UkaliqModifierDot" unicode="&#xee4a;&#x331;" 
d="M300 704l-35 -176q-31 -153 96 -153t158 153l35 176h86l-35 -176q-40 -200 -253 -200t-173 200l35 176h86zM337 -184q-13 36 15 71q27 36 68 36t54 -36q14 -35 -14 -71q-27 -35 -68 -35t-55 35z" />
    <glyph glyph-name="uniEE4B_UkaliqModifierDot" unicode="&#xee4b;&#x331;" 
d="M353 -184q-13 36 14 71q28 36 69 36t54 -36q14 -35 -14 -71q-27 -35 -68 -35t-55 35zM300 704l-35 -176q-31 -153 96 -153h127l13 65l53 264h86l-53 -264l-35 -176l-53 -264h-86l53 264l13 64h-127q-213 0 -173 200l35 176h86z" />
    <glyph glyph-name="UkaliqLetterIji_UkaliqModifierDot" unicode="&#xee4c;&#x331;" 
d="M640 704l-35 -176q-40 -200 -253 -200h-127l-66 -328h-86l75 375h213q127 0 158 153l35 176h86zM337 -184q-13 36 15 71q27 36 68 36t54 -36q14 -35 -14 -71q-27 -35 -68 -35t-55 35z" />
    <glyph glyph-name="UkaliqLetterTkot_UkaliqModifierDot" unicode="&#xee4d;&#x331;" 
d="M640 704l-53 -264l-35 -176l-53 -264h-86l53 264l13 64h-127q-127 0 -158 -152l-35 -176h-86l35 176q40 199 253 199h127l13 65l53 264h86zM353 -184q-13 36 14 71q28 36 69 36t54 -36q14 -35 -14 -71q-27 -35 -68 -35t-55 35z" />
    <glyph glyph-name="UkaliqLetterIsji_UkaliqModifierDot" unicode="&#xee4e;&#x331;" 
d="M337 -184q-13 36 15 71q27 36 68 36t54 -36q14 -35 -14 -71q-27 -35 -68 -35t-55 35zM640 704l-35 -176q-40 -200 -253 -200h-127l-13 -64l-53 -264h-86l53 264l35 176l53 264h86l-53 -264l-13 -65h127q127 0 158 153l35 176h86z" />
    <glyph glyph-name="UkaliqLetterOrro_UkaliqModifierDot" unicode="&#xee4f;&#x331;" 
d="M353 -184q-13 36 14 71q28 36 69 36t54 -36q14 -35 -14 -71q-27 -35 -68 -35t-55 35zM640 704l-53 -264l-35 -176l-53 -264h-86l53 264l13 64h-254l-13 -64l-53 -264h-86l53 264l35 176l53 264h86l-53 -264l-13 -65h254l13 65l53 264h86z" />
    <glyph glyph-name="UkaliqDigitZero_UkaliqModifierDot" unicode="&#xee50;&#x331;" 
d="M97 63h406l-12 -63h-407zM161 383h406l-12 -63h-406zM337 -184q-13 36 15 71q27 36 68 36t54 -36q14 -35 -14 -71q-27 -35 -68 -35t-55 35z" />
    <glyph glyph-name="UkaliqDigitOne_UkaliqModifierDot" unicode="&#xee51;&#x331;" 
d="M157 375h187q230 0 193 -187q-38 -188 -268 -188h-187l9 47h187q144 0 173 141q28 140 -116 140h-188zM337 -184q-13 36 15 71q27 36 68 36t54 -36q14 -35 -14 -71q-27 -35 -68 -35t-55 35z" />
    <glyph glyph-name="UkaliqDigitTwo_UkaliqModifierDot" unicode="&#xee52;&#x331;" 
d="M300 704l-35 -176q-31 -153 113 -153h188l-10 -47h-187q-230 0 -190 200l35 176h86zM97 63h406l-12 -63h-407zM337 -184q-13 36 15 71q27 36 68 36t54 -36q14 -35 -14 -71q-27 -35 -68 -35t-55 35z" />
    <glyph glyph-name="UkaliqDigitThree_UkaliqModifierDot" unicode="&#xee53;&#x331;" 
d="M337 -184q-13 36 15 71q27 36 68 36t54 -36q14 -35 -14 -71q-27 -35 -68 -35t-55 35zM300 704l-35 -176q-31 -153 96 -153h213l-37 -187q-38 -188 -268 -188h-187l9 47h187q144 0 173 141l28 140h-127q-213 0 -173 200l35 176h86z" />
    <glyph glyph-name="UkaliqDigitFour_UkaliqModifierDot" unicode="&#xee54;&#x331;" 
d="M556 328h-187q-144 0 -172 -140l-29 -141h332l-9 -47h-418l38 188q37 187 267 187h188zM337 -184q-13 36 15 71q27 36 68 36t54 -36q14 -35 -14 -71q-27 -35 -68 -35t-55 35z" />
    <glyph glyph-name="UkaliqDigitFive_UkaliqModifierDot" unicode="&#xee55;&#x331;" 
d="M337 -184q-13 36 15 71q27 36 68 36t54 -36q14 -35 -14 -71q-27 -35 -68 -35t-55 35zM197 188l-29 -141h127q127 0 156 141q28 140 -99 140t-155 -140zM111 188q37 187 250 187t176 -187q-38 -188 -251 -188h-213z" />
    <glyph glyph-name="UkaliqDigitSix_UkaliqModifierDot" unicode="&#xee56;&#x331;" 
d="M337 -184q-13 36 15 71q27 36 68 36t54 -36q14 -35 -14 -71q-27 -35 -68 -35t-55 35zM300 704l-53 -264l-13 -65h332l-10 -47h-331l-12 -58l-45 -223h332l-9 -47h-418l54 270l34 170l53 264h86z" />
    <glyph glyph-name="UkaliqDigitSeven_UkaliqModifierDot" unicode="&#xee57;&#x331;" 
d="M337 -184q-13 36 15 71q27 36 68 36t54 -36q14 -35 -14 -71q-27 -35 -68 -35t-55 35zM300 704l-53 -264l-13 -65h127q213 0 176 -187q-38 -188 -251 -188h-213l54 270l34 170l53 264h86zM225 328l-12 -58l-45 -223h127q127 0 156 141q28 140 -99 140h-127z" />
    <glyph glyph-name="UkaliqDigitEight_UkaliqModifierDot" unicode="&#xee58;&#x331;" 
d="M97 63h406l-12 -63h-407zM640 704l-35 -176q-40 -200 -270 -200h-188l10 47h187q144 0 175 153l35 176h86zM337 -184q-13 36 15 71q27 36 68 36t54 -36q14 -35 -14 -71q-27 -35 -68 -35t-55 35z" />
    <glyph glyph-name="UkaliqDigitNine_UkaliqModifierDot" unicode="&#xee59;&#x331;" 
d="M640 704l-53 -264l-34 -170l-16 -82q-38 -188 -268 -188h-187l9 47h187q144 0 173 141l16 82l12 58h-332l10 47h331l13 65l53 264h86zM337 -184q-13 36 15 71q27 36 68 36t54 -36q14 -35 -14 -71q-27 -35 -68 -35t-55 35z" />
    <glyph glyph-name="UkaliqDigitTen_UkaliqModifierDot" unicode="&#xee5a;&#x331;" 
d="M300 704l-35 -176q-31 -153 96 -153t158 153l35 176h86l-35 -176q-40 -200 -253 -200t-173 200l35 176h86zM97 63h406l-12 -63h-407zM337 -184q-13 36 15 71q27 36 68 36t54 -36q14 -35 -14 -71q-27 -35 -68 -35t-55 35z" />
    <glyph glyph-name="UkaliqDigitEleven_UkaliqModifierDot" unicode="&#xee5b;&#x331;" 
d="M337 -184q-13 36 15 71q27 36 68 36t54 -36q14 -35 -14 -71q-27 -35 -68 -35t-55 35zM300 704l-35 -176q-31 -153 96 -153h127l13 65l53 264h86l-53 -264l-34 -170l-16 -82q-38 -188 -268 -188h-187l9 47h187q144 0 173 141l16 82l12 58h-127q-213 0 -173 200l35 176h86z
" />
    <glyph glyph-name="UkaliqDigitTwelve_UkaliqModifierDot" unicode="&#xee5c;&#x331;" 
d="M640 704l-35 -176q-40 -200 -253 -200h-127l-57 -281h332l-9 -47h-418l75 375h213q127 0 158 153l35 176h86zM337 -184q-13 36 15 71q27 36 68 36t54 -36q14 -35 -14 -71q-27 -35 -68 -35t-55 35z" />
    <glyph glyph-name="UkaliqDigitThirteen_UkaliqModifierDot" unicode="&#xee5d;&#x331;" 
d="M640 704l-53 -264l-34 -170l-16 -82q-38 -188 -251 -188h-213l38 188q37 187 250 187h127l13 65l53 264h86zM337 -184q-13 36 15 71q27 36 68 36t54 -36q14 -35 -14 -71q-27 -35 -68 -35t-55 35zM479 328h-127q-127 0 -155 -140l-29 -141h127q127 0 156 141l16 82z" />
    <glyph glyph-name="UkaliqDigitFourteen_UkaliqModifierDot" unicode="&#xee5e;&#x331;" 
d="M337 -184q-13 36 15 71q27 36 68 36t54 -36q14 -35 -14 -71q-27 -35 -68 -35t-55 35zM640 704l-35 -176q-40 -200 -253 -200h-127l-12 -58l-45 -223h332l-9 -47h-418l54 270l34 170l53 264h86l-53 -264l-13 -65h127q127 0 158 153l35 176h86z" />
    <glyph glyph-name="UkaliqDigitFifteen_UkaliqModifierDot" unicode="&#xee5f;&#x331;" 
d="M337 -184q-13 36 15 71q27 36 68 36t54 -36q14 -35 -14 -71q-27 -35 -68 -35t-55 35zM300 704l-53 -264l-13 -65h254l13 65l53 264h86l-53 -264l-34 -170l-16 -82q-38 -188 -251 -188h-213l54 270l34 170l53 264h86zM479 328h-254l-12 -58l-45 -223h127q127 0 156 141
l16 82z" />
    <glyph glyph-name="UkaliqLetterSchwa_UkaliqModifierDot" unicode="&#xee60;&#x331;" 
d="M161 383h406l-12 -63h-406zM337 -184q-13 36 15 71q27 36 68 36t54 -36q14 -35 -14 -71q-27 -35 -68 -35t-55 35zM225 704h407l-13 -63h-406z" />
    <glyph glyph-name="UkaliqLetterOhgo_UkaliqModifierDot" unicode="&#xee61;&#x331;" 
d="M157 375h187q230 0 190 -199l-35 -176h-86l35 176q31 152 -113 152h-188zM353 -184q-13 36 14 71q28 36 69 36t54 -36q14 -35 -14 -71q-27 -35 -68 -35t-55 35zM225 704h407l-13 -63h-406z" />
    <glyph glyph-name="UkaliqLetterArha_UkaliqModifierDot" unicode="&#xee62;&#x331;" 
d="M622 657h-187q-145 0 -173 -141t116 -141h188l-10 -47h-187q-230 0 -193 188q38 188 268 188h187zM337 -184q-13 36 15 71q27 36 68 36t54 -36q14 -35 -14 -71q-27 -35 -68 -35t-55 35z" />
    <glyph glyph-name="UkaliqLetterAva_UkaliqModifierDot" unicode="&#xee63;&#x331;" 
d="M353 -184q-13 36 14 71q28 36 69 36t54 -36q14 -35 -14 -71q-27 -35 -68 -35t-55 35zM622 657h-187q-145 0 -173 -141t99 -141h213l-75 -375h-86l66 328h-127q-213 0 -176 188q38 188 268 188h187z" />
    <glyph glyph-name="UkaliqLetterEzre_UkaliqModifierDot" unicode="&#xee64;&#x331;" 
d="M556 328h-187q-144 0 -175 -152l-35 -176h-86l35 176q40 199 270 199h188zM337 -184q-13 36 15 71q27 36 68 36t54 -36q14 -35 -14 -71q-27 -35 -68 -35t-55 35zM225 704h407l-13 -63h-406z" />
    <glyph glyph-name="UkaliqLetterUghu_UkaliqModifierDot" unicode="&#xee65;&#x331;" 
d="M73 0l35 176q40 199 253 199t173 -199l-35 -176h-86l35 176q31 152 -96 152t-158 -152l-35 -176h-86zM353 -184q-13 36 14 71q28 36 69 36t54 -36q14 -35 -14 -71q-27 -35 -68 -35t-55 35zM225 704h407l-13 -63h-406z" />
    <glyph glyph-name="UkaliqLetterIjji_UkaliqModifierDot" unicode="&#xee66;&#x331;" 
d="M337 -184q-13 36 15 71q27 36 68 36t54 -36q14 -35 -14 -71q-27 -35 -68 -35t-55 35zM622 657h-187q-145 0 -173 -141l-16 -82l-12 -59h332l-10 -47h-331l-13 -64l-53 -264h-86l53 264l34 170l16 82q38 188 268 188h187z" />
    <glyph glyph-name="UkaliqLetterOdho_UkaliqModifierDot" unicode="&#xee67;&#x331;" 
d="M353 -184q-13 36 14 71q28 36 69 36t54 -36q14 -35 -14 -71q-27 -35 -68 -35t-55 35zM622 657h-187q-145 0 -173 -141l-16 -82l-12 -59h127q213 0 173 -199l-35 -176h-86l35 176q31 152 -96 152h-127l-13 -64l-53 -264h-86l53 264l34 170l16 82q38 188 268 188h187z" />
    <glyph glyph-name="UkaliqLetterOhho_UkaliqModifierDot" unicode="&#xee68;&#x331;" 
d="M222 704q418 0 369 -243q-26 -133 -256 -133h-188l10 47h187q144 0 161 86q39 196 -292 196zM337 -184q-13 36 15 71q27 36 68 36t54 -36q14 -35 -14 -71q-27 -35 -68 -35t-55 35z" />
    <glyph glyph-name="UkaliqLetterAha_UkaliqModifierDot" unicode="&#xee69;&#x331;" 
d="M222 704q418 0 361 -287l-31 -153l-53 -264h-86l53 264l13 64h-332l10 47h331l9 42q47 240 -284 240zM353 -184q-13 36 14 71q28 36 69 36t54 -36q14 -35 -14 -71q-27 -35 -68 -35t-55 35z" />
    <glyph glyph-name="UkaliqLetterAqha_UkaliqModifierDot" unicode="&#xee6a;&#x331;" 
d="M337 -184q-13 36 15 71q27 36 68 36t54 -36q14 -35 -14 -71q-27 -35 -68 -35t-55 35zM262 516q-28 -141 99 -141t144 86q39 196 -144 196q-71 0 -99 -141zM176 516q38 188 194 188q270 0 221 -243q-26 -133 -239 -133t-176 188z" />
    <glyph glyph-name="UkaliqLetterAfa_UkaliqModifierDot" unicode="&#xee6b;&#x331;" 
d="M353 -184q-13 36 14 71q28 36 69 36t54 -36q14 -35 -14 -71q-27 -35 -68 -35t-55 35zM488 375l9 42q47 240 -136 240q-71 0 -99 -141t99 -141h127zM479 328h-127q-213 0 -176 188q38 188 194 188q270 0 213 -287l-31 -153l-53 -264h-86l53 264z" />
    <glyph glyph-name="UkaliqLetterEsre_UkaliqModifierDot" unicode="&#xee6c;&#x331;" 
d="M222 704q418 0 369 -243q-26 -133 -239 -133h-127l-66 -328h-86l75 375h213q127 0 144 86q39 196 -292 196zM337 -184q-13 36 15 71q27 36 68 36t54 -36q14 -35 -14 -71q-27 -35 -68 -35t-55 35z" />
    <glyph glyph-name="UkaliqLetterUkhu_UkaliqModifierDot" unicode="&#xee6d;&#x331;" 
d="M222 704q418 0 361 -287l-31 -153l-53 -264h-86l53 264l13 64h-127q-127 0 -158 -152l-35 -176h-86l35 176q40 199 253 199h127l9 42q47 240 -284 240zM353 -184q-13 36 14 71q28 36 69 36t54 -36q14 -35 -14 -71q-27 -35 -68 -35t-55 35z" />
    <glyph glyph-name="UkaliqLetterIcji_UkaliqModifierDot" unicode="&#xee6e;&#x331;" 
d="M337 -184q-13 36 15 71q27 36 68 36t54 -36q14 -35 -14 -71q-27 -35 -68 -35t-55 35zM225 328l-13 -64l-53 -264h-86l53 264l34 170l16 82q38 188 194 188q270 0 221 -243q-26 -133 -239 -133h-127zM234 375h127q127 0 144 86q39 196 -144 196q-71 0 -99 -141l-16 -82z
" />
    <glyph glyph-name="UkaliqLetterOtho_UkaliqModifierDot" unicode="&#xee6f;&#x331;" 
d="M353 -184q-13 36 14 71q28 36 69 36t54 -36q14 -35 -14 -71q-27 -35 -68 -35t-55 35zM73 0l53 264l34 170l16 82q38 188 194 188q270 0 213 -287l-31 -153l-53 -264h-86l53 264l13 64h-254l-13 -64l-53 -264h-86zM234 375h254l9 42q47 240 -136 240q-71 0 -99 -141
l-16 -82z" />
    <glyph glyph-name="UkaliqIterationMark_UkaliqModifierDot" unicode="&#xee70;&#x331;" 
d="M97 63h406l-12 -63h-407zM161 383h406l-12 -63h-406zM337 -184q-13 36 15 71q27 36 68 36t54 -36q14 -35 -14 -71q-27 -35 -68 -35t-55 35zM225 704h407l-13 -63h-406z" />
    <glyph glyph-name="UkaliqPercent_UkaliqModifierDot" unicode="&#xee71;&#x331;" 
d="M157 375h187q230 0 193 -187q-38 -188 -268 -188h-187l9 47h187q144 0 173 141q28 140 -116 140h-188zM337 -184q-13 36 15 71q27 36 68 36t54 -36q14 -35 -14 -71q-27 -35 -68 -35t-55 35zM225 704h407l-13 -63h-406z" />
    <glyph glyph-name="UkaliqLetterAgqa_UkaliqModifierDot" unicode="&#xee72;&#x331;" 
d="M622 657h-187q-145 0 -173 -141t116 -141h188l-10 -47h-187q-230 0 -193 188q38 188 268 188h187zM97 63h406l-12 -63h-407zM337 -184q-13 36 15 71q27 36 68 36t54 -36q14 -35 -14 -71q-27 -35 -68 -35t-55 35z" />
    <glyph glyph-name="UkaliqLetterAba_UkaliqModifierDot" unicode="&#xee73;&#x331;" 
d="M337 -184q-13 36 15 71q27 36 68 36t54 -36q14 -35 -14 -71q-27 -35 -68 -35t-55 35zM592 657h-172q-130 0 -158 -141t99 -141h213l-37 -187q-38 -188 -262 -188h-180l9 47h181q137 0 166 141l28 140h-127q-213 0 -176 188q38 188 253 188h172z" />
    <glyph glyph-name="UkaliqLetterEdre_UkaliqModifierDot" unicode="&#xee74;&#x331;" 
d="M556 328h-187q-144 0 -172 -140l-29 -141h332l-9 -47h-418l38 188q37 187 267 187h188zM337 -184q-13 36 15 71q27 36 68 36t54 -36q14 -35 -14 -71q-27 -35 -68 -35t-55 35zM225 704h407l-13 -63h-406z" />
    <glyph glyph-name="UkaliqLetterUgu_UkaliqModifierDot" unicode="&#xee75;&#x331;" 
d="M337 -184q-13 36 15 71q27 36 68 36t54 -36q14 -35 -14 -71q-27 -35 -68 -35t-55 35zM225 704h407l-13 -63h-406zM197 188l-29 -141h127q127 0 156 141q28 140 -99 140t-155 -140zM111 188q37 187 250 187t176 -187q-38 -188 -251 -188h-213z" />
    <glyph glyph-name="UkaliqLetterIgji_UkaliqModifierDot" unicode="&#xee76;&#x331;" 
d="M337 -184q-13 36 15 71q27 36 68 36t54 -36q14 -35 -14 -71q-27 -35 -68 -35t-55 35zM622 657h-187q-145 0 -173 -141l-16 -82l-12 -59h332l-10 -47h-331l-12 -58l-45 -223h332l-9 -47h-418l54 270l33 164l16 82q38 188 268 188h187z" />
    <glyph glyph-name="UkaliqLetterOdo_UkaliqModifierDot" unicode="&#xee77;&#x331;" 
d="M337 -184q-13 36 15 71q27 36 68 36t54 -36q14 -35 -14 -71q-27 -35 -68 -35t-55 35zM592 657h-172q-130 0 -158 -141l-16 -82l-12 -59h127q213 0 176 -187q-38 -188 -251 -188h-213l54 270l33 164l16 82q38 188 253 188h172zM225 328l-12 -58l-45 -223h127
q127 0 156 141q28 140 -99 140h-127z" />
    <glyph glyph-name="UkaliqLetterOhhko_UkaliqModifierDot" unicode="&#xee78;&#x331;" 
d="M97 63h406l-12 -63h-407zM222 704q418 0 369 -243q-26 -133 -256 -133h-188l10 47h187q144 0 161 86q39 196 -292 196zM337 -184q-13 36 15 71q27 36 68 36t54 -36q14 -35 -14 -71q-27 -35 -68 -35t-55 35z" />
    <glyph glyph-name="UkaliqLetterAhka_UkaliqModifierDot" unicode="&#xee79;&#x331;" 
d="M222 704q418 0 361 -287l-30 -147l-16 -82q-38 -188 -268 -188h-187l9 47h187q144 0 173 141l16 82l12 58h-332l10 47h331l9 42q47 240 -284 240zM337 -184q-13 36 15 71q27 36 68 36t54 -36q14 -35 -14 -71q-27 -35 -68 -35t-55 35z" />
    <glyph glyph-name="UkaliqLetterAqa_UkaliqModifierDot" unicode="&#xee7a;&#x331;" 
d="M97 63h406l-12 -63h-407zM337 -184q-13 36 15 71q27 36 68 36t54 -36q14 -35 -14 -71q-27 -35 -68 -35t-55 35zM262 516q-28 -141 99 -141t144 86q39 196 -144 196q-71 0 -99 -141zM176 516q38 188 194 188q270 0 221 -243q-26 -133 -239 -133t-176 188z" />
    <glyph glyph-name="UkaliqLetterApa_UkaliqModifierDot" unicode="&#xee7b;&#x331;" 
d="M337 -184q-13 36 15 71q27 36 68 36t54 -36q14 -35 -14 -71q-27 -35 -68 -35t-55 35zM488 375l9 42q47 240 -136 240q-71 0 -99 -141t99 -141h127zM479 328h-127q-213 0 -176 188q38 188 194 188q270 0 213 -287l-30 -147l-16 -82q-38 -188 -262 -188h-180l9 47h181
q137 0 166 141l16 82z" />
    <glyph glyph-name="UkaliqLetterEtre_UkaliqModifierDot" unicode="&#xee7c;&#x331;" 
d="M252 704q388 0 339 -243q-26 -133 -239 -133h-127l-57 -281h319l-9 -47h-405l75 375h213q127 0 144 86q39 196 -262 196zM337 -184q-13 36 15 71q27 36 68 36t54 -36q14 -35 -14 -71q-27 -35 -68 -35t-55 35z" />
    <glyph glyph-name="UkaliqLetterUku_UkaliqModifierDot" unicode="&#xee7d;&#x331;" 
d="M252 704q388 0 331 -287l-30 -147l-16 -82q-38 -188 -251 -188h-213l38 188q37 187 250 187h127l9 42q47 240 -254 240zM337 -184q-13 36 15 71q27 36 68 36t54 -36q14 -35 -14 -71q-27 -35 -68 -35t-55 35zM479 328h-127q-127 0 -155 -140l-29 -141h127q127 0 156 141
l16 82z" />
    <glyph glyph-name="UkaliqLetterIci_UkaliqModifierDot" unicode="&#xee7e;&#x331;" 
d="M337 -184q-13 36 15 71q27 36 68 36t54 -36q14 -35 -14 -71q-27 -35 -68 -35t-55 35zM225 328l-12 -58l-45 -223h319l-9 -47h-405l54 270l33 164l16 82q38 188 194 188q270 0 221 -243q-26 -133 -239 -133h-127zM234 375h127q127 0 144 86q39 196 -144 196
q-71 0 -99 -141l-16 -82z" />
    <glyph glyph-name="UkaliqLetterOto_UkaliqModifierDot" unicode="&#xee7f;&#x331;" 
d="M337 -184q-13 36 15 71q27 36 68 36t54 -36q14 -35 -14 -71q-27 -35 -68 -35t-55 35zM488 375l9 42q47 240 -136 240q-71 0 -99 -141l-16 -82l-12 -59h254zM479 328h-254l-12 -58l-45 -223h127q127 0 156 141l16 82zM176 516q38 188 194 188q270 0 213 -287l-30 -147
l-16 -82q-38 -188 -251 -188h-213l54 270l33 164z" />
    <glyph glyph-name="UkaliqPatternBlank_UkaliqModifierDot" unicode="&#xf1d00;&#x331;" 
d="M337 -184q-13 36 15 71q27 36 68 36t54 -36q14 -35 -14 -71q-27 -35 -68 -35t-55 35z" />
    <glyph glyph-name="UkaliqPatternSegmentsC_UkaliqModifierDot" unicode="&#xf1d01;&#x331;" 
d="M574 375l-75 -375h-86l75 375h86zM353 -184q-13 36 14 71q28 36 69 36t54 -36q14 -35 -14 -71q-27 -35 -68 -35t-55 35z" />
    <glyph glyph-name="UkaliqPatternSegmentsF_UkaliqModifierDot" unicode="&#xf1d02;&#x331;" 
d="M300 704l-75 -376h-86l75 376h86zM337 -184q-13 36 15 71q27 36 68 36t54 -36q14 -35 -14 -71q-27 -35 -68 -35t-55 35z" />
    <glyph glyph-name="UkaliqPatternSegmentsCf_UkaliqModifierDot" unicode="&#xf1d03;&#x331;" 
d="M574 375l-75 -375h-86l75 375h86zM300 704l-75 -376h-86l75 376h86zM353 -184q-13 36 14 71q28 36 69 36t54 -36q14 -35 -14 -71q-27 -35 -68 -35t-55 35z" />
    <glyph glyph-name="UkaliqPatternSegmentsE_UkaliqModifierDot" unicode="&#xf1d04;&#x331;" 
d="M234 375l-75 -375h-86l75 375h86zM337 -184q-13 36 15 71q27 36 68 36t54 -36q14 -35 -14 -71q-27 -35 -68 -35t-55 35z" />
    <glyph glyph-name="UkaliqPatternSegmentsCe_UkaliqModifierDot" unicode="&#xf1d05;&#x331;" 
d="M574 375l-75 -375h-86l75 375h86zM234 375l-75 -375h-86l75 375h86zM353 -184q-13 36 14 71q28 36 69 36t54 -36q14 -35 -14 -71q-27 -35 -68 -35t-55 35z" />
    <glyph glyph-name="UkaliqPatternSegmentsEf_UkaliqModifierDot" unicode="&#xf1d06;&#x331;" 
d="M300 704l-141 -704h-86l141 704h86zM337 -184q-13 36 15 71q27 36 68 36t54 -36q14 -35 -14 -71q-27 -35 -68 -35t-55 35z" />
    <glyph glyph-name="UkaliqPatternSegmentsCef_UkaliqModifierDot" unicode="&#xf1d07;&#x331;" 
d="M300 704l-141 -704h-86l141 704h86zM574 375l-75 -375h-86l75 375h86zM353 -184q-13 36 14 71q28 36 69 36t54 -36q14 -35 -14 -71q-27 -35 -68 -35t-55 35z" />
    <glyph glyph-name="UkaliqPatternSegmentsB_UkaliqModifierDot" unicode="&#xf1d08;&#x331;" 
d="M640 704l-75 -376h-86l75 376h86zM337 -184q-13 36 15 71q27 36 68 36t54 -36q14 -35 -14 -71q-27 -35 -68 -35t-55 35z" />
    <glyph glyph-name="UkaliqPatternSegmentsBc_UkaliqModifierDot" unicode="&#xf1d09;&#x331;" 
d="M640 704l-141 -704h-86l141 704h86zM353 -184q-13 36 14 71q28 36 69 36t54 -36q14 -35 -14 -71q-27 -35 -68 -35t-55 35z" />
    <glyph glyph-name="UkaliqPatternSegmentsBf_UkaliqModifierDot" unicode="&#xf1d0a;&#x331;" 
d="M300 704l-75 -376h-86l75 376h86zM640 704l-75 -376h-86l75 376h86zM337 -184q-13 36 15 71q27 36 68 36t54 -36q14 -35 -14 -71q-27 -35 -68 -35t-55 35z" />
    <glyph glyph-name="UkaliqPatternSegmentsBcf_UkaliqModifierDot" unicode="&#xf1d0b;&#x331;" 
d="M640 704l-141 -704h-86l141 704h86zM300 704l-75 -376h-86l75 376h86zM353 -184q-13 36 14 71q28 36 69 36t54 -36q14 -35 -14 -71q-27 -35 -68 -35t-55 35z" />
    <glyph glyph-name="UkaliqPatternSegmentsBe_UkaliqModifierDot" unicode="&#xf1d0c;&#x331;" 
d="M640 704l-75 -376h-86l75 376h86zM234 375l-75 -375h-86l75 375h86zM337 -184q-13 36 15 71q27 36 68 36t54 -36q14 -35 -14 -71q-27 -35 -68 -35t-55 35z" />
    <glyph glyph-name="UkaliqPatternSegmentsBce_UkaliqModifierDot" unicode="&#xf1d0d;&#x331;" 
d="M640 704l-141 -704h-86l141 704h86zM234 375l-75 -375h-86l75 375h86zM353 -184q-13 36 14 71q28 36 69 36t54 -36q14 -35 -14 -71q-27 -35 -68 -35t-55 35z" />
    <glyph glyph-name="UkaliqPatternSegmentsBef_UkaliqModifierDot" unicode="&#xf1d0e;&#x331;" 
d="M300 704l-141 -704h-86l141 704h86zM640 704l-75 -376h-86l75 376h86zM337 -184q-13 36 15 71q27 36 68 36t54 -36q14 -35 -14 -71q-27 -35 -68 -35t-55 35z" />
    <glyph glyph-name="UkaliqPatternSegmentsBcef_UkaliqModifierDot" unicode="&#xf1d0f;&#x331;" 
d="M640 704l-141 -704h-86l141 704h86zM300 704l-141 -704h-86l141 704h86zM353 -184q-13 36 14 71q28 36 69 36t54 -36q14 -35 -14 -71q-27 -35 -68 -35t-55 35z" />
    <glyph glyph-name="UkaliqPatternSegmentsD_UkaliqModifierDot" unicode="&#xf1d10;&#x331;" 
d="M97 63h406l-12 -63h-407zM337 -184q-13 36 15 71q27 36 68 36t54 -36q14 -35 -14 -71q-27 -35 -68 -35t-55 35z" />
    <glyph glyph-name="UkaliqPatternSegmentsCd_UkaliqModifierDot" unicode="&#xf1d11;&#x331;" 
d="M337 -184q-13 36 15 71q27 36 68 36t54 -36q14 -35 -14 -71q-27 -35 -68 -35t-55 35zM574 375l-35 -176q-40 -199 -270 -199h-187l9 47h187q144 0 175 152l35 176h86z" />
    <glyph glyph-name="UkaliqPatternSegmentsDf_UkaliqModifierDot" unicode="&#xf1d12;&#x331;" 
d="M97 63h406l-12 -63h-407zM300 704l-75 -376h-86l75 376h86zM337 -184q-13 36 15 71q27 36 68 36t54 -36q14 -35 -14 -71q-27 -35 -68 -35t-55 35z" />
    <glyph glyph-name="UkaliqPatternSegmentsCdf_UkaliqModifierDot" unicode="&#xf1d13;&#x331;" 
d="M300 704l-75 -376h-86l75 376h86zM337 -184q-13 36 15 71q27 36 68 36t54 -36q14 -35 -14 -71q-27 -35 -68 -35t-55 35zM574 375l-35 -176q-40 -199 -270 -199h-187l9 47h187q144 0 175 152l35 176h86z" />
    <glyph glyph-name="UkaliqPatternSegmentsDe_UkaliqModifierDot" unicode="&#xf1d14;&#x331;" 
d="M234 375l-66 -328h332l-9 -47h-418l75 375h86zM337 -184q-13 36 15 71q27 36 68 36t54 -36q14 -35 -14 -71q-27 -35 -68 -35t-55 35z" />
    <glyph glyph-name="UkaliqPatternSegmentsCde_UkaliqModifierDot" unicode="&#xf1d15;&#x331;" 
d="M234 375l-66 -328h127q127 0 158 152l35 176h86l-35 -176q-40 -199 -253 -199h-213l75 375h86zM337 -184q-13 36 15 71q27 36 68 36t54 -36q14 -35 -14 -71q-27 -35 -68 -35t-55 35z" />
    <glyph glyph-name="UkaliqPatternSegmentsDef_UkaliqModifierDot" unicode="&#xf1d16;&#x331;" 
d="M300 704l-132 -657h332l-9 -47h-418l141 704h86zM337 -184q-13 36 15 71q27 36 68 36t54 -36q14 -35 -14 -71q-27 -35 -68 -35t-55 35z" />
    <glyph glyph-name="UkaliqPatternSegmentsCdef_UkaliqModifierDot" unicode="&#xf1d17;&#x331;" 
d="M300 704l-132 -657h127q127 0 158 152l35 176h86l-35 -176q-40 -199 -253 -199h-213l141 704h86zM337 -184q-13 36 15 71q27 36 68 36t54 -36q14 -35 -14 -71q-27 -35 -68 -35t-55 35z" />
    <glyph glyph-name="UkaliqPatternSegmentsBd_UkaliqModifierDot" unicode="&#xf1d18;&#x331;" 
d="M97 63h406l-12 -63h-407zM640 704l-75 -376h-86l75 376h86zM337 -184q-13 36 15 71q27 36 68 36t54 -36q14 -35 -14 -71q-27 -35 -68 -35t-55 35z" />
    <glyph glyph-name="UkaliqPatternSegmentsBcd_UkaliqModifierDot" unicode="&#xf1d19;&#x331;" 
d="M640 704l-68 -341q-73 -363 -303 -363h-187l9 47h187q144 0 208 316l68 341h86zM337 -184q-13 36 15 71q27 36 68 36t54 -36q14 -35 -14 -71q-27 -35 -68 -35t-55 35z" />
    <glyph glyph-name="UkaliqPatternSegmentsBdf_UkaliqModifierDot" unicode="&#xf1d1a;&#x331;" 
d="M97 63h406l-12 -63h-407zM300 704l-75 -376h-86l75 376h86zM640 704l-75 -376h-86l75 376h86zM337 -184q-13 36 15 71q27 36 68 36t54 -36q14 -35 -14 -71q-27 -35 -68 -35t-55 35z" />
    <glyph glyph-name="UkaliqPatternSegmentsBcdf_UkaliqModifierDot" unicode="&#xf1d1b;&#x331;" 
d="M300 704l-75 -376h-86l75 376h86zM640 704l-68 -341q-73 -363 -303 -363h-187l9 47h187q144 0 208 316l68 341h86zM337 -184q-13 36 15 71q27 36 68 36t54 -36q14 -35 -14 -71q-27 -35 -68 -35t-55 35z" />
    <glyph glyph-name="UkaliqPatternSegmentsBde_UkaliqModifierDot" unicode="&#xf1d1c;&#x331;" 
d="M234 375l-66 -328h332l-9 -47h-418l75 375h86zM640 704l-75 -376h-86l75 376h86zM337 -184q-13 36 15 71q27 36 68 36t54 -36q14 -35 -14 -71q-27 -35 -68 -35t-55 35z" />
    <glyph glyph-name="UkaliqPatternSegmentsBcde_UkaliqModifierDot" unicode="&#xf1d1d;&#x331;" 
d="M640 704l-68 -341q-73 -363 -286 -363h-213l75 375h86l-66 -328h127q127 0 191 316l68 341h86zM337 -184q-13 36 15 71q27 36 68 36t54 -36q14 -35 -14 -71q-27 -35 -68 -35t-55 35z" />
    <glyph glyph-name="UkaliqPatternSegmentsBdef_UkaliqModifierDot" unicode="&#xf1d1e;&#x331;" 
d="M300 704l-132 -657h332l-9 -47h-418l141 704h86zM640 704l-75 -376h-86l75 376h86zM337 -184q-13 36 15 71q27 36 68 36t54 -36q14 -35 -14 -71q-27 -35 -68 -35t-55 35z" />
    <glyph glyph-name="UkaliqPatternSegmentsBcdef_UkaliqModifierDot" unicode="&#xf1d1f;&#x331;" 
d="M300 704l-132 -657h127q127 0 191 316l68 341h86l-68 -341q-73 -363 -286 -363h-213l141 704h86zM337 -184q-13 36 15 71q27 36 68 36t54 -36q14 -35 -14 -71q-27 -35 -68 -35t-55 35z" />
    <glyph glyph-name="UkaliqPatternSegmentsA_UkaliqModifierDot" unicode="&#xf1d20;&#x331;" 
d="M337 -184q-13 36 15 71q27 36 68 36t54 -36q14 -35 -14 -71q-27 -35 -68 -35t-55 35zM225 704h407l-13 -63h-406z" />
    <glyph glyph-name="UkaliqPatternSegmentsAc_UkaliqModifierDot" unicode="&#xf1d21;&#x331;" 
d="M574 375l-75 -375h-86l75 375h86zM353 -184q-13 36 14 71q28 36 69 36t54 -36q14 -35 -14 -71q-27 -35 -68 -35t-55 35zM225 704h407l-13 -63h-406z" />
    <glyph glyph-name="UkaliqPatternSegmentsAf_UkaliqModifierDot" unicode="&#xf1d22;&#x331;" 
d="M622 657h-187q-145 0 -175 -153l-35 -176h-86l35 176q40 200 270 200h187zM337 -184q-13 36 15 71q27 36 68 36t54 -36q14 -35 -14 -71q-27 -35 -68 -35t-55 35z" />
    <glyph glyph-name="UkaliqPatternSegmentsAcf_UkaliqModifierDot" unicode="&#xf1d23;&#x331;" 
d="M574 375l-75 -375h-86l75 375h86zM622 657h-187q-145 0 -175 -153l-35 -176h-86l35 176q40 200 270 200h187zM353 -184q-13 36 14 71q28 36 69 36t54 -36q14 -35 -14 -71q-27 -35 -68 -35t-55 35z" />
    <glyph glyph-name="UkaliqPatternSegmentsAe_UkaliqModifierDot" unicode="&#xf1d24;&#x331;" 
d="M234 375l-75 -375h-86l75 375h86zM337 -184q-13 36 15 71q27 36 68 36t54 -36q14 -35 -14 -71q-27 -35 -68 -35t-55 35zM225 704h407l-13 -63h-406z" />
    <glyph glyph-name="UkaliqPatternSegmentsAce_UkaliqModifierDot" unicode="&#xf1d25;&#x331;" 
d="M574 375l-75 -375h-86l75 375h86zM234 375l-75 -375h-86l75 375h86zM353 -184q-13 36 14 71q28 36 69 36t54 -36q14 -35 -14 -71q-27 -35 -68 -35t-55 35zM225 704h407l-13 -63h-406z" />
    <glyph glyph-name="UkaliqPatternSegmentsAef_UkaliqModifierDot" unicode="&#xf1d26;&#x331;" 
d="M622 657h-187q-145 0 -208 -317l-68 -340h-86l68 340q73 364 303 364h187zM337 -184q-13 36 15 71q27 36 68 36t54 -36q14 -35 -14 -71q-27 -35 -68 -35t-55 35z" />
    <glyph glyph-name="UkaliqPatternSegmentsAcef_UkaliqModifierDot" unicode="&#xf1d27;&#x331;" 
d="M622 657h-187q-145 0 -208 -317l-68 -340h-86l68 340q73 364 303 364h187zM574 375l-75 -375h-86l75 375h86zM353 -184q-13 36 14 71q28 36 69 36t54 -36q14 -35 -14 -71q-27 -35 -68 -35t-55 35z" />
    <glyph glyph-name="UkaliqPatternSegmentsAb_UkaliqModifierDot" unicode="&#xf1d28;&#x331;" 
d="M222 704q418 0 343 -376h-86q65 329 -266 329zM337 -184q-13 36 15 71q27 36 68 36t54 -36q14 -35 -14 -71q-27 -35 -68 -35t-55 35z" />
    <glyph glyph-name="UkaliqPatternSegmentsAbc_UkaliqModifierDot" unicode="&#xf1d29;&#x331;" 
d="M222 704q418 0 277 -704h-86q131 657 -200 657zM353 -184q-13 36 14 71q28 36 69 36t54 -36q14 -35 -14 -71q-27 -35 -68 -35t-55 35z" />
    <glyph glyph-name="UkaliqPatternSegmentsAbf_UkaliqModifierDot" unicode="&#xf1d2a;&#x331;" 
d="M139 328l35 176q40 200 196 200q270 0 195 -376h-86q65 329 -118 329q-71 0 -101 -153l-35 -176h-86zM337 -184q-13 36 15 71q27 36 68 36t54 -36q14 -35 -14 -71q-27 -35 -68 -35t-55 35z" />
    <glyph glyph-name="UkaliqPatternSegmentsAbcf_UkaliqModifierDot" unicode="&#xf1d2b;&#x331;" 
d="M139 328l35 176q40 200 196 200q270 0 129 -704h-86q131 657 -52 657q-71 0 -101 -153l-35 -176h-86zM353 -184q-13 36 14 71q28 36 69 36t54 -36q14 -35 -14 -71q-27 -35 -68 -35t-55 35z" />
    <glyph glyph-name="UkaliqPatternSegmentsAbe_UkaliqModifierDot" unicode="&#xf1d2c;&#x331;" 
d="M222 704q418 0 343 -376h-86q65 329 -266 329zM234 375l-75 -375h-86l75 375h86zM337 -184q-13 36 15 71q27 36 68 36t54 -36q14 -35 -14 -71q-27 -35 -68 -35t-55 35z" />
    <glyph glyph-name="UkaliqPatternSegmentsAbce_UkaliqModifierDot" unicode="&#xf1d2d;&#x331;" 
d="M222 704q418 0 277 -704h-86q131 657 -200 657zM234 375l-75 -375h-86l75 375h86zM353 -184q-13 36 14 71q28 36 69 36t54 -36q14 -35 -14 -71q-27 -35 -68 -35t-55 35z" />
    <glyph glyph-name="UkaliqPatternSegmentsAbef_UkaliqModifierDot" unicode="&#xf1d2e;&#x331;" 
d="M479 328q65 329 -118 329q-71 0 -134 -317l-68 -340h-86l68 340q73 364 229 364q270 0 195 -376h-86zM337 -184q-13 36 15 71q27 36 68 36t54 -36q14 -35 -14 -71q-27 -35 -68 -35t-55 35z" />
    <glyph glyph-name="UkaliqPatternSegmentsAbcef_UkaliqModifierDot" unicode="&#xf1d2f;&#x331;" 
d="M73 0l68 340q73 364 229 364q270 0 129 -704h-86q131 657 -52 657q-71 0 -134 -317l-68 -340h-86zM353 -184q-13 36 14 71q28 36 69 36t54 -36q14 -35 -14 -71q-27 -35 -68 -35t-55 35z" />
    <glyph glyph-name="UkaliqPatternSegmentsAd_UkaliqModifierDot" unicode="&#xf1d30;&#x331;" 
d="M97 63h406l-12 -63h-407zM337 -184q-13 36 15 71q27 36 68 36t54 -36q14 -35 -14 -71q-27 -35 -68 -35t-55 35zM225 704h407l-13 -63h-406z" />
    <glyph glyph-name="UkaliqPatternSegmentsAcd_UkaliqModifierDot" unicode="&#xf1d31;&#x331;" 
d="M337 -184q-13 36 15 71q27 36 68 36t54 -36q14 -35 -14 -71q-27 -35 -68 -35t-55 35zM574 375l-35 -176q-40 -199 -270 -199h-187l9 47h187q144 0 175 152l35 176h86zM225 704h407l-13 -63h-406z" />
    <glyph glyph-name="UkaliqPatternSegmentsAdf_UkaliqModifierDot" unicode="&#xf1d32;&#x331;" 
d="M97 63h406l-12 -63h-407zM622 657h-187q-145 0 -175 -153l-35 -176h-86l35 176q40 200 270 200h187zM337 -184q-13 36 15 71q27 36 68 36t54 -36q14 -35 -14 -71q-27 -35 -68 -35t-55 35z" />
    <glyph glyph-name="UkaliqPatternSegmentsAcdf_UkaliqModifierDot" unicode="&#xf1d33;&#x331;" 
d="M622 657h-187q-145 0 -175 -153l-35 -176h-86l35 176q40 200 270 200h187zM337 -184q-13 36 15 71q27 36 68 36t54 -36q14 -35 -14 -71q-27 -35 -68 -35t-55 35zM574 375l-35 -176q-40 -199 -270 -199h-187l9 47h187q144 0 175 152l35 176h86z" />
    <glyph glyph-name="UkaliqPatternSegmentsAde_UkaliqModifierDot" unicode="&#xf1d34;&#x331;" 
d="M234 375l-66 -328h332l-9 -47h-418l75 375h86zM337 -184q-13 36 15 71q27 36 68 36t54 -36q14 -35 -14 -71q-27 -35 -68 -35t-55 35zM225 704h407l-13 -63h-406z" />
    <glyph glyph-name="UkaliqPatternSegmentsAcde_UkaliqModifierDot" unicode="&#xf1d35;&#x331;" 
d="M234 375l-66 -328h127q127 0 158 152l35 176h86l-35 -176q-40 -199 -253 -199h-213l75 375h86zM337 -184q-13 36 15 71q27 36 68 36t54 -36q14 -35 -14 -71q-27 -35 -68 -35t-55 35zM225 704h407l-13 -63h-406z" />
    <glyph glyph-name="UkaliqPatternSegmentsAdef_UkaliqModifierDot" unicode="&#xf1d36;&#x331;" 
d="M622 657h-187q-145 0 -206 -305l-61 -305h332l-9 -47h-418l70 352q71 352 301 352h187zM337 -184q-13 36 15 71q27 36 68 36t54 -36q14 -35 -14 -71q-27 -35 -68 -35t-55 35z" />
    <glyph glyph-name="UkaliqPatternSegmentsAcdef_UkaliqModifierDot" unicode="&#xf1d37;&#x331;" 
d="M622 657h-187q-145 0 -206 -305l-61 -305h127q127 0 158 152l35 176h86l-35 -176q-40 -199 -253 -199h-213l70 352q71 352 301 352h187zM337 -184q-13 36 15 71q27 36 68 36t54 -36q14 -35 -14 -71q-27 -35 -68 -35t-55 35z" />
    <glyph glyph-name="UkaliqPatternSegmentsAbd_UkaliqModifierDot" unicode="&#xf1d38;&#x331;" 
d="M97 63h406l-12 -63h-407zM222 704q418 0 343 -376h-86q65 329 -266 329zM337 -184q-13 36 15 71q27 36 68 36t54 -36q14 -35 -14 -71q-27 -35 -68 -35t-55 35z" />
    <glyph glyph-name="UkaliqPatternSegmentsAbcd_UkaliqModifierDot" unicode="&#xf1d39;&#x331;" 
d="M222 704q418 0 326 -462q-49 -242 -279 -242h-187l9 47h187q144 0 184 195q82 415 -249 415zM337 -184q-13 36 15 71q27 36 68 36t54 -36q14 -35 -14 -71q-27 -35 -68 -35t-55 35z" />
    <glyph glyph-name="UkaliqPatternSegmentsAbdf_UkaliqModifierDot" unicode="&#xf1d3a;&#x331;" 
d="M97 63h406l-12 -63h-407zM139 328l35 176q40 200 196 200q270 0 195 -376h-86q65 329 -118 329q-71 0 -101 -153l-35 -176h-86zM337 -184q-13 36 15 71q27 36 68 36t54 -36q14 -35 -14 -71q-27 -35 -68 -35t-55 35z" />
    <glyph glyph-name="UkaliqPatternSegmentsAbcdf_UkaliqModifierDot" unicode="&#xf1d3b;&#x331;" 
d="M139 328l35 176q40 200 196 200q270 0 178 -462q-49 -242 -279 -242h-187l9 47h187q144 0 184 195q82 415 -101 415q-71 0 -101 -153l-35 -176h-86zM337 -184q-13 36 15 71q27 36 68 36t54 -36q14 -35 -14 -71q-27 -35 -68 -35t-55 35z" />
    <glyph glyph-name="UkaliqPatternSegmentsAbde_UkaliqModifierDot" unicode="&#xf1d3c;&#x331;" 
d="M222 704q418 0 343 -376h-86q65 329 -266 329zM234 375l-66 -328h332l-9 -47h-418l75 375h86zM337 -184q-13 36 15 71q27 36 68 36t54 -36q14 -35 -14 -71q-27 -35 -68 -35t-55 35z" />
    <glyph glyph-name="UkaliqPatternSegmentsAbcde_UkaliqModifierDot" unicode="&#xf1d3d;&#x331;" 
d="M222 704q418 0 326 -462q-49 -242 -262 -242h-213l75 375h86l-66 -328h127q127 0 167 195q82 415 -249 415zM337 -184q-13 36 15 71q27 36 68 36t54 -36q14 -35 -14 -71q-27 -35 -68 -35t-55 35z" />
    <glyph glyph-name="UkaliqPatternSegmentsAbdef_UkaliqModifierDot" unicode="&#xf1d3e;&#x331;" 
d="M479 328q65 329 -118 329q-71 0 -132 -305l-61 -305h332l-9 -47h-418l70 352q71 352 227 352q270 0 195 -376h-86zM337 -184q-13 36 15 71q27 36 68 36t54 -36q14 -35 -14 -71q-27 -35 -68 -35t-55 35z" />
    <glyph glyph-name="UkaliqPatternSegmentsAbcdef_UkaliqModifierDot" unicode="&#xf1d3f;&#x331;" 
d="M337 -184q-13 36 15 71q27 36 68 36t54 -36q14 -35 -14 -71q-27 -35 -68 -35t-55 35zM229 352l-61 -305h127q127 0 167 195q82 415 -101 415q-71 0 -132 -305zM143 352q71 352 227 352q270 0 178 -462q-49 -242 -262 -242h-213z" />
    <glyph glyph-name="UkaliqPatternSegmentsG_UkaliqModifierDot" unicode="&#xf1d40;&#x331;" 
d="M161 383h406l-12 -63h-406zM337 -184q-13 36 15 71q27 36 68 36t54 -36q14 -35 -14 -71q-27 -35 -68 -35t-55 35z" />
    <glyph glyph-name="UkaliqPatternSegmentsCg_UkaliqModifierDot" unicode="&#xf1d41;&#x331;" 
d="M157 375h187q230 0 190 -199l-35 -176h-86l35 176q31 152 -113 152h-188zM353 -184q-13 36 14 71q28 36 69 36t54 -36q14 -35 -14 -71q-27 -35 -68 -35t-55 35z" />
    <glyph glyph-name="UkaliqPatternSegmentsFg_UkaliqModifierDot" unicode="&#xf1d42;&#x331;" 
d="M300 704l-35 -176q-31 -153 113 -153h188l-10 -47h-187q-230 0 -190 200l35 176h86zM337 -184q-13 36 15 71q27 36 68 36t54 -36q14 -35 -14 -71q-27 -35 -68 -35t-55 35z" />
    <glyph glyph-name="UkaliqPatternSegmentsCfg_UkaliqModifierDot" unicode="&#xf1d43;&#x331;" 
d="M353 -184q-13 36 14 71q28 36 69 36t54 -36q14 -35 -14 -71q-27 -35 -68 -35t-55 35zM300 704l-35 -176q-31 -153 96 -153h213l-75 -375h-86l66 328h-127q-213 0 -173 200l35 176h86z" />
    <glyph glyph-name="UkaliqPatternSegmentsEg_UkaliqModifierDot" unicode="&#xf1d44;&#x331;" 
d="M556 328h-187q-144 0 -175 -152l-35 -176h-86l35 176q40 199 270 199h188zM337 -184q-13 36 15 71q27 36 68 36t54 -36q14 -35 -14 -71q-27 -35 -68 -35t-55 35z" />
    <glyph glyph-name="UkaliqPatternSegmentsCeg_UkaliqModifierDot" unicode="&#xf1d45;&#x331;" 
d="M73 0l35 176q40 199 253 199t173 -199l-35 -176h-86l35 176q31 152 -96 152t-158 -152l-35 -176h-86zM353 -184q-13 36 14 71q28 36 69 36t54 -36q14 -35 -14 -71q-27 -35 -68 -35t-55 35z" />
    <glyph glyph-name="UkaliqPatternSegmentsEfg_UkaliqModifierDot" unicode="&#xf1d46;&#x331;" 
d="M337 -184q-13 36 15 71q27 36 68 36t54 -36q14 -35 -14 -71q-27 -35 -68 -35t-55 35zM300 704l-53 -264l-13 -65h332l-10 -47h-331l-13 -64l-53 -264h-86l53 264l35 176l53 264h86z" />
    <glyph glyph-name="UkaliqPatternSegmentsCefg_UkaliqModifierDot" unicode="&#xf1d47;&#x331;" 
d="M353 -184q-13 36 14 71q28 36 69 36t54 -36q14 -35 -14 -71q-27 -35 -68 -35t-55 35zM300 704l-53 -264l-13 -65h127q213 0 173 -199l-35 -176h-86l35 176q31 152 -96 152h-127l-13 -64l-53 -264h-86l53 264l35 176l53 264h86z" />
    <glyph glyph-name="UkaliqPatternSegmentsBg_UkaliqModifierDot" unicode="&#xf1d48;&#x331;" 
d="M640 704l-35 -176q-40 -200 -270 -200h-188l10 47h187q144 0 175 153l35 176h86zM337 -184q-13 36 15 71q27 36 68 36t54 -36q14 -35 -14 -71q-27 -35 -68 -35t-55 35z" />
    <glyph glyph-name="UkaliqPatternSegmentsBcg_UkaliqModifierDot" unicode="&#xf1d49;&#x331;" 
d="M640 704l-53 -264l-35 -176l-53 -264h-86l53 264l13 64h-332l10 47h331l13 65l53 264h86zM353 -184q-13 36 14 71q28 36 69 36t54 -36q14 -35 -14 -71q-27 -35 -68 -35t-55 35z" />
    <glyph glyph-name="UkaliqPatternSegmentsBfg_UkaliqModifierDot" unicode="&#xf1d4a;&#x331;" 
d="M300 704l-35 -176q-31 -153 96 -153t158 153l35 176h86l-35 -176q-40 -200 -253 -200t-173 200l35 176h86zM337 -184q-13 36 15 71q27 36 68 36t54 -36q14 -35 -14 -71q-27 -35 -68 -35t-55 35z" />
    <glyph glyph-name="UkaliqPatternSegmentsBcfg_UkaliqModifierDot" unicode="&#xf1d4b;&#x331;" 
d="M353 -184q-13 36 14 71q28 36 69 36t54 -36q14 -35 -14 -71q-27 -35 -68 -35t-55 35zM300 704l-35 -176q-31 -153 96 -153h127l13 65l53 264h86l-53 -264l-35 -176l-53 -264h-86l53 264l13 64h-127q-213 0 -173 200l35 176h86z" />
    <glyph glyph-name="UkaliqPatternSegmentsBeg_UkaliqModifierDot" unicode="&#xf1d4c;&#x331;" 
d="M640 704l-35 -176q-40 -200 -253 -200h-127l-66 -328h-86l75 375h213q127 0 158 153l35 176h86zM337 -184q-13 36 15 71q27 36 68 36t54 -36q14 -35 -14 -71q-27 -35 -68 -35t-55 35z" />
    <glyph glyph-name="UkaliqPatternSegmentsBceg_UkaliqModifierDot" unicode="&#xf1d4d;&#x331;" 
d="M640 704l-53 -264l-35 -176l-53 -264h-86l53 264l13 64h-127q-127 0 -158 -152l-35 -176h-86l35 176q40 199 253 199h127l13 65l53 264h86zM353 -184q-13 36 14 71q28 36 69 36t54 -36q14 -35 -14 -71q-27 -35 -68 -35t-55 35z" />
    <glyph glyph-name="UkaliqPatternSegmentsBefg_UkaliqModifierDot" unicode="&#xf1d4e;&#x331;" 
d="M337 -184q-13 36 15 71q27 36 68 36t54 -36q14 -35 -14 -71q-27 -35 -68 -35t-55 35zM640 704l-35 -176q-40 -200 -253 -200h-127l-13 -64l-53 -264h-86l53 264l35 176l53 264h86l-53 -264l-13 -65h127q127 0 158 153l35 176h86z" />
    <glyph glyph-name="UkaliqPatternSegmentsBcefg_UkaliqModifierDot" unicode="&#xf1d4f;&#x331;" 
d="M353 -184q-13 36 14 71q28 36 69 36t54 -36q14 -35 -14 -71q-27 -35 -68 -35t-55 35zM640 704l-53 -264l-35 -176l-53 -264h-86l53 264l13 64h-254l-13 -64l-53 -264h-86l53 264l35 176l53 264h86l-53 -264l-13 -65h254l13 65l53 264h86z" />
    <glyph glyph-name="UkaliqPatternSegmentsDg_UkaliqModifierDot" unicode="&#xf1d50;&#x331;" 
d="M97 63h406l-12 -63h-407zM161 383h406l-12 -63h-406zM337 -184q-13 36 15 71q27 36 68 36t54 -36q14 -35 -14 -71q-27 -35 -68 -35t-55 35z" />
    <glyph glyph-name="UkaliqPatternSegmentsCdg_UkaliqModifierDot" unicode="&#xf1d51;&#x331;" 
d="M157 375h187q230 0 193 -187q-38 -188 -268 -188h-187l9 47h187q144 0 173 141q28 140 -116 140h-188zM337 -184q-13 36 15 71q27 36 68 36t54 -36q14 -35 -14 -71q-27 -35 -68 -35t-55 35z" />
    <glyph glyph-name="UkaliqPatternSegmentsDfg_UkaliqModifierDot" unicode="&#xf1d52;&#x331;" 
d="M300 704l-35 -176q-31 -153 113 -153h188l-10 -47h-187q-230 0 -190 200l35 176h86zM97 63h406l-12 -63h-407zM337 -184q-13 36 15 71q27 36 68 36t54 -36q14 -35 -14 -71q-27 -35 -68 -35t-55 35z" />
    <glyph glyph-name="UkaliqPatternSegmentsCdfg_UkaliqModifierDot" unicode="&#xf1d53;&#x331;" 
d="M337 -184q-13 36 15 71q27 36 68 36t54 -36q14 -35 -14 -71q-27 -35 -68 -35t-55 35zM300 704l-35 -176q-31 -153 96 -153h213l-37 -187q-38 -188 -268 -188h-187l9 47h187q144 0 173 141l28 140h-127q-213 0 -173 200l35 176h86z" />
    <glyph glyph-name="UkaliqPatternSegmentsDeg_UkaliqModifierDot" unicode="&#xf1d54;&#x331;" 
d="M556 328h-187q-144 0 -172 -140l-29 -141h332l-9 -47h-418l38 188q37 187 267 187h188zM337 -184q-13 36 15 71q27 36 68 36t54 -36q14 -35 -14 -71q-27 -35 -68 -35t-55 35z" />
    <glyph glyph-name="UkaliqPatternSegmentsCdeg_UkaliqModifierDot" unicode="&#xf1d55;&#x331;" 
d="M337 -184q-13 36 15 71q27 36 68 36t54 -36q14 -35 -14 -71q-27 -35 -68 -35t-55 35zM197 188l-29 -141h127q127 0 156 141q28 140 -99 140t-155 -140zM111 188q37 187 250 187t176 -187q-38 -188 -251 -188h-213z" />
    <glyph glyph-name="UkaliqPatternSegmentsDefg_UkaliqModifierDot" unicode="&#xf1d56;&#x331;" 
d="M337 -184q-13 36 15 71q27 36 68 36t54 -36q14 -35 -14 -71q-27 -35 -68 -35t-55 35zM300 704l-53 -264l-13 -65h332l-10 -47h-331l-12 -58l-45 -223h332l-9 -47h-418l54 270l34 170l53 264h86z" />
    <glyph glyph-name="UkaliqPatternSegmentsCdefg_UkaliqModifierDot" unicode="&#xf1d57;&#x331;" 
d="M337 -184q-13 36 15 71q27 36 68 36t54 -36q14 -35 -14 -71q-27 -35 -68 -35t-55 35zM300 704l-53 -264l-13 -65h127q213 0 176 -187q-38 -188 -251 -188h-213l54 270l34 170l53 264h86zM225 328l-12 -58l-45 -223h127q127 0 156 141q28 140 -99 140h-127z" />
    <glyph glyph-name="UkaliqPatternSegmentsBdg_UkaliqModifierDot" unicode="&#xf1d58;&#x331;" 
d="M97 63h406l-12 -63h-407zM640 704l-35 -176q-40 -200 -270 -200h-188l10 47h187q144 0 175 153l35 176h86zM337 -184q-13 36 15 71q27 36 68 36t54 -36q14 -35 -14 -71q-27 -35 -68 -35t-55 35z" />
    <glyph glyph-name="UkaliqPatternSegmentsBcdg_UkaliqModifierDot" unicode="&#xf1d59;&#x331;" 
d="M640 704l-53 -264l-34 -170l-16 -82q-38 -188 -268 -188h-187l9 47h187q144 0 173 141l16 82l12 58h-332l10 47h331l13 65l53 264h86zM337 -184q-13 36 15 71q27 36 68 36t54 -36q14 -35 -14 -71q-27 -35 -68 -35t-55 35z" />
    <glyph glyph-name="UkaliqPatternSegmentsBdfg_UkaliqModifierDot" unicode="&#xf1d5a;&#x331;" 
d="M300 704l-35 -176q-31 -153 96 -153t158 153l35 176h86l-35 -176q-40 -200 -253 -200t-173 200l35 176h86zM97 63h406l-12 -63h-407zM337 -184q-13 36 15 71q27 36 68 36t54 -36q14 -35 -14 -71q-27 -35 -68 -35t-55 35z" />
    <glyph glyph-name="UkaliqPatternSegmentsBcdfg_UkaliqModifierDot" unicode="&#xf1d5b;&#x331;" 
d="M337 -184q-13 36 15 71q27 36 68 36t54 -36q14 -35 -14 -71q-27 -35 -68 -35t-55 35zM300 704l-35 -176q-31 -153 96 -153h127l13 65l53 264h86l-53 -264l-34 -170l-16 -82q-38 -188 -268 -188h-187l9 47h187q144 0 173 141l16 82l12 58h-127q-213 0 -173 200l35 176h86z
" />
    <glyph glyph-name="UkaliqPatternSegmentsBdeg_UkaliqModifierDot" unicode="&#xf1d5c;&#x331;" 
d="M640 704l-35 -176q-40 -200 -253 -200h-127l-57 -281h332l-9 -47h-418l75 375h213q127 0 158 153l35 176h86zM337 -184q-13 36 15 71q27 36 68 36t54 -36q14 -35 -14 -71q-27 -35 -68 -35t-55 35z" />
    <glyph glyph-name="UkaliqPatternSegmentsBcdeg_UkaliqModifierDot" unicode="&#xf1d5d;&#x331;" 
d="M640 704l-53 -264l-34 -170l-16 -82q-38 -188 -251 -188h-213l38 188q37 187 250 187h127l13 65l53 264h86zM337 -184q-13 36 15 71q27 36 68 36t54 -36q14 -35 -14 -71q-27 -35 -68 -35t-55 35zM479 328h-127q-127 0 -155 -140l-29 -141h127q127 0 156 141l16 82z" />
    <glyph glyph-name="UkaliqPatternSegmentsBdefg_UkaliqModifierDot" unicode="&#xf1d5e;&#x331;" 
d="M337 -184q-13 36 15 71q27 36 68 36t54 -36q14 -35 -14 -71q-27 -35 -68 -35t-55 35zM640 704l-35 -176q-40 -200 -253 -200h-127l-12 -58l-45 -223h332l-9 -47h-418l54 270l34 170l53 264h86l-53 -264l-13 -65h127q127 0 158 153l35 176h86z" />
    <glyph glyph-name="UkaliqPatternSegmentsBcdefg_UkaliqModifierDot" unicode="&#xf1d5f;&#x331;" 
d="M337 -184q-13 36 15 71q27 36 68 36t54 -36q14 -35 -14 -71q-27 -35 -68 -35t-55 35zM300 704l-53 -264l-13 -65h254l13 65l53 264h86l-53 -264l-34 -170l-16 -82q-38 -188 -251 -188h-213l54 270l34 170l53 264h86zM479 328h-254l-12 -58l-45 -223h127q127 0 156 141
l16 82z" />
    <glyph glyph-name="UkaliqPatternSegmentsAg_UkaliqModifierDot" unicode="&#xf1d60;&#x331;" 
d="M161 383h406l-12 -63h-406zM337 -184q-13 36 15 71q27 36 68 36t54 -36q14 -35 -14 -71q-27 -35 -68 -35t-55 35zM225 704h407l-13 -63h-406z" />
    <glyph glyph-name="UkaliqPatternSegmentsAcg_UkaliqModifierDot" unicode="&#xf1d61;&#x331;" 
d="M157 375h187q230 0 190 -199l-35 -176h-86l35 176q31 152 -113 152h-188zM353 -184q-13 36 14 71q28 36 69 36t54 -36q14 -35 -14 -71q-27 -35 -68 -35t-55 35zM225 704h407l-13 -63h-406z" />
    <glyph glyph-name="UkaliqPatternSegmentsAfg_UkaliqModifierDot" unicode="&#xf1d62;&#x331;" 
d="M622 657h-187q-145 0 -173 -141t116 -141h188l-10 -47h-187q-230 0 -193 188q38 188 268 188h187zM337 -184q-13 36 15 71q27 36 68 36t54 -36q14 -35 -14 -71q-27 -35 -68 -35t-55 35z" />
    <glyph glyph-name="UkaliqPatternSegmentsAcfg_UkaliqModifierDot" unicode="&#xf1d63;&#x331;" 
d="M353 -184q-13 36 14 71q28 36 69 36t54 -36q14 -35 -14 -71q-27 -35 -68 -35t-55 35zM622 657h-187q-145 0 -173 -141t99 -141h213l-75 -375h-86l66 328h-127q-213 0 -176 188q38 188 268 188h187z" />
    <glyph glyph-name="UkaliqPatternSegmentsAeg_UkaliqModifierDot" unicode="&#xf1d64;&#x331;" 
d="M556 328h-187q-144 0 -175 -152l-35 -176h-86l35 176q40 199 270 199h188zM337 -184q-13 36 15 71q27 36 68 36t54 -36q14 -35 -14 -71q-27 -35 -68 -35t-55 35zM225 704h407l-13 -63h-406z" />
    <glyph glyph-name="UkaliqPatternSegmentsAceg_UkaliqModifierDot" unicode="&#xf1d65;&#x331;" 
d="M73 0l35 176q40 199 253 199t173 -199l-35 -176h-86l35 176q31 152 -96 152t-158 -152l-35 -176h-86zM353 -184q-13 36 14 71q28 36 69 36t54 -36q14 -35 -14 -71q-27 -35 -68 -35t-55 35zM225 704h407l-13 -63h-406z" />
    <glyph glyph-name="UkaliqPatternSegmentsAefg_UkaliqModifierDot" unicode="&#xf1d66;&#x331;" 
d="M337 -184q-13 36 15 71q27 36 68 36t54 -36q14 -35 -14 -71q-27 -35 -68 -35t-55 35zM622 657h-187q-145 0 -173 -141l-16 -82l-12 -59h332l-10 -47h-331l-13 -64l-53 -264h-86l53 264l34 170l16 82q38 188 268 188h187z" />
    <glyph glyph-name="UkaliqPatternSegmentsAcefg_UkaliqModifierDot" unicode="&#xf1d67;&#x331;" 
d="M353 -184q-13 36 14 71q28 36 69 36t54 -36q14 -35 -14 -71q-27 -35 -68 -35t-55 35zM622 657h-187q-145 0 -173 -141l-16 -82l-12 -59h127q213 0 173 -199l-35 -176h-86l35 176q31 152 -96 152h-127l-13 -64l-53 -264h-86l53 264l34 170l16 82q38 188 268 188h187z" />
    <glyph glyph-name="UkaliqPatternSegmentsAbg_UkaliqModifierDot" unicode="&#xf1d68;&#x331;" 
d="M222 704q418 0 369 -243q-26 -133 -256 -133h-188l10 47h187q144 0 161 86q39 196 -292 196zM337 -184q-13 36 15 71q27 36 68 36t54 -36q14 -35 -14 -71q-27 -35 -68 -35t-55 35z" />
    <glyph glyph-name="UkaliqPatternSegmentsAbcg_UkaliqModifierDot" unicode="&#xf1d69;&#x331;" 
d="M222 704q418 0 361 -287l-31 -153l-53 -264h-86l53 264l13 64h-332l10 47h331l9 42q47 240 -284 240zM353 -184q-13 36 14 71q28 36 69 36t54 -36q14 -35 -14 -71q-27 -35 -68 -35t-55 35z" />
    <glyph glyph-name="UkaliqPatternSegmentsAbfg_UkaliqModifierDot" unicode="&#xf1d6a;&#x331;" 
d="M337 -184q-13 36 15 71q27 36 68 36t54 -36q14 -35 -14 -71q-27 -35 -68 -35t-55 35zM262 516q-28 -141 99 -141t144 86q39 196 -144 196q-71 0 -99 -141zM176 516q38 188 194 188q270 0 221 -243q-26 -133 -239 -133t-176 188z" />
    <glyph glyph-name="UkaliqPatternSegmentsAbcfg_UkaliqModifierDot" unicode="&#xf1d6b;&#x331;" 
d="M353 -184q-13 36 14 71q28 36 69 36t54 -36q14 -35 -14 -71q-27 -35 -68 -35t-55 35zM488 375l9 42q47 240 -136 240q-71 0 -99 -141t99 -141h127zM479 328h-127q-213 0 -176 188q38 188 194 188q270 0 213 -287l-31 -153l-53 -264h-86l53 264z" />
    <glyph glyph-name="UkaliqPatternSegmentsAbeg_UkaliqModifierDot" unicode="&#xf1d6c;&#x331;" 
d="M222 704q418 0 369 -243q-26 -133 -239 -133h-127l-66 -328h-86l75 375h213q127 0 144 86q39 196 -292 196zM337 -184q-13 36 15 71q27 36 68 36t54 -36q14 -35 -14 -71q-27 -35 -68 -35t-55 35z" />
    <glyph glyph-name="UkaliqPatternSegmentsAbceg_UkaliqModifierDot" unicode="&#xf1d6d;&#x331;" 
d="M222 704q418 0 361 -287l-31 -153l-53 -264h-86l53 264l13 64h-127q-127 0 -158 -152l-35 -176h-86l35 176q40 199 253 199h127l9 42q47 240 -284 240zM353 -184q-13 36 14 71q28 36 69 36t54 -36q14 -35 -14 -71q-27 -35 -68 -35t-55 35z" />
    <glyph glyph-name="UkaliqPatternSegmentsAbefg_UkaliqModifierDot" unicode="&#xf1d6e;&#x331;" 
d="M337 -184q-13 36 15 71q27 36 68 36t54 -36q14 -35 -14 -71q-27 -35 -68 -35t-55 35zM225 328l-13 -64l-53 -264h-86l53 264l34 170l16 82q38 188 194 188q270 0 221 -243q-26 -133 -239 -133h-127zM234 375h127q127 0 144 86q39 196 -144 196q-71 0 -99 -141l-16 -82z
" />
    <glyph glyph-name="UkaliqPatternSegmentsAbcefg_UkaliqModifierDot" unicode="&#xf1d6f;&#x331;" 
d="M353 -184q-13 36 14 71q28 36 69 36t54 -36q14 -35 -14 -71q-27 -35 -68 -35t-55 35zM73 0l53 264l34 170l16 82q38 188 194 188q270 0 213 -287l-31 -153l-53 -264h-86l53 264l13 64h-254l-13 -64l-53 -264h-86zM234 375h254l9 42q47 240 -136 240q-71 0 -99 -141
l-16 -82z" />
    <glyph glyph-name="UkaliqPatternSegmentsAdg_UkaliqModifierDot" unicode="&#xf1d70;&#x331;" 
d="M97 63h406l-12 -63h-407zM161 383h406l-12 -63h-406zM337 -184q-13 36 15 71q27 36 68 36t54 -36q14 -35 -14 -71q-27 -35 -68 -35t-55 35zM225 704h407l-13 -63h-406z" />
    <glyph glyph-name="UkaliqPatternSegmentsAcdg_UkaliqModifierDot" unicode="&#xf1d71;&#x331;" 
d="M157 375h187q230 0 193 -187q-38 -188 -268 -188h-187l9 47h187q144 0 173 141q28 140 -116 140h-188zM337 -184q-13 36 15 71q27 36 68 36t54 -36q14 -35 -14 -71q-27 -35 -68 -35t-55 35zM225 704h407l-13 -63h-406z" />
    <glyph glyph-name="UkaliqPatternSegmentsAdfg_UkaliqModifierDot" unicode="&#xf1d72;&#x331;" 
d="M622 657h-187q-145 0 -173 -141t116 -141h188l-10 -47h-187q-230 0 -193 188q38 188 268 188h187zM97 63h406l-12 -63h-407zM337 -184q-13 36 15 71q27 36 68 36t54 -36q14 -35 -14 -71q-27 -35 -68 -35t-55 35z" />
    <glyph glyph-name="UkaliqPatternSegmentsAcdfg_UkaliqModifierDot" unicode="&#xf1d73;&#x331;" 
d="M337 -184q-13 36 15 71q27 36 68 36t54 -36q14 -35 -14 -71q-27 -35 -68 -35t-55 35zM592 657h-172q-130 0 -158 -141t99 -141h213l-37 -187q-38 -188 -262 -188h-180l9 47h181q137 0 166 141l28 140h-127q-213 0 -176 188q38 188 253 188h172z" />
    <glyph glyph-name="UkaliqPatternSegmentsAdeg_UkaliqModifierDot" unicode="&#xf1d74;&#x331;" 
d="M556 328h-187q-144 0 -172 -140l-29 -141h332l-9 -47h-418l38 188q37 187 267 187h188zM337 -184q-13 36 15 71q27 36 68 36t54 -36q14 -35 -14 -71q-27 -35 -68 -35t-55 35zM225 704h407l-13 -63h-406z" />
    <glyph glyph-name="UkaliqPatternSegmentsAcdeg_UkaliqModifierDot" unicode="&#xf1d75;&#x331;" 
d="M337 -184q-13 36 15 71q27 36 68 36t54 -36q14 -35 -14 -71q-27 -35 -68 -35t-55 35zM225 704h407l-13 -63h-406zM197 188l-29 -141h127q127 0 156 141q28 140 -99 140t-155 -140zM111 188q37 187 250 187t176 -187q-38 -188 -251 -188h-213z" />
    <glyph glyph-name="UkaliqPatternSegmentsAdefg_UkaliqModifierDot" unicode="&#xf1d76;&#x331;" 
d="M337 -184q-13 36 15 71q27 36 68 36t54 -36q14 -35 -14 -71q-27 -35 -68 -35t-55 35zM622 657h-187q-145 0 -173 -141l-16 -82l-12 -59h332l-10 -47h-331l-12 -58l-45 -223h332l-9 -47h-418l54 270l33 164l16 82q38 188 268 188h187z" />
    <glyph glyph-name="UkaliqPatternSegmentsAcdefg_UkaliqModifierDot" unicode="&#xf1d77;&#x331;" 
d="M337 -184q-13 36 15 71q27 36 68 36t54 -36q14 -35 -14 -71q-27 -35 -68 -35t-55 35zM592 657h-172q-130 0 -158 -141l-16 -82l-12 -59h127q213 0 176 -187q-38 -188 -251 -188h-213l54 270l33 164l16 82q38 188 253 188h172zM225 328l-12 -58l-45 -223h127
q127 0 156 141q28 140 -99 140h-127z" />
    <glyph glyph-name="UkaliqPatternSegmentsAbdg_UkaliqModifierDot" unicode="&#xf1d78;&#x331;" 
d="M97 63h406l-12 -63h-407zM222 704q418 0 369 -243q-26 -133 -256 -133h-188l10 47h187q144 0 161 86q39 196 -292 196zM337 -184q-13 36 15 71q27 36 68 36t54 -36q14 -35 -14 -71q-27 -35 -68 -35t-55 35z" />
    <glyph glyph-name="UkaliqPatternSegmentsAbcdg_UkaliqModifierDot" unicode="&#xf1d79;&#x331;" 
d="M222 704q418 0 361 -287l-30 -147l-16 -82q-38 -188 -268 -188h-187l9 47h187q144 0 173 141l16 82l12 58h-332l10 47h331l9 42q47 240 -284 240zM337 -184q-13 36 15 71q27 36 68 36t54 -36q14 -35 -14 -71q-27 -35 -68 -35t-55 35z" />
    <glyph glyph-name="UkaliqPatternSegmentsAbdfg_UkaliqModifierDot" unicode="&#xf1d7a;&#x331;" 
d="M97 63h406l-12 -63h-407zM337 -184q-13 36 15 71q27 36 68 36t54 -36q14 -35 -14 -71q-27 -35 -68 -35t-55 35zM262 516q-28 -141 99 -141t144 86q39 196 -144 196q-71 0 -99 -141zM176 516q38 188 194 188q270 0 221 -243q-26 -133 -239 -133t-176 188z" />
    <glyph glyph-name="UkaliqPatternSegmentsAbcdfg_UkaliqModifierDot" unicode="&#xf1d7b;&#x331;" 
d="M337 -184q-13 36 15 71q27 36 68 36t54 -36q14 -35 -14 -71q-27 -35 -68 -35t-55 35zM488 375l9 42q47 240 -136 240q-71 0 -99 -141t99 -141h127zM479 328h-127q-213 0 -176 188q38 188 194 188q270 0 213 -287l-30 -147l-16 -82q-38 -188 -262 -188h-180l9 47h181
q137 0 166 141l16 82z" />
    <glyph glyph-name="UkaliqPatternSegmentsAbdeg_UkaliqModifierDot" unicode="&#xf1d7c;&#x331;" 
d="M252 704q388 0 339 -243q-26 -133 -239 -133h-127l-57 -281h319l-9 -47h-405l75 375h213q127 0 144 86q39 196 -262 196zM337 -184q-13 36 15 71q27 36 68 36t54 -36q14 -35 -14 -71q-27 -35 -68 -35t-55 35z" />
    <glyph glyph-name="UkaliqPatternSegmentsAbcdeg_UkaliqModifierDot" unicode="&#xf1d7d;&#x331;" 
d="M252 704q388 0 331 -287l-30 -147l-16 -82q-38 -188 -251 -188h-213l38 188q37 187 250 187h127l9 42q47 240 -254 240zM337 -184q-13 36 15 71q27 36 68 36t54 -36q14 -35 -14 -71q-27 -35 -68 -35t-55 35zM479 328h-127q-127 0 -155 -140l-29 -141h127q127 0 156 141
l16 82z" />
    <glyph glyph-name="UkaliqPatternSegmentsAbdefg_UkaliqModifierDot" unicode="&#xf1d7e;&#x331;" 
d="M337 -184q-13 36 15 71q27 36 68 36t54 -36q14 -35 -14 -71q-27 -35 -68 -35t-55 35zM225 328l-12 -58l-45 -223h319l-9 -47h-405l54 270l33 164l16 82q38 188 194 188q270 0 221 -243q-26 -133 -239 -133h-127zM234 375h127q127 0 144 86q39 196 -144 196
q-71 0 -99 -141l-16 -82z" />
    <glyph glyph-name="UkaliqPatternSegmentsAbcdefg_UkaliqModifierDot" unicode="&#xf1d7f;&#x331;" 
d="M337 -184q-13 36 15 71q27 36 68 36t54 -36q14 -35 -14 -71q-27 -35 -68 -35t-55 35zM488 375l9 42q47 240 -136 240q-71 0 -99 -141l-16 -82l-12 -59h254zM479 328h-254l-12 -58l-45 -223h127q127 0 156 141l16 82zM176 516q38 188 194 188q270 0 213 -287l-30 -147
l-16 -82q-38 -188 -251 -188h-213l54 270l33 164z" />
    <glyph glyph-name=".notdef" 
d="M97 63h406l-12 -63h-407zM337 -184q-13 36 15 71q27 36 68 36t54 -36q14 -35 -14 -71q-27 -35 -68 -35t-55 35z" />
    <glyph glyph-name="NULL" horiz-adv-x="0" 
 />
    <glyph glyph-name="uni000D" unicode="&#xd;" horiz-adv-x="0" 
 />
    <glyph glyph-name="uni200D" unicode="&#x200d;" horiz-adv-x="0" 
 />
    <glyph glyph-name="uni200B" unicode="&#x200b;" horiz-adv-x="0" 
 />
    <glyph glyph-name="uni200C" unicode="&#x200c;" horiz-adv-x="0" 
 />
    <glyph glyph-name="uniFEFF" unicode="&#xfeff;" horiz-adv-x="0" 
 />
    <glyph glyph-name="space" unicode=" " 
 />
    <glyph glyph-name="uni00A0" unicode="&#xa0;" 
 />
    <glyph glyph-name="UkaliqModifierDot" unicode="&#x331;" 
d="M337 -184q-13 36 15 71q27 36 68 36t54 -36q14 -35 -14 -71q-27 -35 -68 -35t-55 35z" />
    <glyph glyph-name="uni2002" unicode="&#x2002;" 
 />
    <glyph glyph-name="uni2007" unicode="&#x2007;" 
 />
    <glyph glyph-name="uni2B1B" unicode="&#x2b1b;" 
d="M0 946h578v-1242h-578v1242z" />
    <glyph glyph-name="UkaliqSpace" unicode="&#xee00;" 
 />
    <glyph glyph-name="UkaliqNumber" unicode="&#xee01;" 
d="M574 375l-75 -375h-86l75 375h86z" />
    <glyph glyph-name="UkaliqRightSingleQuotationMark" unicode="&#xee02;" 
d="M300 704l-75 -376h-86l75 376h86z" />
    <glyph glyph-name="UkaliqColon" unicode="&#xee03;" 
d="M574 375l-75 -375h-86l75 375h86zM300 704l-75 -376h-86l75 376h86z" />
    <glyph glyph-name="UkaliqFullStop" unicode="&#xee04;" 
d="M234 375l-75 -375h-86l75 375h86z" />
    <glyph glyph-name="UkaliqComma" unicode="&#xee05;" 
d="M574 375l-75 -375h-86l75 375h86zM234 375l-75 -375h-86l75 375h86z" />
    <glyph glyph-name="UkaliqRightParenthesis" unicode="&#xee06;" 
d="M300 704l-141 -704h-86l141 704h86z" />
    <glyph glyph-name="UkaliqExclamationMark" unicode="&#xee07;" 
d="M300 704l-141 -704h-86l141 704h86zM574 375l-75 -375h-86l75 375h86z" />
    <glyph glyph-name="UkaliqLeftSingleQuotationMark" unicode="&#xee08;" 
d="M640 704l-75 -376h-86l75 376h86z" />
    <glyph glyph-name="UkaliqLeftParenthesis" unicode="&#xee09;" 
d="M640 704l-141 -704h-86l141 704h86z" />
    <glyph glyph-name="UkaliqDoubleQuotationMark" unicode="&#xee0a;" 
d="M300 704l-75 -376h-86l75 376h86zM640 704l-75 -376h-86l75 376h86z" />
    <glyph glyph-name="UkaliqReversedQuestionMark" unicode="&#xee0b;" 
d="M640 704l-141 -704h-86l141 704h86zM300 704l-75 -376h-86l75 376h86z" />
    <glyph glyph-name="UkaliqSemicolon" unicode="&#xee0c;" 
d="M640 704l-75 -376h-86l75 376h86zM234 375l-75 -375h-86l75 375h86z" />
    <glyph glyph-name="UkaliqReversedExclamationMark" unicode="&#xee0d;" 
d="M640 704l-141 -704h-86l141 704h86zM234 375l-75 -375h-86l75 375h86z" />
    <glyph glyph-name="UkaliqQuestionMark" unicode="&#xee0e;" 
d="M300 704l-141 -704h-86l141 704h86zM640 704l-75 -376h-86l75 376h86z" />
    <glyph glyph-name="UkaliqEquals" unicode="&#xee0f;" 
d="M640 704l-141 -704h-86l141 704h86zM300 704l-141 -704h-86l141 704h86z" />
    <glyph glyph-name="UkaliqHyphen" unicode="&#xee10;" 
d="M97 63h406l-12 -63h-407z" />
    <glyph glyph-name="UkaliqLetterOzo" unicode="&#xee11;" 
d="M574 375l-35 -176q-40 -199 -270 -199h-187l9 47h187q144 0 175 152l35 176h86z" />
    <glyph glyph-name="UkaliqGreaterThan" unicode="&#xee12;" 
d="M97 63h406l-12 -63h-407zM300 704l-75 -376h-86l75 376h86z" />
    <glyph glyph-name="UkaliqLetterAtlha" unicode="&#xee13;" 
d="M300 704l-75 -376h-86l75 376h86zM574 375l-35 -176q-40 -199 -270 -199h-187l9 47h187q144 0 175 152l35 176h86z" />
    <glyph glyph-name="UkaliqLetterEdzre" unicode="&#xee14;" 
d="M234 375l-66 -328h332l-9 -47h-418l75 375h86z" />
    <glyph glyph-name="UkaliqOr" unicode="&#xee15;" 
d="M234 375l-66 -328h127q127 0 158 152l35 176h86l-35 -176q-40 -199 -253 -199h-213l75 375h86z" />
    <glyph glyph-name="UkaliqLetterIdzji" unicode="&#xee16;" 
d="M300 704l-132 -657h332l-9 -47h-418l141 704h86z" />
    <glyph glyph-name="UkaliqLetterOdzo" unicode="&#xee17;" 
d="M300 704l-132 -657h127q127 0 158 152l35 176h86l-35 -176q-40 -199 -253 -199h-213l141 704h86z" />
    <glyph glyph-name="UkaliqLessThan" unicode="&#xee18;" 
d="M97 63h406l-12 -63h-407zM640 704l-75 -376h-86l75 376h86z" />
    <glyph glyph-name="UkaliqLetterOso" unicode="&#xee19;" 
d="M640 704l-68 -341q-73 -363 -303 -363h-187l9 47h187q144 0 208 316l68 341h86z" />
    <glyph glyph-name="UkaliqMultiplication" unicode="&#xee1a;" 
d="M97 63h406l-12 -63h-407zM300 704l-75 -376h-86l75 376h86zM640 704l-75 -376h-86l75 376h86z" />
    <glyph glyph-name="UkaliqLetterApfa" unicode="&#xee1b;" 
d="M300 704l-75 -376h-86l75 376h86zM640 704l-68 -341q-73 -363 -303 -363h-187l9 47h187q144 0 208 316l68 341h86z" />
    <glyph glyph-name="UkaliqLetterEtsre" unicode="&#xee1c;" 
d="M234 375l-66 -328h332l-9 -47h-418l75 375h86zM640 704l-75 -376h-86l75 376h86z" />
    <glyph glyph-name="UkaliqLetterUkkhu" unicode="&#xee1d;" 
d="M640 704l-68 -341q-73 -363 -286 -363h-213l75 375h86l-66 -328h127q127 0 191 316l68 341h86z" />
    <glyph glyph-name="UkaliqLetterItsji" unicode="&#xee1e;" 
d="M300 704l-132 -657h332l-9 -47h-418l141 704h86zM640 704l-75 -376h-86l75 376h86z" />
    <glyph glyph-name="UkaliqLetterOtso" unicode="&#xee1f;" 
d="M300 704l-132 -657h127q127 0 191 316l68 341h86l-68 -341q-73 -363 -286 -363h-213l141 704h86z" />
    <glyph glyph-name="UkaliqRange" unicode="&#xee20;" 
d="M225 704h407l-13 -63h-406z" />
    <glyph glyph-name="UkaliqLetterEo" unicode="&#xee21;" 
d="M574 375l-75 -375h-86l75 375h86zM225 704h407l-13 -63h-406z" />
    <glyph glyph-name="UkaliqLetterUh" unicode="&#xee22;" 
d="M622 657h-187q-145 0 -175 -153l-35 -176h-86l35 176q40 200 270 200h187z" />
    <glyph glyph-name="UkaliqLetterEu" unicode="&#xee23;" 
d="M574 375l-75 -375h-86l75 375h86zM622 657h-187q-145 0 -175 -153l-35 -176h-86l35 176q40 200 270 200h187z" />
    <glyph glyph-name="UkaliqLetterOe" unicode="&#xee24;" 
d="M234 375l-75 -375h-86l75 375h86zM225 704h407l-13 -63h-406z" />
    <glyph glyph-name="UkaliqLetterOeh" unicode="&#xee25;" 
d="M574 375l-75 -375h-86l75 375h86zM234 375l-75 -375h-86l75 375h86zM225 704h407l-13 -63h-406z" />
    <glyph glyph-name="UkaliqLetterUi" unicode="&#xee26;" 
d="M622 657h-187q-145 0 -208 -317l-68 -340h-86l68 340q73 364 303 364h187z" />
    <glyph glyph-name="UkaliqLetterAh" unicode="&#xee27;" 
d="M622 657h-187q-145 0 -208 -317l-68 -340h-86l68 340q73 364 303 364h187zM574 375l-75 -375h-86l75 375h86z" />
    <glyph glyph-name="UkaliqLetterAe" unicode="&#xee28;" 
d="M222 704q418 0 343 -376h-86q65 329 -266 329z" />
    <glyph glyph-name="UkaliqLetterO" unicode="&#xee29;" 
d="M222 704q418 0 277 -704h-86q131 657 -200 657z" />
    <glyph glyph-name="UkaliqLetterIh" unicode="&#xee2a;" 
d="M139 328l35 176q40 200 196 200q270 0 195 -376h-86q65 329 -118 329q-71 0 -101 -153l-35 -176h-86z" />
    <glyph glyph-name="UkaliqLetterU" unicode="&#xee2b;" 
d="M139 328l35 176q40 200 196 200q270 0 129 -704h-86q131 657 -52 657q-71 0 -101 -153l-35 -176h-86z" />
    <glyph glyph-name="UkaliqLetterE" unicode="&#xee2c;" 
d="M222 704q418 0 343 -376h-86q65 329 -266 329zM234 375l-75 -375h-86l75 375h86z" />
    <glyph glyph-name="UkaliqLetterEh" unicode="&#xee2d;" 
d="M222 704q418 0 277 -704h-86q131 657 -200 657zM234 375l-75 -375h-86l75 375h86z" />
    <glyph glyph-name="UkaliqLetterI" unicode="&#xee2e;" 
d="M479 328q65 329 -118 329q-71 0 -134 -317l-68 -340h-86l68 340q73 364 229 364q270 0 195 -376h-86z" />
    <glyph glyph-name="UkaliqLetterOh" unicode="&#xee2f;" 
d="M73 0l68 340q73 364 229 364q270 0 129 -704h-86q131 657 -52 657q-71 0 -134 -317l-68 -340h-86z" />
    <glyph glyph-name="UkaliqPlus" unicode="&#xee30;" 
d="M97 63h406l-12 -63h-407zM225 704h407l-13 -63h-406z" />
    <glyph glyph-name="UkaliqCurrency" unicode="&#xee31;" 
d="M574 375l-35 -176q-40 -199 -270 -199h-187l9 47h187q144 0 175 152l35 176h86zM225 704h407l-13 -63h-406z" />
    <glyph glyph-name="UkaliqAt" unicode="&#xee32;" 
d="M97 63h406l-12 -63h-407zM622 657h-187q-145 0 -175 -153l-35 -176h-86l35 176q40 200 270 200h187z" />
    <glyph glyph-name="UkaliqLetterAlha" unicode="&#xee33;" 
d="M622 657h-187q-145 0 -175 -153l-35 -176h-86l35 176q40 200 270 200h187zM574 375l-35 -176q-40 -199 -270 -199h-187l9 47h187q144 0 175 152l35 176h86z" />
    <glyph glyph-name="UkaliqLetterElre" unicode="&#xee34;" 
d="M234 375l-66 -328h332l-9 -47h-418l75 375h86zM225 704h407l-13 -63h-406z" />
    <glyph glyph-name="UkaliqLetterUlgu" unicode="&#xee35;" 
d="M234 375l-66 -328h127q127 0 158 152l35 176h86l-35 -176q-40 -199 -253 -199h-213l75 375h86zM225 704h407l-13 -63h-406z" />
    <glyph glyph-name="UkaliqLetterIlji" unicode="&#xee36;" 
d="M622 657h-187q-145 0 -206 -305l-61 -305h332l-9 -47h-418l70 352q71 352 301 352h187z" />
    <glyph glyph-name="UkaliqLetterOlo" unicode="&#xee37;" 
d="M622 657h-187q-145 0 -206 -305l-61 -305h127q127 0 158 152l35 176h86l-35 -176q-40 -199 -253 -199h-213l70 352q71 352 301 352h187z" />
    <glyph glyph-name="UkaliqDegree" unicode="&#xee38;" 
d="M97 63h406l-12 -63h-407zM222 704q418 0 343 -376h-86q65 329 -266 329z" />
    <glyph glyph-name="UkaliqLetterHbat" unicode="&#xee39;" 
d="M222 704q418 0 326 -462q-49 -242 -279 -242h-187l9 47h187q144 0 184 195q82 415 -249 415z" />
    <glyph glyph-name="UkaliqLetterAnqa" unicode="&#xee3a;" 
d="M97 63h406l-12 -63h-407zM139 328l35 176q40 200 196 200q270 0 195 -376h-86q65 329 -118 329q-71 0 -101 -153l-35 -176h-86z" />
    <glyph glyph-name="UkaliqLetterAma" unicode="&#xee3b;" 
d="M139 328l35 176q40 200 196 200q270 0 178 -462q-49 -242 -279 -242h-187l9 47h187q144 0 184 195q82 415 -101 415q-71 0 -101 -153l-35 -176h-86z" />
    <glyph glyph-name="UkaliqLetterEnre" unicode="&#xee3c;" 
d="M222 704q418 0 343 -376h-86q65 329 -266 329zM234 375l-66 -328h332l-9 -47h-418l75 375h86z" />
    <glyph glyph-name="UkaliqLetterUngu" unicode="&#xee3d;" 
d="M222 704q418 0 326 -462q-49 -242 -262 -242h-213l75 375h86l-66 -328h127q127 0 167 195q82 415 -249 415z" />
    <glyph glyph-name="UkaliqLetterInji" unicode="&#xee3e;" 
d="M479 328q65 329 -118 329q-71 0 -132 -305l-61 -305h332l-9 -47h-418l70 352q71 352 227 352q270 0 195 -376h-86z" />
    <glyph glyph-name="UkaliqLetterOno" unicode="&#xee3f;" 
d="M229 352l-61 -305h127q127 0 167 195q82 415 -101 415q-71 0 -132 -305zM143 352q71 352 227 352q270 0 178 -462q-49 -242 -262 -242h-213z" />
    <glyph glyph-name="UkaliqDash" unicode="&#xee40;" 
d="M161 383h406l-12 -63h-406z" />
    <glyph glyph-name="UkaliqLetterA" unicode="&#xee41;" 
d="M157 375h187q230 0 190 -199l-35 -176h-86l35 176q31 152 -113 152h-188z" />
    <glyph glyph-name="UkaliqMinus" unicode="&#xee42;" 
d="M300 704l-35 -176q-31 -153 113 -153h188l-10 -47h-187q-230 0 -190 200l35 176h86z" />
    <glyph glyph-name="UkaliqLetterAwa" unicode="&#xee43;" 
d="M300 704l-35 -176q-31 -153 96 -153h213l-75 -375h-86l66 328h-127q-213 0 -173 200l35 176h86z" />
    <glyph glyph-name="UkaliqLetterErre" unicode="&#xee44;" 
d="M556 328h-187q-144 0 -175 -152l-35 -176h-86l35 176q40 199 270 199h188z" />
    <glyph glyph-name="UkaliqAnd" unicode="&#xee45;" 
d="M73 0l35 176q40 199 253 199t173 -199l-35 -176h-86l35 176q31 152 -96 152t-158 -152l-35 -176h-86z" />
    <glyph glyph-name="UkaliqLetterIzji" unicode="&#xee46;" 
d="M300 704l-53 -264l-13 -65h332l-10 -47h-331l-13 -64l-53 -264h-86l53 264l35 176l53 264h86z" />
    <glyph glyph-name="UkaliqLetterOro" unicode="&#xee47;" 
d="M300 704l-53 -264l-13 -65h127q213 0 173 -199l-35 -176h-86l35 176q31 152 -96 152h-127l-13 -64l-53 -264h-86l53 264l35 176l53 264h86z" />
    <glyph glyph-name="UkaliqNot" unicode="&#xee48;" 
d="M640 704l-35 -176q-40 -200 -270 -200h-188l10 47h187q144 0 175 153l35 176h86z" />
    <glyph glyph-name="UkaliqDivision" unicode="&#xee49;" 
d="M640 704l-53 -264l-35 -176l-53 -264h-86l53 264l13 64h-332l10 47h331l13 65l53 264h86z" />
    <glyph glyph-name="UkaliqXor" unicode="&#xee4a;" 
d="M300 704l-35 -176q-31 -153 96 -153t158 153l35 176h86l-35 -176q-40 -200 -253 -200t-173 200l35 176h86z" />
    <glyph glyph-name="uniEE4B" unicode="&#xee4b;" 
d="M300 704l-35 -176q-31 -153 96 -153h127l13 65l53 264h86l-53 -264l-35 -176l-53 -264h-86l53 264l13 64h-127q-213 0 -173 200l35 176h86z" />
    <glyph glyph-name="UkaliqLetterIji" unicode="&#xee4c;" 
d="M640 704l-35 -176q-40 -200 -253 -200h-127l-66 -328h-86l75 375h213q127 0 158 153l35 176h86z" />
    <glyph glyph-name="UkaliqLetterTkot" unicode="&#xee4d;" 
d="M640 704l-53 -264l-35 -176l-53 -264h-86l53 264l13 64h-127q-127 0 -158 -152l-35 -176h-86l35 176q40 199 253 199h127l13 65l53 264h86z" />
    <glyph glyph-name="UkaliqLetterIsji" unicode="&#xee4e;" 
d="M640 704l-35 -176q-40 -200 -253 -200h-127l-13 -64l-53 -264h-86l53 264l35 176l53 264h86l-53 -264l-13 -65h127q127 0 158 153l35 176h86z" />
    <glyph glyph-name="UkaliqLetterOrro" unicode="&#xee4f;" 
d="M640 704l-53 -264l-35 -176l-53 -264h-86l53 264l13 64h-254l-13 -64l-53 -264h-86l53 264l35 176l53 264h86l-53 -264l-13 -65h254l13 65l53 264h86z" />
    <glyph glyph-name="UkaliqDigitZero" unicode="&#xee50;" 
d="M97 63h406l-12 -63h-407zM161 383h406l-12 -63h-406z" />
    <glyph glyph-name="UkaliqDigitOne" unicode="&#xee51;" 
d="M157 375h187q230 0 193 -187q-38 -188 -268 -188h-187l9 47h187q144 0 173 141q28 140 -116 140h-188z" />
    <glyph glyph-name="UkaliqDigitTwo" unicode="&#xee52;" 
d="M300 704l-35 -176q-31 -153 113 -153h188l-10 -47h-187q-230 0 -190 200l35 176h86zM97 63h406l-12 -63h-407z" />
    <glyph glyph-name="UkaliqDigitThree" unicode="&#xee53;" 
d="M300 704l-35 -176q-31 -153 96 -153h213l-37 -187q-38 -188 -268 -188h-187l9 47h187q144 0 173 141l28 140h-127q-213 0 -173 200l35 176h86z" />
    <glyph glyph-name="UkaliqDigitFour" unicode="&#xee54;" 
d="M556 328h-187q-144 0 -172 -140l-29 -141h332l-9 -47h-418l38 188q37 187 267 187h188z" />
    <glyph glyph-name="UkaliqDigitFive" unicode="&#xee55;" 
d="M197 188l-29 -141h127q127 0 156 141q28 140 -99 140t-155 -140zM111 188q37 187 250 187t176 -187q-38 -188 -251 -188h-213z" />
    <glyph glyph-name="UkaliqDigitSix" unicode="&#xee56;" 
d="M300 704l-53 -264l-13 -65h332l-10 -47h-331l-12 -58l-45 -223h332l-9 -47h-418l54 270l34 170l53 264h86z" />
    <glyph glyph-name="UkaliqDigitSeven" unicode="&#xee57;" 
d="M300 704l-53 -264l-13 -65h127q213 0 176 -187q-38 -188 -251 -188h-213l54 270l34 170l53 264h86zM225 328l-12 -58l-45 -223h127q127 0 156 141q28 140 -99 140h-127z" />
    <glyph glyph-name="UkaliqDigitEight" unicode="&#xee58;" 
d="M97 63h406l-12 -63h-407zM640 704l-35 -176q-40 -200 -270 -200h-188l10 47h187q144 0 175 153l35 176h86z" />
    <glyph glyph-name="UkaliqDigitNine" unicode="&#xee59;" 
d="M640 704l-53 -264l-34 -170l-16 -82q-38 -188 -268 -188h-187l9 47h187q144 0 173 141l16 82l12 58h-332l10 47h331l13 65l53 264h86z" />
    <glyph glyph-name="UkaliqDigitTen" unicode="&#xee5a;" 
d="M300 704l-35 -176q-31 -153 96 -153t158 153l35 176h86l-35 -176q-40 -200 -253 -200t-173 200l35 176h86zM97 63h406l-12 -63h-407z" />
    <glyph glyph-name="UkaliqDigitEleven" unicode="&#xee5b;" 
d="M300 704l-35 -176q-31 -153 96 -153h127l13 65l53 264h86l-53 -264l-34 -170l-16 -82q-38 -188 -268 -188h-187l9 47h187q144 0 173 141l16 82l12 58h-127q-213 0 -173 200l35 176h86z" />
    <glyph glyph-name="UkaliqDigitTwelve" unicode="&#xee5c;" 
d="M640 704l-35 -176q-40 -200 -253 -200h-127l-57 -281h332l-9 -47h-418l75 375h213q127 0 158 153l35 176h86z" />
    <glyph glyph-name="UkaliqDigitThirteen" unicode="&#xee5d;" 
d="M640 704l-53 -264l-34 -170l-16 -82q-38 -188 -251 -188h-213l38 188q37 187 250 187h127l13 65l53 264h86zM479 328h-127q-127 0 -155 -140l-29 -141h127q127 0 156 141l16 82z" />
    <glyph glyph-name="UkaliqDigitFourteen" unicode="&#xee5e;" 
d="M640 704l-35 -176q-40 -200 -253 -200h-127l-12 -58l-45 -223h332l-9 -47h-418l54 270l34 170l53 264h86l-53 -264l-13 -65h127q127 0 158 153l35 176h86z" />
    <glyph glyph-name="UkaliqDigitFifteen" unicode="&#xee5f;" 
d="M300 704l-53 -264l-13 -65h254l13 65l53 264h86l-53 -264l-34 -170l-16 -82q-38 -188 -251 -188h-213l54 270l34 170l53 264h86zM479 328h-254l-12 -58l-45 -223h127q127 0 156 141l16 82z" />
    <glyph glyph-name="UkaliqLetterSchwa" unicode="&#xee60;" 
d="M161 383h406l-12 -63h-406zM225 704h407l-13 -63h-406z" />
    <glyph glyph-name="UkaliqLetterOhgo" unicode="&#xee61;" 
d="M157 375h187q230 0 190 -199l-35 -176h-86l35 176q31 152 -113 152h-188zM225 704h407l-13 -63h-406z" />
    <glyph glyph-name="UkaliqLetterArha" unicode="&#xee62;" 
d="M622 657h-187q-145 0 -173 -141t116 -141h188l-10 -47h-187q-230 0 -193 188q38 188 268 188h187z" />
    <glyph glyph-name="UkaliqLetterAva" unicode="&#xee63;" 
d="M622 657h-187q-145 0 -173 -141t99 -141h213l-75 -375h-86l66 328h-127q-213 0 -176 188q38 188 268 188h187z" />
    <glyph glyph-name="UkaliqLetterEzre" unicode="&#xee64;" 
d="M556 328h-187q-144 0 -175 -152l-35 -176h-86l35 176q40 199 270 199h188zM225 704h407l-13 -63h-406z" />
    <glyph glyph-name="UkaliqLetterUghu" unicode="&#xee65;" 
d="M73 0l35 176q40 199 253 199t173 -199l-35 -176h-86l35 176q31 152 -96 152t-158 -152l-35 -176h-86zM225 704h407l-13 -63h-406z" />
    <glyph glyph-name="UkaliqLetterIjji" unicode="&#xee66;" 
d="M622 657h-187q-145 0 -173 -141l-16 -82l-12 -59h332l-10 -47h-331l-13 -64l-53 -264h-86l53 264l34 170l16 82q38 188 268 188h187z" />
    <glyph glyph-name="UkaliqLetterOdho" unicode="&#xee67;" 
d="M622 657h-187q-145 0 -173 -141l-16 -82l-12 -59h127q213 0 173 -199l-35 -176h-86l35 176q31 152 -96 152h-127l-13 -64l-53 -264h-86l53 264l34 170l16 82q38 188 268 188h187z" />
    <glyph glyph-name="UkaliqLetterOhho" unicode="&#xee68;" 
d="M222 704q418 0 369 -243q-26 -133 -256 -133h-188l10 47h187q144 0 161 86q39 196 -292 196z" />
    <glyph glyph-name="UkaliqLetterAha" unicode="&#xee69;" 
d="M222 704q418 0 361 -287l-31 -153l-53 -264h-86l53 264l13 64h-332l10 47h331l9 42q47 240 -284 240z" />
    <glyph glyph-name="UkaliqLetterAqha" unicode="&#xee6a;" 
d="M262 516q-28 -141 99 -141t144 86q39 196 -144 196q-71 0 -99 -141zM176 516q38 188 194 188q270 0 221 -243q-26 -133 -239 -133t-176 188z" />
    <glyph glyph-name="UkaliqLetterAfa" unicode="&#xee6b;" 
d="M488 375l9 42q47 240 -136 240q-71 0 -99 -141t99 -141h127zM479 328h-127q-213 0 -176 188q38 188 194 188q270 0 213 -287l-31 -153l-53 -264h-86l53 264z" />
    <glyph glyph-name="UkaliqLetterEsre" unicode="&#xee6c;" 
d="M222 704q418 0 369 -243q-26 -133 -239 -133h-127l-66 -328h-86l75 375h213q127 0 144 86q39 196 -292 196z" />
    <glyph glyph-name="UkaliqLetterUkhu" unicode="&#xee6d;" 
d="M222 704q418 0 361 -287l-31 -153l-53 -264h-86l53 264l13 64h-127q-127 0 -158 -152l-35 -176h-86l35 176q40 199 253 199h127l9 42q47 240 -284 240z" />
    <glyph glyph-name="UkaliqLetterIcji" unicode="&#xee6e;" 
d="M225 328l-13 -64l-53 -264h-86l53 264l34 170l16 82q38 188 194 188q270 0 221 -243q-26 -133 -239 -133h-127zM234 375h127q127 0 144 86q39 196 -144 196q-71 0 -99 -141l-16 -82z" />
    <glyph glyph-name="UkaliqLetterOtho" unicode="&#xee6f;" 
d="M73 0l53 264l34 170l16 82q38 188 194 188q270 0 213 -287l-31 -153l-53 -264h-86l53 264l13 64h-254l-13 -64l-53 -264h-86zM234 375h254l9 42q47 240 -136 240q-71 0 -99 -141l-16 -82z" />
    <glyph glyph-name="UkaliqIterationMark" unicode="&#xee70;" 
d="M97 63h406l-12 -63h-407zM161 383h406l-12 -63h-406zM225 704h407l-13 -63h-406z" />
    <glyph glyph-name="UkaliqPercent" unicode="&#xee71;" 
d="M157 375h187q230 0 193 -187q-38 -188 -268 -188h-187l9 47h187q144 0 173 141q28 140 -116 140h-188zM225 704h407l-13 -63h-406z" />
    <glyph glyph-name="UkaliqLetterAgqa" unicode="&#xee72;" 
d="M622 657h-187q-145 0 -173 -141t116 -141h188l-10 -47h-187q-230 0 -193 188q38 188 268 188h187zM97 63h406l-12 -63h-407z" />
    <glyph glyph-name="UkaliqLetterAba" unicode="&#xee73;" 
d="M592 657h-172q-130 0 -158 -141t99 -141h213l-37 -187q-38 -188 -262 -188h-180l9 47h181q137 0 166 141l28 140h-127q-213 0 -176 188q38 188 253 188h172z" />
    <glyph glyph-name="UkaliqLetterEdre" unicode="&#xee74;" 
d="M556 328h-187q-144 0 -172 -140l-29 -141h332l-9 -47h-418l38 188q37 187 267 187h188zM225 704h407l-13 -63h-406z" />
    <glyph glyph-name="UkaliqLetterUgu" unicode="&#xee75;" 
d="M225 704h407l-13 -63h-406zM197 188l-29 -141h127q127 0 156 141q28 140 -99 140t-155 -140zM111 188q37 187 250 187t176 -187q-38 -188 -251 -188h-213z" />
    <glyph glyph-name="UkaliqLetterIgji" unicode="&#xee76;" 
d="M622 657h-187q-145 0 -173 -141l-16 -82l-12 -59h332l-10 -47h-331l-12 -58l-45 -223h332l-9 -47h-418l54 270l33 164l16 82q38 188 268 188h187z" />
    <glyph glyph-name="UkaliqLetterOdo" unicode="&#xee77;" 
d="M592 657h-172q-130 0 -158 -141l-16 -82l-12 -59h127q213 0 176 -187q-38 -188 -251 -188h-213l54 270l33 164l16 82q38 188 253 188h172zM225 328l-12 -58l-45 -223h127q127 0 156 141q28 140 -99 140h-127z" />
    <glyph glyph-name="UkaliqLetterOhhko" unicode="&#xee78;" 
d="M97 63h406l-12 -63h-407zM222 704q418 0 369 -243q-26 -133 -256 -133h-188l10 47h187q144 0 161 86q39 196 -292 196z" />
    <glyph glyph-name="UkaliqLetterAhka" unicode="&#xee79;" 
d="M222 704q418 0 361 -287l-30 -147l-16 -82q-38 -188 -268 -188h-187l9 47h187q144 0 173 141l16 82l12 58h-332l10 47h331l9 42q47 240 -284 240z" />
    <glyph glyph-name="UkaliqLetterAqa" unicode="&#xee7a;" 
d="M97 63h406l-12 -63h-407zM262 516q-28 -141 99 -141t144 86q39 196 -144 196q-71 0 -99 -141zM176 516q38 188 194 188q270 0 221 -243q-26 -133 -239 -133t-176 188z" />
    <glyph glyph-name="UkaliqLetterApa" unicode="&#xee7b;" 
d="M488 375l9 42q47 240 -136 240q-71 0 -99 -141t99 -141h127zM479 328h-127q-213 0 -176 188q38 188 194 188q270 0 213 -287l-30 -147l-16 -82q-38 -188 -262 -188h-180l9 47h181q137 0 166 141l16 82z" />
    <glyph glyph-name="UkaliqLetterEtre" unicode="&#xee7c;" 
d="M252 704q388 0 339 -243q-26 -133 -239 -133h-127l-57 -281h319l-9 -47h-405l75 375h213q127 0 144 86q39 196 -262 196z" />
    <glyph glyph-name="UkaliqLetterUku" unicode="&#xee7d;" 
d="M252 704q388 0 331 -287l-30 -147l-16 -82q-38 -188 -251 -188h-213l38 188q37 187 250 187h127l9 42q47 240 -254 240zM479 328h-127q-127 0 -155 -140l-29 -141h127q127 0 156 141l16 82z" />
    <glyph glyph-name="UkaliqLetterIci" unicode="&#xee7e;" 
d="M225 328l-12 -58l-45 -223h319l-9 -47h-405l54 270l33 164l16 82q38 188 194 188q270 0 221 -243q-26 -133 -239 -133h-127zM234 375h127q127 0 144 86q39 196 -144 196q-71 0 -99 -141l-16 -82z" />
    <glyph glyph-name="UkaliqLetterOto" unicode="&#xee7f;" 
d="M488 375l9 42q47 240 -136 240q-71 0 -99 -141l-16 -82l-12 -59h254zM479 328h-254l-12 -58l-45 -223h127q127 0 156 141l16 82zM176 516q38 188 194 188q270 0 213 -287l-30 -147l-16 -82q-38 -188 -251 -188h-213l54 270l33 164z" />
    <glyph glyph-name="UkaliqDot" unicode="&#xee80;" 
d="M337 -184q-13 36 15 71q27 36 68 36t54 -36q14 -35 -14 -71q-27 -35 -68 -35t-55 35z" />
    <glyph glyph-name="UkaliqNumberWithDot" unicode="&#xee81;" 
d="M574 375l-75 -375h-86l75 375h86zM353 -184q-13 36 14 71q28 36 69 36t54 -36q14 -35 -14 -71q-27 -35 -68 -35t-55 35z" />
    <glyph glyph-name="UkaliqRightSingleQuotationMarkWithDot" unicode="&#xee82;" 
d="M300 704l-75 -376h-86l75 376h86zM337 -184q-13 36 15 71q27 36 68 36t54 -36q14 -35 -14 -71q-27 -35 -68 -35t-55 35z" />
    <glyph glyph-name="UkaliqColonWithDot" unicode="&#xee83;" 
d="M574 375l-75 -375h-86l75 375h86zM300 704l-75 -376h-86l75 376h86zM353 -184q-13 36 14 71q28 36 69 36t54 -36q14 -35 -14 -71q-27 -35 -68 -35t-55 35z" />
    <glyph glyph-name="UkaliqFullStopWithDot" unicode="&#xee84;" 
d="M234 375l-75 -375h-86l75 375h86zM337 -184q-13 36 15 71q27 36 68 36t54 -36q14 -35 -14 -71q-27 -35 -68 -35t-55 35z" />
    <glyph glyph-name="UkaliqCommaWithDot" unicode="&#xee85;" 
d="M574 375l-75 -375h-86l75 375h86zM234 375l-75 -375h-86l75 375h86zM353 -184q-13 36 14 71q28 36 69 36t54 -36q14 -35 -14 -71q-27 -35 -68 -35t-55 35z" />
    <glyph glyph-name="UkaliqRightParenthesisWithDot" unicode="&#xee86;" 
d="M300 704l-141 -704h-86l141 704h86zM337 -184q-13 36 15 71q27 36 68 36t54 -36q14 -35 -14 -71q-27 -35 -68 -35t-55 35z" />
    <glyph glyph-name="UkaliqExclamationMarkWithDot" unicode="&#xee87;" 
d="M300 704l-141 -704h-86l141 704h86zM574 375l-75 -375h-86l75 375h86zM353 -184q-13 36 14 71q28 36 69 36t54 -36q14 -35 -14 -71q-27 -35 -68 -35t-55 35z" />
    <glyph glyph-name="UkaliqLeftSingleQuotationMarkWithDot" unicode="&#xee88;" 
d="M640 704l-75 -376h-86l75 376h86zM337 -184q-13 36 15 71q27 36 68 36t54 -36q14 -35 -14 -71q-27 -35 -68 -35t-55 35z" />
    <glyph glyph-name="UkaliqLeftParenthesisWithDot" unicode="&#xee89;" 
d="M640 704l-141 -704h-86l141 704h86zM353 -184q-13 36 14 71q28 36 69 36t54 -36q14 -35 -14 -71q-27 -35 -68 -35t-55 35z" />
    <glyph glyph-name="UkaliqDoubleQuotationMarkWithDot" unicode="&#xee8a;" 
d="M300 704l-75 -376h-86l75 376h86zM640 704l-75 -376h-86l75 376h86zM337 -184q-13 36 15 71q27 36 68 36t54 -36q14 -35 -14 -71q-27 -35 -68 -35t-55 35z" />
    <glyph glyph-name="UkaliqReversedQuestionMarkWithDot" unicode="&#xee8b;" 
d="M640 704l-141 -704h-86l141 704h86zM300 704l-75 -376h-86l75 376h86zM353 -184q-13 36 14 71q28 36 69 36t54 -36q14 -35 -14 -71q-27 -35 -68 -35t-55 35z" />
    <glyph glyph-name="UkaliqSemicolonWithDot" unicode="&#xee8c;" 
d="M640 704l-75 -376h-86l75 376h86zM234 375l-75 -375h-86l75 375h86zM337 -184q-13 36 15 71q27 36 68 36t54 -36q14 -35 -14 -71q-27 -35 -68 -35t-55 35z" />
    <glyph glyph-name="UkaliqReversedExclamationMarkWithDot" unicode="&#xee8d;" 
d="M640 704l-141 -704h-86l141 704h86zM234 375l-75 -375h-86l75 375h86zM353 -184q-13 36 14 71q28 36 69 36t54 -36q14 -35 -14 -71q-27 -35 -68 -35t-55 35z" />
    <glyph glyph-name="UkaliqQuestionMarkWithDot" unicode="&#xee8e;" 
d="M300 704l-141 -704h-86l141 704h86zM640 704l-75 -376h-86l75 376h86zM337 -184q-13 36 15 71q27 36 68 36t54 -36q14 -35 -14 -71q-27 -35 -68 -35t-55 35z" />
    <glyph glyph-name="UkaliqEqualsWithDot" unicode="&#xee8f;" 
d="M640 704l-141 -704h-86l141 704h86zM300 704l-141 -704h-86l141 704h86zM353 -184q-13 36 14 71q28 36 69 36t54 -36q14 -35 -14 -71q-27 -35 -68 -35t-55 35z" />
    <glyph glyph-name="UkaliqHyphenWithDot" unicode="&#xee90;" 
d="M97 63h406l-12 -63h-407zM337 -184q-13 36 15 71q27 36 68 36t54 -36q14 -35 -14 -71q-27 -35 -68 -35t-55 35z" />
    <glyph glyph-name="UkaliqLetterOzoWithDot" unicode="&#xee91;" 
d="M337 -184q-13 36 15 71q27 36 68 36t54 -36q14 -35 -14 -71q-27 -35 -68 -35t-55 35zM574 375l-35 -176q-40 -199 -270 -199h-187l9 47h187q144 0 175 152l35 176h86z" />
    <glyph glyph-name="UkaliqGreaterThanWithDot" unicode="&#xee92;" 
d="M97 63h406l-12 -63h-407zM300 704l-75 -376h-86l75 376h86zM337 -184q-13 36 15 71q27 36 68 36t54 -36q14 -35 -14 -71q-27 -35 -68 -35t-55 35z" />
    <glyph glyph-name="UkaliqLetterAtlhaWithDot" unicode="&#xee93;" 
d="M300 704l-75 -376h-86l75 376h86zM337 -184q-13 36 15 71q27 36 68 36t54 -36q14 -35 -14 -71q-27 -35 -68 -35t-55 35zM574 375l-35 -176q-40 -199 -270 -199h-187l9 47h187q144 0 175 152l35 176h86z" />
    <glyph glyph-name="UkaliqLetterEdzreWithDot" unicode="&#xee94;" 
d="M234 375l-66 -328h332l-9 -47h-418l75 375h86zM337 -184q-13 36 15 71q27 36 68 36t54 -36q14 -35 -14 -71q-27 -35 -68 -35t-55 35z" />
    <glyph glyph-name="UkaliqOrWithDot" unicode="&#xee95;" 
d="M234 375l-66 -328h127q127 0 158 152l35 176h86l-35 -176q-40 -199 -253 -199h-213l75 375h86zM337 -184q-13 36 15 71q27 36 68 36t54 -36q14 -35 -14 -71q-27 -35 -68 -35t-55 35z" />
    <glyph glyph-name="UkaliqLetterIdzjiWithDot" unicode="&#xee96;" 
d="M300 704l-132 -657h332l-9 -47h-418l141 704h86zM337 -184q-13 36 15 71q27 36 68 36t54 -36q14 -35 -14 -71q-27 -35 -68 -35t-55 35z" />
    <glyph glyph-name="UkaliqLetterOdzoWithDot" unicode="&#xee97;" 
d="M300 704l-132 -657h127q127 0 158 152l35 176h86l-35 -176q-40 -199 -253 -199h-213l141 704h86zM337 -184q-13 36 15 71q27 36 68 36t54 -36q14 -35 -14 -71q-27 -35 -68 -35t-55 35z" />
    <glyph glyph-name="UkaliqLessThanWithDot" unicode="&#xee98;" 
d="M97 63h406l-12 -63h-407zM640 704l-75 -376h-86l75 376h86zM337 -184q-13 36 15 71q27 36 68 36t54 -36q14 -35 -14 -71q-27 -35 -68 -35t-55 35z" />
    <glyph glyph-name="UkaliqLetterOsoWithDot" unicode="&#xee99;" 
d="M640 704l-68 -341q-73 -363 -303 -363h-187l9 47h187q144 0 208 316l68 341h86zM337 -184q-13 36 15 71q27 36 68 36t54 -36q14 -35 -14 -71q-27 -35 -68 -35t-55 35z" />
    <glyph glyph-name="UkaliqMultiplicationWithDot" unicode="&#xee9a;" 
d="M97 63h406l-12 -63h-407zM300 704l-75 -376h-86l75 376h86zM640 704l-75 -376h-86l75 376h86zM337 -184q-13 36 15 71q27 36 68 36t54 -36q14 -35 -14 -71q-27 -35 -68 -35t-55 35z" />
    <glyph glyph-name="UkaliqLetterApfaWithDot" unicode="&#xee9b;" 
d="M300 704l-75 -376h-86l75 376h86zM640 704l-68 -341q-73 -363 -303 -363h-187l9 47h187q144 0 208 316l68 341h86zM337 -184q-13 36 15 71q27 36 68 36t54 -36q14 -35 -14 -71q-27 -35 -68 -35t-55 35z" />
    </font>
</defs>
</svg>
