<?xml version="1.0" standalone="no"?>
<!DOCTYPE svg PUBLIC "-//W3C//DTD SVG 1.1//EN" "http://www.w3.org/Graphics/SVG/1.1/DTD/svg11.dtd" >
<svg xmlns="http://www.w3.org/2000/svg" xmlns:xlink="http://www.w3.org/1999/xlink" version="1.1">
<metadata>
Created by FontForge 20170812 at Mon Jan 23 00:30:10 2023
 By ht,,,
Copyright (C) 2022-2023 Henrik Theiling, License CC-BY-NC4.0
</metadata>
<defs>
<font id="UkaliqSansLightOblique" horiz-adv-x="578" >
  <font-face 
    font-family="Ukaliq Sans"
    font-weight="250"
    font-style="oblique"
    font-stretch="normal"
    units-per-em="1024"
    panose-1="2 0 4 3 0 0 0 0 0 0"
    ascent="727"
    descent="-297"
    bbox="0 -296 637 946"
    underline-thickness="78"
    underline-position="-171"
    unicode-range="U+000D-F1DFF"
  />
<missing-glyph 
d="M89 47h413l-10 -47h-412zM355 -170q-12 31 12 62t60 31t48 -31q11 -31 -13 -62t-60 -31q-35 0 -47 31z" />
    <glyph glyph-name="UkaliqSpace_UkaliqModifierDot" unicode="&#xee00;&#x331;" 
d="M355 -170q-12 31 12 62t60 31t48 -31q11 -31 -13 -62t-60 -31q-35 0 -47 31z" />
    <glyph glyph-name="UkaliqNumber_UkaliqModifierDot" unicode="&#xee01;&#x331;" 
d="M570 369l-74 -369h-54l74 369h54zM366 -170q-11 31 13 62t60 31q35 0 47 -31t-12 -62t-60 -31t-48 31z" />
    <glyph glyph-name="UkaliqRightSingleQuotationMark_UkaliqModifierDot" unicode="&#xee02;&#x331;" 
d="M268 704l-74 -370h-53l74 370h53zM355 -170q-12 31 12 62t60 31t48 -31q11 -31 -13 -62t-60 -31q-35 0 -47 31z" />
    <glyph glyph-name="UkaliqColon_UkaliqModifierDot" unicode="&#xee03;&#x331;" 
d="M570 369l-74 -369h-54l74 369h54zM268 704l-74 -370h-53l74 370h53zM366 -170q-11 31 13 62t60 31q35 0 47 -31t-12 -62t-60 -31t-48 31z" />
    <glyph glyph-name="UkaliqFullStop_UkaliqModifierDot" unicode="&#xee04;&#x331;" 
d="M201 369l-73 -369h-54l74 369h53zM355 -170q-12 31 12 62t60 31t48 -31q11 -31 -13 -62t-60 -31q-35 0 -47 31z" />
    <glyph glyph-name="UkaliqComma_UkaliqModifierDot" unicode="&#xee05;&#x331;" 
d="M570 369l-74 -369h-54l74 369h54zM201 369l-73 -369h-54l74 369h53zM366 -170q-11 31 13 62t60 31q35 0 47 -31t-12 -62t-60 -31t-48 31z" />
    <glyph glyph-name="UkaliqRightParenthesis_UkaliqModifierDot" unicode="&#xee06;&#x331;" 
d="M268 704l-140 -704h-54l141 704h53zM355 -170q-12 31 12 62t60 31t48 -31q11 -31 -13 -62t-60 -31q-35 0 -47 31z" />
    <glyph glyph-name="UkaliqExclamationMark_UkaliqModifierDot" unicode="&#xee07;&#x331;" 
d="M268 704l-140 -704h-54l141 704h53zM570 369l-74 -369h-54l74 369h54zM366 -170q-11 31 13 62t60 31q35 0 47 -31t-12 -62t-60 -31t-48 31z" />
    <glyph glyph-name="UkaliqLeftSingleQuotationMark_UkaliqModifierDot" unicode="&#xee08;&#x331;" 
d="M637 704l-74 -370h-54l74 370h54zM355 -170q-12 31 12 62t60 31t48 -31q11 -31 -13 -62t-60 -31q-35 0 -47 31z" />
    <glyph glyph-name="UkaliqLeftParenthesis_UkaliqModifierDot" unicode="&#xee09;&#x331;" 
d="M637 704l-141 -704h-54l141 704h54zM366 -170q-11 31 13 62t60 31q35 0 47 -31t-12 -62t-60 -31t-48 31z" />
    <glyph glyph-name="UkaliqDoubleQuotationMark_UkaliqModifierDot" unicode="&#xee0a;&#x331;" 
d="M268 704l-74 -370h-53l74 370h53zM637 704l-74 -370h-54l74 370h54zM355 -170q-12 31 12 62t60 31t48 -31q11 -31 -13 -62t-60 -31q-35 0 -47 31z" />
    <glyph glyph-name="UkaliqReversedQuestionMark_UkaliqModifierDot" unicode="&#xee0b;&#x331;" 
d="M637 704l-141 -704h-54l141 704h54zM268 704l-74 -370h-53l74 370h53zM366 -170q-11 31 13 62t60 31q35 0 47 -31t-12 -62t-60 -31t-48 31z" />
    <glyph glyph-name="UkaliqSemicolon_UkaliqModifierDot" unicode="&#xee0c;&#x331;" 
d="M637 704l-74 -370h-54l74 370h54zM201 369l-73 -369h-54l74 369h53zM355 -170q-12 31 12 62t60 31t48 -31q11 -31 -13 -62t-60 -31q-35 0 -47 31z" />
    <glyph glyph-name="UkaliqReversedExclamationMark_UkaliqModifierDot" unicode="&#xee0d;&#x331;" 
d="M637 704l-141 -704h-54l141 704h54zM201 369l-73 -369h-54l74 369h53zM366 -170q-11 31 13 62t60 31q35 0 47 -31t-12 -62t-60 -31t-48 31z" />
    <glyph glyph-name="UkaliqQuestionMark_UkaliqModifierDot" unicode="&#xee0e;&#x331;" 
d="M268 704l-140 -704h-54l141 704h53zM637 704l-74 -370h-54l74 370h54zM355 -170q-12 31 12 62t60 31t48 -31q11 -31 -13 -62t-60 -31q-35 0 -47 31z" />
    <glyph glyph-name="UkaliqEquals_UkaliqModifierDot" unicode="&#xee0f;&#x331;" 
d="M637 704l-141 -704h-54l141 704h54zM268 704l-140 -704h-54l141 704h53zM366 -170q-11 31 13 62t60 31q35 0 47 -31t-12 -62t-60 -31t-48 31z" />
    <glyph glyph-name="UkaliqHyphen_UkaliqModifierDot" unicode="&#xee10;&#x331;" 
d="M89 47h413l-10 -47h-412zM355 -170q-12 31 12 62t60 31t48 -31q11 -31 -13 -62t-60 -31q-35 0 -47 31z" />
    <glyph glyph-name="UkaliqLetterOzo_UkaliqModifierDot" unicode="&#xee11;&#x331;" 
d="M355 -170q-12 31 12 62t60 31t48 -31q11 -31 -13 -62t-60 -31q-35 0 -47 31zM570 369l-35 -176q-39 -193 -261 -193h-195l7 35h195q168 0 200 158l35 176h54z" />
    <glyph glyph-name="UkaliqGreaterThan_UkaliqModifierDot" unicode="&#xee12;&#x331;" 
d="M89 47h413l-10 -47h-412zM268 704l-74 -370h-53l74 370h53zM355 -170q-12 31 12 62t60 31t48 -31q11 -31 -13 -62t-60 -31q-35 0 -47 31z" />
    <glyph glyph-name="UkaliqLetterAtlha_UkaliqModifierDot" unicode="&#xee13;&#x331;" 
d="M268 704l-74 -370h-53l74 370h53zM355 -170q-12 31 12 62t60 31t48 -31q11 -31 -13 -62t-60 -31q-35 0 -47 31zM570 369l-35 -176q-39 -193 -261 -193h-195l7 35h195q168 0 200 158l35 176h54z" />
    <glyph glyph-name="UkaliqLetterEdzre_UkaliqModifierDot" unicode="&#xee14;&#x331;" 
d="M201 369l-66 -334h363l-7 -35h-417l74 369h53zM355 -170q-12 31 12 62t60 31t48 -31q11 -31 -13 -62t-60 -31q-35 0 -47 31z" />
    <glyph glyph-name="UkaliqOr_UkaliqModifierDot" unicode="&#xee15;&#x331;" 
d="M201 369l-66 -334h157q157 0 189 158l35 176h54l-35 -176q-39 -193 -250 -193h-211l74 369h53zM355 -170q-12 31 12 62t60 31t48 -31q11 -31 -13 -62t-60 -31q-35 0 -47 31z" />
    <glyph glyph-name="UkaliqLetterIdzji_UkaliqModifierDot" unicode="&#xee16;&#x331;" 
d="M268 704l-133 -669h363l-7 -35h-417l141 704h53zM355 -170q-12 31 12 62t60 31t48 -31q11 -31 -13 -62t-60 -31q-35 0 -47 31z" />
    <glyph glyph-name="UkaliqLetterOdzo_UkaliqModifierDot" unicode="&#xee17;&#x331;" 
d="M268 704l-133 -669h157q157 0 189 158l35 176h54l-35 -176q-39 -193 -250 -193h-211l141 704h53zM355 -170q-12 31 12 62t60 31t48 -31q11 -31 -13 -62t-60 -31q-35 0 -47 31z" />
    <glyph glyph-name="UkaliqLessThan_UkaliqModifierDot" unicode="&#xee18;&#x331;" 
d="M89 47h413l-10 -47h-412zM637 704l-74 -370h-54l74 370h54zM355 -170q-12 31 12 62t60 31t48 -31q11 -31 -13 -62t-60 -31q-35 0 -47 31z" />
    <glyph glyph-name="UkaliqLetterOso_UkaliqModifierDot" unicode="&#xee19;&#x331;" 
d="M637 704l-69 -343q-72 -361 -294 -361h-195l7 35h195q168 0 233 326l69 343h54zM355 -170q-12 31 12 62t60 31t48 -31q11 -31 -13 -62t-60 -31q-35 0 -47 31z" />
    <glyph glyph-name="UkaliqMultiplication_UkaliqModifierDot" unicode="&#xee1a;&#x331;" 
d="M89 47h413l-10 -47h-412zM268 704l-74 -370h-53l74 370h53zM637 704l-74 -370h-54l74 370h54zM355 -170q-12 31 12 62t60 31t48 -31q11 -31 -13 -62t-60 -31q-35 0 -47 31z" />
    <glyph glyph-name="UkaliqLetterApfa_UkaliqModifierDot" unicode="&#xee1b;&#x331;" 
d="M268 704l-74 -370h-53l74 370h53zM637 704l-69 -343q-72 -361 -294 -361h-195l7 35h195q168 0 233 326l69 343h54zM355 -170q-12 31 12 62t60 31t48 -31q11 -31 -13 -62t-60 -31q-35 0 -47 31z" />
    <glyph glyph-name="UkaliqLetterEtsre_UkaliqModifierDot" unicode="&#xee1c;&#x331;" 
d="M201 369l-66 -334h363l-7 -35h-417l74 369h53zM637 704l-74 -370h-54l74 370h54zM355 -170q-12 31 12 62t60 31t48 -31q11 -31 -13 -62t-60 -31q-35 0 -47 31z" />
    <glyph glyph-name="UkaliqLetterUkkhu_UkaliqModifierDot" unicode="&#xee1d;&#x331;" 
d="M637 704l-69 -343q-72 -361 -283 -361h-211l74 369h53l-66 -334h157q157 0 222 326l69 343h54zM355 -170q-12 31 12 62t60 31t48 -31q11 -31 -13 -62t-60 -31q-35 0 -47 31z" />
    <glyph glyph-name="UkaliqLetterItsji_UkaliqModifierDot" unicode="&#xee1e;&#x331;" 
d="M268 704l-133 -669h363l-7 -35h-417l141 704h53zM637 704l-74 -370h-54l74 370h54zM355 -170q-12 31 12 62t60 31t48 -31q11 -31 -13 -62t-60 -31q-35 0 -47 31z" />
    <glyph glyph-name="UkaliqLetterOtso_UkaliqModifierDot" unicode="&#xee1f;&#x331;" 
d="M268 704l-133 -669h157q157 0 222 326l69 343h54l-69 -343q-72 -361 -283 -361h-211l141 704h53zM355 -170q-12 31 12 62t60 31t48 -31q11 -31 -13 -62t-60 -31q-35 0 -47 31z" />
    <glyph glyph-name="UkaliqRange_UkaliqModifierDot" unicode="&#xee20;&#x331;" 
d="M355 -170q-12 31 12 62t60 31t48 -31q11 -31 -13 -62t-60 -31q-35 0 -47 31zM221 704h412l-9 -47h-413z" />
    <glyph glyph-name="UkaliqLetterEo_UkaliqModifierDot" unicode="&#xee21;&#x331;" 
d="M570 369l-74 -369h-54l74 369h54zM366 -170q-11 31 13 62t60 31q35 0 47 -31t-12 -62t-60 -31t-48 31zM221 704h412l-9 -47h-413z" />
    <glyph glyph-name="UkaliqLetterUh_UkaliqModifierDot" unicode="&#xee22;&#x331;" 
d="M624 668h-195q-168 0 -199 -158l-36 -176h-53l35 176q39 194 260 194h195zM355 -170q-12 31 12 62t60 31t48 -31q11 -31 -13 -62t-60 -31q-35 0 -47 31z" />
    <glyph glyph-name="UkaliqLetterEu_UkaliqModifierDot" unicode="&#xee23;&#x331;" 
d="M570 369l-74 -369h-54l74 369h54zM624 668h-195q-168 0 -199 -158l-36 -176h-53l35 176q39 194 260 194h195zM366 -170q-11 31 13 62t60 31q35 0 47 -31t-12 -62t-60 -31t-48 31z" />
    <glyph glyph-name="UkaliqLetterOe_UkaliqModifierDot" unicode="&#xee24;&#x331;" 
d="M201 369l-73 -369h-54l74 369h53zM355 -170q-12 31 12 62t60 31t48 -31q11 -31 -13 -62t-60 -31q-35 0 -47 31zM221 704h412l-9 -47h-413z" />
    <glyph glyph-name="UkaliqLetterOeh_UkaliqModifierDot" unicode="&#xee25;&#x331;" 
d="M570 369l-74 -369h-54l74 369h54zM201 369l-73 -369h-54l74 369h53zM366 -170q-11 31 13 62t60 31q35 0 47 -31t-12 -62t-60 -31t-48 31zM221 704h412l-9 -47h-413z" />
    <glyph glyph-name="UkaliqLetterUi_UkaliqModifierDot" unicode="&#xee26;&#x331;" 
d="M624 668h-195q-168 0 -233 -325l-68 -343h-54l68 343q73 361 294 361h195zM355 -170q-12 31 12 62t60 31t48 -31q11 -31 -13 -62t-60 -31q-35 0 -47 31z" />
    <glyph glyph-name="UkaliqLetterAh_UkaliqModifierDot" unicode="&#xee27;&#x331;" 
d="M624 668h-195q-168 0 -233 -325l-68 -343h-54l68 343q73 361 294 361h195zM570 369l-74 -369h-54l74 369h54zM366 -170q-11 31 13 62t60 31q35 0 47 -31t-12 -62t-60 -31t-48 31z" />
    <glyph glyph-name="UkaliqLetterAe_UkaliqModifierDot" unicode="&#xee28;&#x331;" 
d="M220 704q417 0 343 -370h-54q67 334 -296 334zM355 -170q-12 31 12 62t60 31t48 -31q11 -31 -13 -62t-60 -31q-35 0 -47 31z" />
    <glyph glyph-name="UkaliqLetterO_UkaliqModifierDot" unicode="&#xee29;&#x331;" 
d="M220 704q417 0 276 -704h-54q134 668 -229 668zM366 -170q-11 31 13 62t60 31q35 0 47 -31t-12 -62t-60 -31t-48 31z" />
    <glyph glyph-name="UkaliqLetterIh_UkaliqModifierDot" unicode="&#xee2a;&#x331;" 
d="M141 334l35 176q39 194 188 194q273 0 199 -370h-54q67 334 -152 334q-96 0 -127 -158l-36 -176h-53zM355 -170q-12 31 12 62t60 31t48 -31q11 -31 -13 -62t-60 -31q-35 0 -47 31z" />
    <glyph glyph-name="UkaliqLetterU_UkaliqModifierDot" unicode="&#xee2b;&#x331;" 
d="M141 334l35 176q39 194 188 194q273 0 132 -704h-54q134 668 -85 668q-96 0 -127 -158l-36 -176h-53zM366 -170q-11 31 13 62t60 31q35 0 47 -31t-12 -62t-60 -31t-48 31z" />
    <glyph glyph-name="UkaliqLetterE_UkaliqModifierDot" unicode="&#xee2c;&#x331;" 
d="M220 704q417 0 343 -370h-54q67 334 -296 334zM201 369l-73 -369h-54l74 369h53zM355 -170q-12 31 12 62t60 31t48 -31q11 -31 -13 -62t-60 -31q-35 0 -47 31z" />
    <glyph glyph-name="UkaliqLetterEh_UkaliqModifierDot" unicode="&#xee2d;&#x331;" 
d="M220 704q417 0 276 -704h-54q134 668 -229 668zM201 369l-73 -369h-54l74 369h53zM366 -170q-11 31 13 62t60 31q35 0 47 -31t-12 -62t-60 -31t-48 31z" />
    <glyph glyph-name="UkaliqLetterI_UkaliqModifierDot" unicode="&#xee2e;&#x331;" 
d="M509 334q67 334 -152 334q-96 0 -161 -325l-68 -343h-54l68 343q73 361 222 361q273 0 199 -370h-54zM355 -170q-12 31 12 62t60 31t48 -31q11 -31 -13 -62t-60 -31q-35 0 -47 31z" />
    <glyph glyph-name="UkaliqLetterOh_UkaliqModifierDot" unicode="&#xee2f;&#x331;" 
d="M74 0l68 343q73 361 222 361q273 0 132 -704h-54q134 668 -85 668q-96 0 -161 -325l-68 -343h-54zM366 -170q-11 31 13 62t60 31q35 0 47 -31t-12 -62t-60 -31t-48 31z" />
    <glyph glyph-name="UkaliqPlus_UkaliqModifierDot" unicode="&#xee30;&#x331;" 
d="M89 47h413l-10 -47h-412zM355 -170q-12 31 12 62t60 31t48 -31q11 -31 -13 -62t-60 -31q-35 0 -47 31zM221 704h412l-9 -47h-413z" />
    <glyph glyph-name="UkaliqCurrency_UkaliqModifierDot" unicode="&#xee31;&#x331;" 
d="M355 -170q-12 31 12 62t60 31t48 -31q11 -31 -13 -62t-60 -31q-35 0 -47 31zM570 369l-35 -176q-39 -193 -261 -193h-195l7 35h195q168 0 200 158l35 176h54zM221 704h412l-9 -47h-413z" />
    <glyph glyph-name="UkaliqAt_UkaliqModifierDot" unicode="&#xee32;&#x331;" 
d="M89 47h413l-10 -47h-412zM624 668h-195q-168 0 -199 -158l-36 -176h-53l35 176q39 194 260 194h195zM355 -170q-12 31 12 62t60 31t48 -31q11 -31 -13 -62t-60 -31q-35 0 -47 31z" />
    <glyph glyph-name="UkaliqLetterAlha_UkaliqModifierDot" unicode="&#xee33;&#x331;" 
d="M624 668h-195q-168 0 -199 -158l-36 -176h-53l35 176q39 194 260 194h195zM355 -170q-12 31 12 62t60 31t48 -31q11 -31 -13 -62t-60 -31q-35 0 -47 31zM570 369l-35 -176q-39 -193 -261 -193h-195l7 35h195q168 0 200 158l35 176h54z" />
    <glyph glyph-name="UkaliqLetterElre_UkaliqModifierDot" unicode="&#xee34;&#x331;" 
d="M201 369l-66 -334h363l-7 -35h-417l74 369h53zM355 -170q-12 31 12 62t60 31t48 -31q11 -31 -13 -62t-60 -31q-35 0 -47 31zM221 704h412l-9 -47h-413z" />
    <glyph glyph-name="UkaliqLetterUlgu_UkaliqModifierDot" unicode="&#xee35;&#x331;" 
d="M201 369l-66 -334h157q157 0 189 158l35 176h54l-35 -176q-39 -193 -250 -193h-211l74 369h53zM355 -170q-12 31 12 62t60 31t48 -31q11 -31 -13 -62t-60 -31q-35 0 -47 31zM221 704h412l-9 -47h-413z" />
    <glyph glyph-name="UkaliqLetterIlji_UkaliqModifierDot" unicode="&#xee36;&#x331;" 
d="M624 668h-195q-168 0 -231 -316l-63 -317h363l-7 -35h-417l70 352q71 352 292 352h195zM355 -170q-12 31 12 62t60 31t48 -31q11 -31 -13 -62t-60 -31q-35 0 -47 31z" />
    <glyph glyph-name="UkaliqLetterOlo_UkaliqModifierDot" unicode="&#xee37;&#x331;" 
d="M624 668h-195q-168 0 -231 -316l-63 -317h157q157 0 189 158l35 176h54l-35 -176q-39 -193 -250 -193h-211l70 352q71 352 292 352h195zM355 -170q-12 31 12 62t60 31t48 -31q11 -31 -13 -62t-60 -31q-35 0 -47 31z" />
    <glyph glyph-name="UkaliqDegree_UkaliqModifierDot" unicode="&#xee38;&#x331;" 
d="M89 47h413l-10 -47h-412zM220 704q417 0 343 -370h-54q67 334 -296 334zM355 -170q-12 31 12 62t60 31t48 -31q11 -31 -13 -62t-60 -31q-35 0 -47 31z" />
    <glyph glyph-name="UkaliqLetterHbat_UkaliqModifierDot" unicode="&#xee39;&#x331;" 
d="M220 704q417 0 324 -464q-48 -240 -270 -240h-195l7 35h195q168 0 209 205q86 428 -277 428zM355 -170q-12 31 12 62t60 31t48 -31q11 -31 -13 -62t-60 -31q-35 0 -47 31z" />
    <glyph glyph-name="UkaliqLetterAnqa_UkaliqModifierDot" unicode="&#xee3a;&#x331;" 
d="M89 47h413l-10 -47h-412zM141 334l35 176q39 194 188 194q273 0 199 -370h-54q67 334 -152 334q-96 0 -127 -158l-36 -176h-53zM355 -170q-12 31 12 62t60 31t48 -31q11 -31 -13 -62t-60 -31q-35 0 -47 31z" />
    <glyph glyph-name="UkaliqLetterAma_UkaliqModifierDot" unicode="&#xee3b;&#x331;" 
d="M141 334l35 176q39 194 188 194q273 0 180 -464q-48 -240 -270 -240h-195l7 35h195q168 0 209 205q86 428 -133 428q-96 0 -127 -158l-36 -176h-53zM355 -170q-12 31 12 62t60 31t48 -31q11 -31 -13 -62t-60 -31q-35 0 -47 31z" />
    <glyph glyph-name="UkaliqLetterEnre_UkaliqModifierDot" unicode="&#xee3c;&#x331;" 
d="M220 704q417 0 343 -370h-54q67 334 -296 334zM201 369l-66 -334h363l-7 -35h-417l74 369h53zM355 -170q-12 31 12 62t60 31t48 -31q11 -31 -13 -62t-60 -31q-35 0 -47 31z" />
    <glyph glyph-name="UkaliqLetterUngu_UkaliqModifierDot" unicode="&#xee3d;&#x331;" 
d="M220 704q417 0 324 -464q-48 -240 -259 -240h-211l74 369h53l-66 -334h157q157 0 198 205q86 428 -277 428zM355 -170q-12 31 12 62t60 31t48 -31q11 -31 -13 -62t-60 -31q-35 0 -47 31z" />
    <glyph glyph-name="UkaliqLetterInji_UkaliqModifierDot" unicode="&#xee3e;&#x331;" 
d="M509 334q67 334 -152 334q-96 0 -159 -316l-63 -317h363l-7 -35h-417l70 352q71 352 220 352q273 0 199 -370h-54zM355 -170q-12 31 12 62t60 31t48 -31q11 -31 -13 -62t-60 -31q-35 0 -47 31z" />
    <glyph glyph-name="UkaliqLetterOno_UkaliqModifierDot" unicode="&#xee3f;&#x331;" 
d="M355 -170q-12 31 12 62t60 31t48 -31q11 -31 -13 -62t-60 -31q-35 0 -47 31zM198 352l-63 -317h157q157 0 198 205q86 428 -133 428q-96 0 -159 -316zM144 352q71 352 220 352q273 0 180 -464q-48 -240 -259 -240h-211z" />
    <glyph glyph-name="UkaliqDash_UkaliqModifierDot" unicode="&#xee40;&#x331;" 
d="M155 375h412l-9 -47h-412zM355 -170q-12 31 12 62t60 31t48 -31q11 -31 -13 -62t-60 -31q-35 0 -47 31z" />
    <glyph glyph-name="UkaliqLetterA_UkaliqModifierDot" unicode="&#xee41;&#x331;" 
d="M153 369h195q222 0 183 -193l-35 -176h-54l35 176q32 158 -136 158h-195zM366 -170q-11 31 13 62t60 31q35 0 47 -31t-12 -62t-60 -31t-48 31z" />
    <glyph glyph-name="UkaliqMinus_UkaliqModifierDot" unicode="&#xee42;&#x331;" 
d="M268 704l-35 -176q-32 -159 137 -159h194l-7 -35h-194q-222 0 -184 194l36 176h53zM355 -170q-12 31 12 62t60 31t48 -31q11 -31 -13 -62t-60 -31q-35 0 -47 31z" />
    <glyph glyph-name="UkaliqLetterAwa_UkaliqModifierDot" unicode="&#xee43;&#x331;" 
d="M366 -170q-11 31 13 62t60 31q35 0 47 -31t-12 -62t-60 -31t-48 31zM268 704l-35 -176q-32 -159 126 -159h211l-74 -369h-54l67 334h-157q-211 0 -173 194l36 176h53z" />
    <glyph glyph-name="UkaliqLetterErre_UkaliqModifierDot" unicode="&#xee44;&#x331;" 
d="M557 334h-194q-169 0 -200 -158l-35 -176h-54l35 176q39 193 261 193h194zM355 -170q-12 31 12 62t60 31t48 -31q11 -31 -13 -62t-60 -31q-35 0 -47 31z" />
    <glyph glyph-name="UkaliqAnd_UkaliqModifierDot" unicode="&#xee45;&#x331;" 
d="M74 0l35 176q39 193 250 193t172 -193l-35 -176h-54l35 176q32 158 -125 158q-158 0 -189 -158l-35 -176h-54zM366 -170q-11 31 13 62t60 31q35 0 47 -31t-12 -62t-60 -31t-48 31z" />
    <glyph glyph-name="UkaliqLetterIzji_UkaliqModifierDot" unicode="&#xee46;&#x331;" 
d="M355 -170q-12 31 12 62t60 31t48 -31q11 -31 -13 -62t-60 -31q-35 0 -47 31zM268 704l-52 -264l-15 -71h363l-7 -35h-363l-14 -70l-52 -264h-54l53 264l35 176l53 264h53z" />
    <glyph glyph-name="UkaliqLetterOro_UkaliqModifierDot" unicode="&#xee47;&#x331;" 
d="M366 -170q-11 31 13 62t60 31q35 0 47 -31t-12 -62t-60 -31t-48 31zM268 704l-52 -264l-15 -71h158q211 0 172 -193l-35 -176h-54l35 176q32 158 -125 158h-158l-14 -70l-52 -264h-54l53 264l35 176l53 264h53z" />
    <glyph glyph-name="UkaliqNot_UkaliqModifierDot" unicode="&#xee48;&#x331;" 
d="M637 704l-35 -176q-39 -194 -261 -194h-195l7 35h195q168 0 200 159l35 176h54zM355 -170q-12 31 12 62t60 31t48 -31q11 -31 -13 -62t-60 -31q-35 0 -47 31z" />
    <glyph glyph-name="UkaliqDivision_UkaliqModifierDot" unicode="&#xee49;&#x331;" 
d="M637 704l-53 -264l-35 -176l-53 -264h-54l53 264l14 70h-363l7 35h363l14 71l53 264h54zM366 -170q-11 31 13 62t60 31q35 0 47 -31t-12 -62t-60 -31t-48 31z" />
    <glyph glyph-name="UkaliqXor_UkaliqModifierDot" unicode="&#xee4a;&#x331;" 
d="M268 704l-35 -176q-32 -159 126 -159q157 0 189 159l35 176h54l-35 -176q-39 -194 -250 -194t-173 194l36 176h53zM355 -170q-12 31 12 62t60 31t48 -31q11 -31 -13 -62t-60 -31q-35 0 -47 31z" />
    <glyph glyph-name="uniEE4B_UkaliqModifierDot" unicode="&#xee4b;&#x331;" 
d="M366 -170q-11 31 13 62t60 31q35 0 47 -31t-12 -62t-60 -31t-48 31zM268 704l-35 -176q-32 -159 126 -159h157l14 71l53 264h54l-53 -264l-35 -176l-53 -264h-54l53 264l14 70h-157q-211 0 -173 194l36 176h53z" />
    <glyph glyph-name="UkaliqLetterIji_UkaliqModifierDot" unicode="&#xee4c;&#x331;" 
d="M637 704l-35 -176q-39 -194 -250 -194h-158l-66 -334h-54l74 369h211q157 0 189 159l35 176h54zM355 -170q-12 31 12 62t60 31t48 -31q11 -31 -13 -62t-60 -31q-35 0 -47 31z" />
    <glyph glyph-name="UkaliqLetterTkot_UkaliqModifierDot" unicode="&#xee4d;&#x331;" 
d="M637 704l-53 -264l-35 -176l-53 -264h-54l53 264l14 70h-157q-158 0 -189 -158l-35 -176h-54l35 176q39 193 250 193h157l14 71l53 264h54zM366 -170q-11 31 13 62t60 31q35 0 47 -31t-12 -62t-60 -31t-48 31z" />
    <glyph glyph-name="UkaliqLetterIsji_UkaliqModifierDot" unicode="&#xee4e;&#x331;" 
d="M355 -170q-12 31 12 62t60 31t48 -31q11 -31 -13 -62t-60 -31q-35 0 -47 31zM637 704l-35 -176q-39 -194 -250 -194h-158l-14 -70l-52 -264h-54l53 264l35 176l53 264h53l-52 -264l-15 -71h158q157 0 189 159l35 176h54z" />
    <glyph glyph-name="UkaliqLetterOrro_UkaliqModifierDot" unicode="&#xee4f;&#x331;" 
d="M366 -170q-11 31 13 62t60 31q35 0 47 -31t-12 -62t-60 -31t-48 31zM637 704l-53 -264l-35 -176l-53 -264h-54l53 264l14 70h-315l-14 -70l-52 -264h-54l53 264l35 176l53 264h53l-52 -264l-15 -71h315l14 71l53 264h54z" />
    <glyph glyph-name="UkaliqDigitZero_UkaliqModifierDot" unicode="&#xee50;&#x331;" 
d="M89 47h413l-10 -47h-412zM155 375h412l-9 -47h-412zM355 -170q-12 31 12 62t60 31t48 -31q11 -31 -13 -62t-60 -31q-35 0 -47 31z" />
    <glyph glyph-name="UkaliqDigitOne_UkaliqModifierDot" unicode="&#xee51;&#x331;" 
d="M153 369h195q222 0 185 -184q-37 -185 -259 -185h-195l7 35h195q168 0 198 150q30 149 -138 149h-195zM355 -170q-12 31 12 62t60 31t48 -31q11 -31 -13 -62t-60 -31q-35 0 -47 31z" />
    <glyph glyph-name="UkaliqDigitTwo_UkaliqModifierDot" unicode="&#xee52;&#x331;" 
d="M268 704l-35 -176q-32 -159 137 -159h194l-7 -35h-194q-222 0 -184 194l36 176h53zM89 47h413l-10 -47h-412zM355 -170q-12 31 12 62t60 31t48 -31q11 -31 -13 -62t-60 -31q-35 0 -47 31z" />
    <glyph glyph-name="UkaliqDigitThree_UkaliqModifierDot" unicode="&#xee53;&#x331;" 
d="M355 -170q-12 31 12 62t60 31t48 -31q11 -31 -13 -62t-60 -31q-35 0 -47 31zM268 704l-35 -176q-32 -159 126 -159h211l-37 -184q-37 -185 -259 -185h-195l7 35h195q168 0 198 150l30 149h-157q-211 0 -173 194l36 176h53z" />
    <glyph glyph-name="UkaliqDigitFour_UkaliqModifierDot" unicode="&#xee54;&#x331;" 
d="M557 334h-194q-169 0 -198 -149l-30 -150h363l-7 -35h-417l37 185q37 184 259 184h194zM355 -170q-12 31 12 62t60 31t48 -31q11 -31 -13 -62t-60 -31q-35 0 -47 31z" />
    <glyph glyph-name="UkaliqDigitFive_UkaliqModifierDot" unicode="&#xee55;&#x331;" 
d="M355 -170q-12 31 12 62t60 31t48 -31q11 -31 -13 -62t-60 -31q-35 0 -47 31zM165 185l-30 -150h157q157 0 187 150q30 149 -127 149q-158 0 -187 -149zM111 185q37 184 248 184t174 -184q-37 -185 -248 -185h-211z" />
    <glyph glyph-name="UkaliqDigitSix_UkaliqModifierDot" unicode="&#xee56;&#x331;" 
d="M355 -170q-12 31 12 62t60 31t48 -31q11 -31 -13 -62t-60 -31q-35 0 -47 31zM268 704l-52 -264l-14 -71h362l-7 -35h-363l-13 -66l-46 -233h363l-7 -35h-417l54 268l34 172l53 264h53z" />
    <glyph glyph-name="UkaliqDigitSeven_UkaliqModifierDot" unicode="&#xee57;&#x331;" 
d="M355 -170q-12 31 12 62t60 31t48 -31q11 -31 -13 -62t-60 -31q-35 0 -47 31zM268 704l-52 -264l-14 -71h157q211 0 174 -184q-37 -185 -248 -185h-211l54 268l34 172l53 264h53zM194 334l-13 -66l-46 -233h157q157 0 187 150q30 149 -127 149h-158z" />
    <glyph glyph-name="UkaliqDigitEight_UkaliqModifierDot" unicode="&#xee58;&#x331;" 
d="M89 47h413l-10 -47h-412zM637 704l-35 -176q-39 -194 -261 -194h-195l7 35h195q168 0 200 159l35 176h54zM355 -170q-12 31 12 62t60 31t48 -31q11 -31 -13 -62t-60 -31q-35 0 -47 31z" />
    <glyph glyph-name="UkaliqDigitNine_UkaliqModifierDot" unicode="&#xee59;&#x331;" 
d="M637 704l-53 -264l-34 -172l-17 -83q-37 -185 -259 -185h-195l7 35h195q168 0 198 150l17 83l13 66h-363l7 35h363l14 71l53 264h54zM355 -170q-12 31 12 62t60 31t48 -31q11 -31 -13 -62t-60 -31q-35 0 -47 31z" />
    <glyph glyph-name="UkaliqDigitTen_UkaliqModifierDot" unicode="&#xee5a;&#x331;" 
d="M268 704l-35 -176q-32 -159 126 -159q157 0 189 159l35 176h54l-35 -176q-39 -194 -250 -194t-173 194l36 176h53zM89 47h413l-10 -47h-412zM355 -170q-12 31 12 62t60 31t48 -31q11 -31 -13 -62t-60 -31q-35 0 -47 31z" />
    <glyph glyph-name="UkaliqDigitEleven_UkaliqModifierDot" unicode="&#xee5b;&#x331;" 
d="M355 -170q-12 31 12 62t60 31t48 -31q11 -31 -13 -62t-60 -31q-35 0 -47 31zM268 704l-35 -176q-32 -159 126 -159h157l14 71l53 264h54l-53 -264l-34 -172l-17 -83q-37 -185 -259 -185h-195l7 35h195q168 0 198 150l17 83l13 66h-157q-211 0 -173 194l36 176h53z" />
    <glyph glyph-name="UkaliqDigitTwelve_UkaliqModifierDot" unicode="&#xee5c;&#x331;" 
d="M637 704l-35 -176q-39 -194 -250 -194h-158l-59 -299h363l-7 -35h-417l74 369h211q157 0 189 159l35 176h54zM355 -170q-12 31 12 62t60 31t48 -31q11 -31 -13 -62t-60 -31q-35 0 -47 31z" />
    <glyph glyph-name="UkaliqDigitThirteen_UkaliqModifierDot" unicode="&#xee5d;&#x331;" 
d="M637 704l-53 -264l-34 -172l-17 -83q-37 -185 -248 -185h-211l37 185q37 184 248 184h157l14 71l53 264h54zM355 -170q-12 31 12 62t60 31t48 -31q11 -31 -13 -62t-60 -31q-35 0 -47 31zM509 334h-157q-158 0 -187 -149l-30 -150h157q157 0 187 150l17 83z" />
    <glyph glyph-name="UkaliqDigitFourteen_UkaliqModifierDot" unicode="&#xee5e;&#x331;" 
d="M355 -170q-12 31 12 62t60 31t48 -31q11 -31 -13 -62t-60 -31q-35 0 -47 31zM637 704l-35 -176q-39 -194 -250 -194h-158l-13 -66l-46 -233h363l-7 -35h-417l54 268l34 172l53 264h53l-52 -264l-14 -71h157q157 0 189 159l35 176h54z" />
    <glyph glyph-name="UkaliqDigitFifteen_UkaliqModifierDot" unicode="&#xee5f;&#x331;" 
d="M355 -170q-12 31 12 62t60 31t48 -31q11 -31 -13 -62t-60 -31q-35 0 -47 31zM268 704l-52 -264l-14 -71h314l14 71l53 264h54l-53 -264l-34 -172l-17 -83q-37 -185 -248 -185h-211l54 268l34 172l53 264h53zM509 334h-315l-13 -66l-46 -233h157q157 0 187 150l17 83z" />
    <glyph glyph-name="UkaliqLetterSchwa_UkaliqModifierDot" unicode="&#xee60;&#x331;" 
d="M155 375h412l-9 -47h-412zM355 -170q-12 31 12 62t60 31t48 -31q11 -31 -13 -62t-60 -31q-35 0 -47 31zM221 704h412l-9 -47h-413z" />
    <glyph glyph-name="UkaliqLetterOhgo_UkaliqModifierDot" unicode="&#xee61;&#x331;" 
d="M153 369h195q222 0 183 -193l-35 -176h-54l35 176q32 158 -136 158h-195zM366 -170q-11 31 13 62t60 31q35 0 47 -31t-12 -62t-60 -31t-48 31zM221 704h412l-9 -47h-413z" />
    <glyph glyph-name="UkaliqLetterArha_UkaliqModifierDot" unicode="&#xee62;&#x331;" 
d="M624 668h-195q-168 0 -198 -149q-30 -150 139 -150h194l-7 -35h-194q-222 0 -185 185t258 185h195zM355 -170q-12 31 12 62t60 31t48 -31q11 -31 -13 -62t-60 -31q-35 0 -47 31z" />
    <glyph glyph-name="UkaliqLetterAva_UkaliqModifierDot" unicode="&#xee63;&#x331;" 
d="M366 -170q-11 31 13 62t60 31q35 0 47 -31t-12 -62t-60 -31t-48 31zM624 668h-195q-168 0 -198 -149q-30 -150 128 -150h211l-74 -369h-54l67 334h-157q-211 0 -174 185t258 185h195z" />
    <glyph glyph-name="UkaliqLetterEzre_UkaliqModifierDot" unicode="&#xee64;&#x331;" 
d="M557 334h-194q-169 0 -200 -158l-35 -176h-54l35 176q39 193 261 193h194zM355 -170q-12 31 12 62t60 31t48 -31q11 -31 -13 -62t-60 -31q-35 0 -47 31zM221 704h412l-9 -47h-413z" />
    <glyph glyph-name="UkaliqLetterUghu_UkaliqModifierDot" unicode="&#xee65;&#x331;" 
d="M74 0l35 176q39 193 250 193t172 -193l-35 -176h-54l35 176q32 158 -125 158q-158 0 -189 -158l-35 -176h-54zM366 -170q-11 31 13 62t60 31q35 0 47 -31t-12 -62t-60 -31t-48 31zM221 704h412l-9 -47h-413z" />
    <glyph glyph-name="UkaliqLetterIjji_UkaliqModifierDot" unicode="&#xee66;&#x331;" 
d="M355 -170q-12 31 12 62t60 31t48 -31q11 -31 -13 -62t-60 -31q-35 0 -47 31zM624 668h-195q-168 0 -198 -149l-16 -84l-14 -66h363l-7 -35h-363l-14 -70l-52 -264h-54l53 264l34 171l17 84q37 185 258 185h195z" />
    <glyph glyph-name="UkaliqLetterOdho_UkaliqModifierDot" unicode="&#xee67;&#x331;" 
d="M366 -170q-11 31 13 62t60 31q35 0 47 -31t-12 -62t-60 -31t-48 31zM624 668h-195q-168 0 -198 -149l-16 -84l-14 -66h158q211 0 172 -193l-35 -176h-54l35 176q32 158 -125 158h-158l-14 -70l-52 -264h-54l53 264l34 171l17 84q37 185 258 185h195z" />
    <glyph glyph-name="UkaliqLetterOhho_UkaliqModifierDot" unicode="&#xee68;&#x331;" 
d="M220 704q417 0 369 -241q-26 -129 -248 -129h-195l7 35h195q168 0 187 94q41 205 -322 205zM355 -170q-12 31 12 62t60 31t48 -31q11 -31 -13 -62t-60 -31q-35 0 -47 31z" />
    <glyph glyph-name="UkaliqLetterAha_UkaliqModifierDot" unicode="&#xee69;&#x331;" 
d="M220 704q417 0 360 -285l-31 -155l-53 -264h-54l53 264l14 70h-363l7 35h363l10 50q50 249 -313 249zM366 -170q-11 31 13 62t60 31q35 0 47 -31t-12 -62t-60 -31t-48 31z" />
    <glyph glyph-name="UkaliqLetterAqha_UkaliqModifierDot" unicode="&#xee6a;&#x331;" 
d="M355 -170q-12 31 12 62t60 31t48 -31q11 -31 -13 -62t-60 -31q-35 0 -47 31zM231 519q-30 -150 128 -150q157 0 176 94q41 205 -178 205q-96 0 -126 -149zM178 519q37 185 186 185q273 0 225 -241q-26 -129 -237 -129t-174 185z" />
    <glyph glyph-name="UkaliqLetterAfa_UkaliqModifierDot" unicode="&#xee6b;&#x331;" 
d="M366 -170q-11 31 13 62t60 31q35 0 47 -31t-12 -62t-60 -31t-48 31zM516 369l10 50q50 249 -169 249q-96 0 -126 -149q-30 -150 128 -150h157zM509 334h-157q-211 0 -174 185t186 185q273 0 216 -285l-31 -155l-53 -264h-54l53 264z" />
    <glyph glyph-name="UkaliqLetterEsre_UkaliqModifierDot" unicode="&#xee6c;&#x331;" 
d="M220 704q417 0 369 -241q-26 -129 -237 -129h-158l-66 -334h-54l74 369h211q157 0 176 94q41 205 -322 205zM355 -170q-12 31 12 62t60 31t48 -31q11 -31 -13 -62t-60 -31q-35 0 -47 31z" />
    <glyph glyph-name="UkaliqLetterUkhu_UkaliqModifierDot" unicode="&#xee6d;&#x331;" 
d="M220 704q417 0 360 -285l-31 -155l-53 -264h-54l53 264l14 70h-157q-158 0 -189 -158l-35 -176h-54l35 176q39 193 250 193h157l10 50q50 249 -313 249zM366 -170q-11 31 13 62t60 31q35 0 47 -31t-12 -62t-60 -31t-48 31z" />
    <glyph glyph-name="UkaliqLetterIcji_UkaliqModifierDot" unicode="&#xee6e;&#x331;" 
d="M355 -170q-12 31 12 62t60 31t48 -31q11 -31 -13 -62t-60 -31q-35 0 -47 31zM194 334l-14 -70l-52 -264h-54l53 264l34 171l17 84q37 185 186 185q273 0 225 -241q-26 -129 -237 -129h-158zM201 369h158q157 0 176 94q41 205 -178 205q-96 0 -126 -149l-16 -84z" />
    <glyph glyph-name="UkaliqLetterOtho_UkaliqModifierDot" unicode="&#xee6f;&#x331;" 
d="M366 -170q-11 31 13 62t60 31q35 0 47 -31t-12 -62t-60 -31t-48 31zM74 0l53 264l34 171l17 84q37 185 186 185q273 0 216 -285l-31 -155l-53 -264h-54l53 264l14 70h-315l-14 -70l-52 -264h-54zM201 369h315l10 50q50 249 -169 249q-96 0 -126 -149l-16 -84z" />
    <glyph glyph-name="UkaliqIterationMark_UkaliqModifierDot" unicode="&#xee70;&#x331;" 
d="M89 47h413l-10 -47h-412zM155 375h412l-9 -47h-412zM355 -170q-12 31 12 62t60 31t48 -31q11 -31 -13 -62t-60 -31q-35 0 -47 31zM221 704h412l-9 -47h-413z" />
    <glyph glyph-name="UkaliqPercent_UkaliqModifierDot" unicode="&#xee71;&#x331;" 
d="M153 369h195q222 0 185 -184q-37 -185 -259 -185h-195l7 35h195q168 0 198 150q30 149 -138 149h-195zM355 -170q-12 31 12 62t60 31t48 -31q11 -31 -13 -62t-60 -31q-35 0 -47 31zM221 704h412l-9 -47h-413z" />
    <glyph glyph-name="UkaliqLetterAgqa_UkaliqModifierDot" unicode="&#xee72;&#x331;" 
d="M624 668h-195q-168 0 -198 -149q-30 -150 139 -150h194l-7 -35h-194q-222 0 -185 185t258 185h195zM89 47h413l-10 -47h-412zM355 -170q-12 31 12 62t60 31t48 -31q11 -31 -13 -62t-60 -31q-35 0 -47 31z" />
    <glyph glyph-name="UkaliqLetterAba_UkaliqModifierDot" unicode="&#xee73;&#x331;" 
d="M355 -170q-12 31 12 62t60 31t48 -31q11 -31 -13 -62t-60 -31q-35 0 -47 31zM605 668h-185q-159 0 -189 -149q-30 -150 128 -150h211l-37 -184q-37 -185 -255 -185h-191l7 35h191q164 0 194 150l30 149h-157q-211 0 -174 185t249 185h185z" />
    <glyph glyph-name="UkaliqLetterEdre_UkaliqModifierDot" unicode="&#xee74;&#x331;" 
d="M557 334h-194q-169 0 -198 -149l-30 -150h363l-7 -35h-417l37 185q37 184 259 184h194zM355 -170q-12 31 12 62t60 31t48 -31q11 -31 -13 -62t-60 -31q-35 0 -47 31zM221 704h412l-9 -47h-413z" />
    <glyph glyph-name="UkaliqLetterUgu_UkaliqModifierDot" unicode="&#xee75;&#x331;" 
d="M355 -170q-12 31 12 62t60 31t48 -31q11 -31 -13 -62t-60 -31q-35 0 -47 31zM221 704h412l-9 -47h-413zM165 185l-30 -150h157q157 0 187 150q30 149 -127 149q-158 0 -187 -149zM111 185q37 184 248 184t174 -184q-37 -185 -248 -185h-211z" />
    <glyph glyph-name="UkaliqLetterIgji_UkaliqModifierDot" unicode="&#xee76;&#x331;" 
d="M355 -170q-12 31 12 62t60 31t48 -31q11 -31 -13 -62t-60 -31q-35 0 -47 31zM624 668h-195q-168 0 -198 -149l-16 -84l-13 -66h362l-7 -35h-363l-13 -66l-46 -233h363l-7 -35h-417l54 268l33 167l17 84q37 185 258 185h195z" />
    <glyph glyph-name="UkaliqLetterOdo_UkaliqModifierDot" unicode="&#xee77;&#x331;" 
d="M355 -170q-12 31 12 62t60 31t48 -31q11 -31 -13 -62t-60 -31q-35 0 -47 31zM605 668h-185q-159 0 -189 -149l-16 -84l-13 -66h157q211 0 174 -184q-37 -185 -248 -185h-211l54 268l33 167l17 84q37 185 249 185h185zM194 334l-13 -66l-46 -233h157q157 0 187 150
q30 149 -127 149h-158z" />
    <glyph glyph-name="UkaliqLetterOhhko_UkaliqModifierDot" unicode="&#xee78;&#x331;" 
d="M89 47h413l-10 -47h-412zM220 704q417 0 369 -241q-26 -129 -248 -129h-195l7 35h195q168 0 187 94q41 205 -322 205zM355 -170q-12 31 12 62t60 31t48 -31q11 -31 -13 -62t-60 -31q-35 0 -47 31z" />
    <glyph glyph-name="UkaliqLetterAhka_UkaliqModifierDot" unicode="&#xee79;&#x331;" 
d="M220 704q417 0 360 -285l-30 -151l-17 -83q-37 -185 -259 -185h-195l7 35h195q168 0 198 150l17 83l13 66h-363l7 35h363l10 50q50 249 -313 249zM355 -170q-12 31 12 62t60 31t48 -31q11 -31 -13 -62t-60 -31q-35 0 -47 31z" />
    <glyph glyph-name="UkaliqLetterAqa_UkaliqModifierDot" unicode="&#xee7a;&#x331;" 
d="M89 47h413l-10 -47h-412zM355 -170q-12 31 12 62t60 31t48 -31q11 -31 -13 -62t-60 -31q-35 0 -47 31zM231 519q-30 -150 128 -150q157 0 176 94q41 205 -178 205q-96 0 -126 -149zM178 519q37 185 186 185q273 0 225 -241q-26 -129 -237 -129t-174 185z" />
    <glyph glyph-name="UkaliqLetterApa_UkaliqModifierDot" unicode="&#xee7b;&#x331;" 
d="M355 -170q-12 31 12 62t60 31t48 -31q11 -31 -13 -62t-60 -31q-35 0 -47 31zM516 369l10 50q50 249 -169 249q-96 0 -126 -149q-30 -150 128 -150h157zM509 334h-157q-211 0 -174 185t186 185q273 0 216 -285l-30 -151l-17 -83q-37 -185 -255 -185h-191l7 35h191
q164 0 194 150l17 83z" />
    <glyph glyph-name="UkaliqLetterEtre_UkaliqModifierDot" unicode="&#xee7c;&#x331;" 
d="M239 704q398 0 350 -241q-26 -129 -237 -129h-158l-59 -299h355l-7 -35h-409l74 369h211q157 0 176 94q41 205 -303 205zM355 -170q-12 31 12 62t60 31t48 -31q11 -31 -13 -62t-60 -31q-35 0 -47 31z" />
    <glyph glyph-name="UkaliqLetterUku_UkaliqModifierDot" unicode="&#xee7d;&#x331;" 
d="M239 704q398 0 341 -285l-30 -151l-17 -83q-37 -185 -248 -185h-211l37 185q37 184 248 184h157l10 50q50 249 -294 249zM355 -170q-12 31 12 62t60 31t48 -31q11 -31 -13 -62t-60 -31q-35 0 -47 31zM509 334h-157q-158 0 -187 -149l-30 -150h157q157 0 187 150l17 83z
" />
    <glyph glyph-name="UkaliqLetterIci_UkaliqModifierDot" unicode="&#xee7e;&#x331;" 
d="M355 -170q-12 31 12 62t60 31t48 -31q11 -31 -13 -62t-60 -31q-35 0 -47 31zM194 334l-13 -66l-46 -233h355l-7 -35h-409l54 268l33 167l17 84q37 185 186 185q273 0 225 -241q-26 -129 -237 -129h-158zM202 369h157q157 0 176 94q41 205 -178 205q-96 0 -126 -149
l-16 -84z" />
    <glyph glyph-name="UkaliqLetterOto_UkaliqModifierDot" unicode="&#xee7f;&#x331;" 
d="M355 -170q-12 31 12 62t60 31t48 -31q11 -31 -13 -62t-60 -31q-35 0 -47 31zM516 369l10 50q50 249 -169 249q-96 0 -126 -149l-16 -84l-13 -66h314zM509 334h-315l-13 -66l-46 -233h157q157 0 187 150l17 83zM178 519q37 185 186 185q273 0 216 -285l-30 -151l-17 -83
q-37 -185 -248 -185h-211l54 268l33 167z" />
    <glyph glyph-name="UkaliqPatternBlank_UkaliqModifierDot" unicode="&#xf1d00;&#x331;" 
d="M355 -170q-12 31 12 62t60 31t48 -31q11 -31 -13 -62t-60 -31q-35 0 -47 31z" />
    <glyph glyph-name="UkaliqPatternSegmentsC_UkaliqModifierDot" unicode="&#xf1d01;&#x331;" 
d="M570 369l-74 -369h-54l74 369h54zM366 -170q-11 31 13 62t60 31q35 0 47 -31t-12 -62t-60 -31t-48 31z" />
    <glyph glyph-name="UkaliqPatternSegmentsF_UkaliqModifierDot" unicode="&#xf1d02;&#x331;" 
d="M268 704l-74 -370h-53l74 370h53zM355 -170q-12 31 12 62t60 31t48 -31q11 -31 -13 -62t-60 -31q-35 0 -47 31z" />
    <glyph glyph-name="UkaliqPatternSegmentsCf_UkaliqModifierDot" unicode="&#xf1d03;&#x331;" 
d="M570 369l-74 -369h-54l74 369h54zM268 704l-74 -370h-53l74 370h53zM366 -170q-11 31 13 62t60 31q35 0 47 -31t-12 -62t-60 -31t-48 31z" />
    <glyph glyph-name="UkaliqPatternSegmentsE_UkaliqModifierDot" unicode="&#xf1d04;&#x331;" 
d="M201 369l-73 -369h-54l74 369h53zM355 -170q-12 31 12 62t60 31t48 -31q11 -31 -13 -62t-60 -31q-35 0 -47 31z" />
    <glyph glyph-name="UkaliqPatternSegmentsCe_UkaliqModifierDot" unicode="&#xf1d05;&#x331;" 
d="M570 369l-74 -369h-54l74 369h54zM201 369l-73 -369h-54l74 369h53zM366 -170q-11 31 13 62t60 31q35 0 47 -31t-12 -62t-60 -31t-48 31z" />
    <glyph glyph-name="UkaliqPatternSegmentsEf_UkaliqModifierDot" unicode="&#xf1d06;&#x331;" 
d="M268 704l-140 -704h-54l141 704h53zM355 -170q-12 31 12 62t60 31t48 -31q11 -31 -13 -62t-60 -31q-35 0 -47 31z" />
    <glyph glyph-name="UkaliqPatternSegmentsCef_UkaliqModifierDot" unicode="&#xf1d07;&#x331;" 
d="M268 704l-140 -704h-54l141 704h53zM570 369l-74 -369h-54l74 369h54zM366 -170q-11 31 13 62t60 31q35 0 47 -31t-12 -62t-60 -31t-48 31z" />
    <glyph glyph-name="UkaliqPatternSegmentsB_UkaliqModifierDot" unicode="&#xf1d08;&#x331;" 
d="M637 704l-74 -370h-54l74 370h54zM355 -170q-12 31 12 62t60 31t48 -31q11 -31 -13 -62t-60 -31q-35 0 -47 31z" />
    <glyph glyph-name="UkaliqPatternSegmentsBc_UkaliqModifierDot" unicode="&#xf1d09;&#x331;" 
d="M637 704l-141 -704h-54l141 704h54zM366 -170q-11 31 13 62t60 31q35 0 47 -31t-12 -62t-60 -31t-48 31z" />
    <glyph glyph-name="UkaliqPatternSegmentsBf_UkaliqModifierDot" unicode="&#xf1d0a;&#x331;" 
d="M268 704l-74 -370h-53l74 370h53zM637 704l-74 -370h-54l74 370h54zM355 -170q-12 31 12 62t60 31t48 -31q11 -31 -13 -62t-60 -31q-35 0 -47 31z" />
    <glyph glyph-name="UkaliqPatternSegmentsBcf_UkaliqModifierDot" unicode="&#xf1d0b;&#x331;" 
d="M637 704l-141 -704h-54l141 704h54zM268 704l-74 -370h-53l74 370h53zM366 -170q-11 31 13 62t60 31q35 0 47 -31t-12 -62t-60 -31t-48 31z" />
    <glyph glyph-name="UkaliqPatternSegmentsBe_UkaliqModifierDot" unicode="&#xf1d0c;&#x331;" 
d="M637 704l-74 -370h-54l74 370h54zM201 369l-73 -369h-54l74 369h53zM355 -170q-12 31 12 62t60 31t48 -31q11 -31 -13 -62t-60 -31q-35 0 -47 31z" />
    <glyph glyph-name="UkaliqPatternSegmentsBce_UkaliqModifierDot" unicode="&#xf1d0d;&#x331;" 
d="M637 704l-141 -704h-54l141 704h54zM201 369l-73 -369h-54l74 369h53zM366 -170q-11 31 13 62t60 31q35 0 47 -31t-12 -62t-60 -31t-48 31z" />
    <glyph glyph-name="UkaliqPatternSegmentsBef_UkaliqModifierDot" unicode="&#xf1d0e;&#x331;" 
d="M268 704l-140 -704h-54l141 704h53zM637 704l-74 -370h-54l74 370h54zM355 -170q-12 31 12 62t60 31t48 -31q11 -31 -13 -62t-60 -31q-35 0 -47 31z" />
    <glyph glyph-name="UkaliqPatternSegmentsBcef_UkaliqModifierDot" unicode="&#xf1d0f;&#x331;" 
d="M637 704l-141 -704h-54l141 704h54zM268 704l-140 -704h-54l141 704h53zM366 -170q-11 31 13 62t60 31q35 0 47 -31t-12 -62t-60 -31t-48 31z" />
    <glyph glyph-name="UkaliqPatternSegmentsD_UkaliqModifierDot" unicode="&#xf1d10;&#x331;" 
d="M89 47h413l-10 -47h-412zM355 -170q-12 31 12 62t60 31t48 -31q11 -31 -13 -62t-60 -31q-35 0 -47 31z" />
    <glyph glyph-name="UkaliqPatternSegmentsCd_UkaliqModifierDot" unicode="&#xf1d11;&#x331;" 
d="M355 -170q-12 31 12 62t60 31t48 -31q11 -31 -13 -62t-60 -31q-35 0 -47 31zM570 369l-35 -176q-39 -193 -261 -193h-195l7 35h195q168 0 200 158l35 176h54z" />
    <glyph glyph-name="UkaliqPatternSegmentsDf_UkaliqModifierDot" unicode="&#xf1d12;&#x331;" 
d="M89 47h413l-10 -47h-412zM268 704l-74 -370h-53l74 370h53zM355 -170q-12 31 12 62t60 31t48 -31q11 -31 -13 -62t-60 -31q-35 0 -47 31z" />
    <glyph glyph-name="UkaliqPatternSegmentsCdf_UkaliqModifierDot" unicode="&#xf1d13;&#x331;" 
d="M268 704l-74 -370h-53l74 370h53zM355 -170q-12 31 12 62t60 31t48 -31q11 -31 -13 -62t-60 -31q-35 0 -47 31zM570 369l-35 -176q-39 -193 -261 -193h-195l7 35h195q168 0 200 158l35 176h54z" />
    <glyph glyph-name="UkaliqPatternSegmentsDe_UkaliqModifierDot" unicode="&#xf1d14;&#x331;" 
d="M201 369l-66 -334h363l-7 -35h-417l74 369h53zM355 -170q-12 31 12 62t60 31t48 -31q11 -31 -13 -62t-60 -31q-35 0 -47 31z" />
    <glyph glyph-name="UkaliqPatternSegmentsCde_UkaliqModifierDot" unicode="&#xf1d15;&#x331;" 
d="M201 369l-66 -334h157q157 0 189 158l35 176h54l-35 -176q-39 -193 -250 -193h-211l74 369h53zM355 -170q-12 31 12 62t60 31t48 -31q11 -31 -13 -62t-60 -31q-35 0 -47 31z" />
    <glyph glyph-name="UkaliqPatternSegmentsDef_UkaliqModifierDot" unicode="&#xf1d16;&#x331;" 
d="M268 704l-133 -669h363l-7 -35h-417l141 704h53zM355 -170q-12 31 12 62t60 31t48 -31q11 -31 -13 -62t-60 -31q-35 0 -47 31z" />
    <glyph glyph-name="UkaliqPatternSegmentsCdef_UkaliqModifierDot" unicode="&#xf1d17;&#x331;" 
d="M268 704l-133 -669h157q157 0 189 158l35 176h54l-35 -176q-39 -193 -250 -193h-211l141 704h53zM355 -170q-12 31 12 62t60 31t48 -31q11 -31 -13 -62t-60 -31q-35 0 -47 31z" />
    <glyph glyph-name="UkaliqPatternSegmentsBd_UkaliqModifierDot" unicode="&#xf1d18;&#x331;" 
d="M89 47h413l-10 -47h-412zM637 704l-74 -370h-54l74 370h54zM355 -170q-12 31 12 62t60 31t48 -31q11 -31 -13 -62t-60 -31q-35 0 -47 31z" />
    <glyph glyph-name="UkaliqPatternSegmentsBcd_UkaliqModifierDot" unicode="&#xf1d19;&#x331;" 
d="M637 704l-69 -343q-72 -361 -294 -361h-195l7 35h195q168 0 233 326l69 343h54zM355 -170q-12 31 12 62t60 31t48 -31q11 -31 -13 -62t-60 -31q-35 0 -47 31z" />
    <glyph glyph-name="UkaliqPatternSegmentsBdf_UkaliqModifierDot" unicode="&#xf1d1a;&#x331;" 
d="M89 47h413l-10 -47h-412zM268 704l-74 -370h-53l74 370h53zM637 704l-74 -370h-54l74 370h54zM355 -170q-12 31 12 62t60 31t48 -31q11 -31 -13 -62t-60 -31q-35 0 -47 31z" />
    <glyph glyph-name="UkaliqPatternSegmentsBcdf_UkaliqModifierDot" unicode="&#xf1d1b;&#x331;" 
d="M268 704l-74 -370h-53l74 370h53zM637 704l-69 -343q-72 -361 -294 -361h-195l7 35h195q168 0 233 326l69 343h54zM355 -170q-12 31 12 62t60 31t48 -31q11 -31 -13 -62t-60 -31q-35 0 -47 31z" />
    <glyph glyph-name="UkaliqPatternSegmentsBde_UkaliqModifierDot" unicode="&#xf1d1c;&#x331;" 
d="M201 369l-66 -334h363l-7 -35h-417l74 369h53zM637 704l-74 -370h-54l74 370h54zM355 -170q-12 31 12 62t60 31t48 -31q11 -31 -13 -62t-60 -31q-35 0 -47 31z" />
    <glyph glyph-name="UkaliqPatternSegmentsBcde_UkaliqModifierDot" unicode="&#xf1d1d;&#x331;" 
d="M637 704l-69 -343q-72 -361 -283 -361h-211l74 369h53l-66 -334h157q157 0 222 326l69 343h54zM355 -170q-12 31 12 62t60 31t48 -31q11 -31 -13 -62t-60 -31q-35 0 -47 31z" />
    <glyph glyph-name="UkaliqPatternSegmentsBdef_UkaliqModifierDot" unicode="&#xf1d1e;&#x331;" 
d="M268 704l-133 -669h363l-7 -35h-417l141 704h53zM637 704l-74 -370h-54l74 370h54zM355 -170q-12 31 12 62t60 31t48 -31q11 -31 -13 -62t-60 -31q-35 0 -47 31z" />
    <glyph glyph-name="UkaliqPatternSegmentsBcdef_UkaliqModifierDot" unicode="&#xf1d1f;&#x331;" 
d="M268 704l-133 -669h157q157 0 222 326l69 343h54l-69 -343q-72 -361 -283 -361h-211l141 704h53zM355 -170q-12 31 12 62t60 31t48 -31q11 -31 -13 -62t-60 -31q-35 0 -47 31z" />
    <glyph glyph-name="UkaliqPatternSegmentsA_UkaliqModifierDot" unicode="&#xf1d20;&#x331;" 
d="M355 -170q-12 31 12 62t60 31t48 -31q11 -31 -13 -62t-60 -31q-35 0 -47 31zM221 704h412l-9 -47h-413z" />
    <glyph glyph-name="UkaliqPatternSegmentsAc_UkaliqModifierDot" unicode="&#xf1d21;&#x331;" 
d="M570 369l-74 -369h-54l74 369h54zM366 -170q-11 31 13 62t60 31q35 0 47 -31t-12 -62t-60 -31t-48 31zM221 704h412l-9 -47h-413z" />
    <glyph glyph-name="UkaliqPatternSegmentsAf_UkaliqModifierDot" unicode="&#xf1d22;&#x331;" 
d="M624 668h-195q-168 0 -199 -158l-36 -176h-53l35 176q39 194 260 194h195zM355 -170q-12 31 12 62t60 31t48 -31q11 -31 -13 -62t-60 -31q-35 0 -47 31z" />
    <glyph glyph-name="UkaliqPatternSegmentsAcf_UkaliqModifierDot" unicode="&#xf1d23;&#x331;" 
d="M570 369l-74 -369h-54l74 369h54zM624 668h-195q-168 0 -199 -158l-36 -176h-53l35 176q39 194 260 194h195zM366 -170q-11 31 13 62t60 31q35 0 47 -31t-12 -62t-60 -31t-48 31z" />
    <glyph glyph-name="UkaliqPatternSegmentsAe_UkaliqModifierDot" unicode="&#xf1d24;&#x331;" 
d="M201 369l-73 -369h-54l74 369h53zM355 -170q-12 31 12 62t60 31t48 -31q11 -31 -13 -62t-60 -31q-35 0 -47 31zM221 704h412l-9 -47h-413z" />
    <glyph glyph-name="UkaliqPatternSegmentsAce_UkaliqModifierDot" unicode="&#xf1d25;&#x331;" 
d="M570 369l-74 -369h-54l74 369h54zM201 369l-73 -369h-54l74 369h53zM366 -170q-11 31 13 62t60 31q35 0 47 -31t-12 -62t-60 -31t-48 31zM221 704h412l-9 -47h-413z" />
    <glyph glyph-name="UkaliqPatternSegmentsAef_UkaliqModifierDot" unicode="&#xf1d26;&#x331;" 
d="M624 668h-195q-168 0 -233 -325l-68 -343h-54l68 343q73 361 294 361h195zM355 -170q-12 31 12 62t60 31t48 -31q11 -31 -13 -62t-60 -31q-35 0 -47 31z" />
    <glyph glyph-name="UkaliqPatternSegmentsAcef_UkaliqModifierDot" unicode="&#xf1d27;&#x331;" 
d="M624 668h-195q-168 0 -233 -325l-68 -343h-54l68 343q73 361 294 361h195zM570 369l-74 -369h-54l74 369h54zM366 -170q-11 31 13 62t60 31q35 0 47 -31t-12 -62t-60 -31t-48 31z" />
    <glyph glyph-name="UkaliqPatternSegmentsAb_UkaliqModifierDot" unicode="&#xf1d28;&#x331;" 
d="M220 704q417 0 343 -370h-54q67 334 -296 334zM355 -170q-12 31 12 62t60 31t48 -31q11 -31 -13 -62t-60 -31q-35 0 -47 31z" />
    <glyph glyph-name="UkaliqPatternSegmentsAbc_UkaliqModifierDot" unicode="&#xf1d29;&#x331;" 
d="M220 704q417 0 276 -704h-54q134 668 -229 668zM366 -170q-11 31 13 62t60 31q35 0 47 -31t-12 -62t-60 -31t-48 31z" />
    <glyph glyph-name="UkaliqPatternSegmentsAbf_UkaliqModifierDot" unicode="&#xf1d2a;&#x331;" 
d="M141 334l35 176q39 194 188 194q273 0 199 -370h-54q67 334 -152 334q-96 0 -127 -158l-36 -176h-53zM355 -170q-12 31 12 62t60 31t48 -31q11 -31 -13 -62t-60 -31q-35 0 -47 31z" />
    <glyph glyph-name="UkaliqPatternSegmentsAbcf_UkaliqModifierDot" unicode="&#xf1d2b;&#x331;" 
d="M141 334l35 176q39 194 188 194q273 0 132 -704h-54q134 668 -85 668q-96 0 -127 -158l-36 -176h-53zM366 -170q-11 31 13 62t60 31q35 0 47 -31t-12 -62t-60 -31t-48 31z" />
    <glyph glyph-name="UkaliqPatternSegmentsAbe_UkaliqModifierDot" unicode="&#xf1d2c;&#x331;" 
d="M220 704q417 0 343 -370h-54q67 334 -296 334zM201 369l-73 -369h-54l74 369h53zM355 -170q-12 31 12 62t60 31t48 -31q11 -31 -13 -62t-60 -31q-35 0 -47 31z" />
    <glyph glyph-name="UkaliqPatternSegmentsAbce_UkaliqModifierDot" unicode="&#xf1d2d;&#x331;" 
d="M220 704q417 0 276 -704h-54q134 668 -229 668zM201 369l-73 -369h-54l74 369h53zM366 -170q-11 31 13 62t60 31q35 0 47 -31t-12 -62t-60 -31t-48 31z" />
    <glyph glyph-name="UkaliqPatternSegmentsAbef_UkaliqModifierDot" unicode="&#xf1d2e;&#x331;" 
d="M509 334q67 334 -152 334q-96 0 -161 -325l-68 -343h-54l68 343q73 361 222 361q273 0 199 -370h-54zM355 -170q-12 31 12 62t60 31t48 -31q11 -31 -13 -62t-60 -31q-35 0 -47 31z" />
    <glyph glyph-name="UkaliqPatternSegmentsAbcef_UkaliqModifierDot" unicode="&#xf1d2f;&#x331;" 
d="M74 0l68 343q73 361 222 361q273 0 132 -704h-54q134 668 -85 668q-96 0 -161 -325l-68 -343h-54zM366 -170q-11 31 13 62t60 31q35 0 47 -31t-12 -62t-60 -31t-48 31z" />
    <glyph glyph-name="UkaliqPatternSegmentsAd_UkaliqModifierDot" unicode="&#xf1d30;&#x331;" 
d="M89 47h413l-10 -47h-412zM355 -170q-12 31 12 62t60 31t48 -31q11 -31 -13 -62t-60 -31q-35 0 -47 31zM221 704h412l-9 -47h-413z" />
    <glyph glyph-name="UkaliqPatternSegmentsAcd_UkaliqModifierDot" unicode="&#xf1d31;&#x331;" 
d="M355 -170q-12 31 12 62t60 31t48 -31q11 -31 -13 -62t-60 -31q-35 0 -47 31zM570 369l-35 -176q-39 -193 -261 -193h-195l7 35h195q168 0 200 158l35 176h54zM221 704h412l-9 -47h-413z" />
    <glyph glyph-name="UkaliqPatternSegmentsAdf_UkaliqModifierDot" unicode="&#xf1d32;&#x331;" 
d="M89 47h413l-10 -47h-412zM624 668h-195q-168 0 -199 -158l-36 -176h-53l35 176q39 194 260 194h195zM355 -170q-12 31 12 62t60 31t48 -31q11 -31 -13 -62t-60 -31q-35 0 -47 31z" />
    <glyph glyph-name="UkaliqPatternSegmentsAcdf_UkaliqModifierDot" unicode="&#xf1d33;&#x331;" 
d="M624 668h-195q-168 0 -199 -158l-36 -176h-53l35 176q39 194 260 194h195zM355 -170q-12 31 12 62t60 31t48 -31q11 -31 -13 -62t-60 -31q-35 0 -47 31zM570 369l-35 -176q-39 -193 -261 -193h-195l7 35h195q168 0 200 158l35 176h54z" />
    <glyph glyph-name="UkaliqPatternSegmentsAde_UkaliqModifierDot" unicode="&#xf1d34;&#x331;" 
d="M201 369l-66 -334h363l-7 -35h-417l74 369h53zM355 -170q-12 31 12 62t60 31t48 -31q11 -31 -13 -62t-60 -31q-35 0 -47 31zM221 704h412l-9 -47h-413z" />
    <glyph glyph-name="UkaliqPatternSegmentsAcde_UkaliqModifierDot" unicode="&#xf1d35;&#x331;" 
d="M201 369l-66 -334h157q157 0 189 158l35 176h54l-35 -176q-39 -193 -250 -193h-211l74 369h53zM355 -170q-12 31 12 62t60 31t48 -31q11 -31 -13 -62t-60 -31q-35 0 -47 31zM221 704h412l-9 -47h-413z" />
    <glyph glyph-name="UkaliqPatternSegmentsAdef_UkaliqModifierDot" unicode="&#xf1d36;&#x331;" 
d="M624 668h-195q-168 0 -231 -316l-63 -317h363l-7 -35h-417l70 352q71 352 292 352h195zM355 -170q-12 31 12 62t60 31t48 -31q11 -31 -13 -62t-60 -31q-35 0 -47 31z" />
    <glyph glyph-name="UkaliqPatternSegmentsAcdef_UkaliqModifierDot" unicode="&#xf1d37;&#x331;" 
d="M624 668h-195q-168 0 -231 -316l-63 -317h157q157 0 189 158l35 176h54l-35 -176q-39 -193 -250 -193h-211l70 352q71 352 292 352h195zM355 -170q-12 31 12 62t60 31t48 -31q11 -31 -13 -62t-60 -31q-35 0 -47 31z" />
    <glyph glyph-name="UkaliqPatternSegmentsAbd_UkaliqModifierDot" unicode="&#xf1d38;&#x331;" 
d="M89 47h413l-10 -47h-412zM220 704q417 0 343 -370h-54q67 334 -296 334zM355 -170q-12 31 12 62t60 31t48 -31q11 -31 -13 -62t-60 -31q-35 0 -47 31z" />
    <glyph glyph-name="UkaliqPatternSegmentsAbcd_UkaliqModifierDot" unicode="&#xf1d39;&#x331;" 
d="M220 704q417 0 324 -464q-48 -240 -270 -240h-195l7 35h195q168 0 209 205q86 428 -277 428zM355 -170q-12 31 12 62t60 31t48 -31q11 -31 -13 -62t-60 -31q-35 0 -47 31z" />
    <glyph glyph-name="UkaliqPatternSegmentsAbdf_UkaliqModifierDot" unicode="&#xf1d3a;&#x331;" 
d="M89 47h413l-10 -47h-412zM141 334l35 176q39 194 188 194q273 0 199 -370h-54q67 334 -152 334q-96 0 -127 -158l-36 -176h-53zM355 -170q-12 31 12 62t60 31t48 -31q11 -31 -13 -62t-60 -31q-35 0 -47 31z" />
    <glyph glyph-name="UkaliqPatternSegmentsAbcdf_UkaliqModifierDot" unicode="&#xf1d3b;&#x331;" 
d="M141 334l35 176q39 194 188 194q273 0 180 -464q-48 -240 -270 -240h-195l7 35h195q168 0 209 205q86 428 -133 428q-96 0 -127 -158l-36 -176h-53zM355 -170q-12 31 12 62t60 31t48 -31q11 -31 -13 -62t-60 -31q-35 0 -47 31z" />
    <glyph glyph-name="UkaliqPatternSegmentsAbde_UkaliqModifierDot" unicode="&#xf1d3c;&#x331;" 
d="M220 704q417 0 343 -370h-54q67 334 -296 334zM201 369l-66 -334h363l-7 -35h-417l74 369h53zM355 -170q-12 31 12 62t60 31t48 -31q11 -31 -13 -62t-60 -31q-35 0 -47 31z" />
    <glyph glyph-name="UkaliqPatternSegmentsAbcde_UkaliqModifierDot" unicode="&#xf1d3d;&#x331;" 
d="M220 704q417 0 324 -464q-48 -240 -259 -240h-211l74 369h53l-66 -334h157q157 0 198 205q86 428 -277 428zM355 -170q-12 31 12 62t60 31t48 -31q11 -31 -13 -62t-60 -31q-35 0 -47 31z" />
    <glyph glyph-name="UkaliqPatternSegmentsAbdef_UkaliqModifierDot" unicode="&#xf1d3e;&#x331;" 
d="M509 334q67 334 -152 334q-96 0 -159 -316l-63 -317h363l-7 -35h-417l70 352q71 352 220 352q273 0 199 -370h-54zM355 -170q-12 31 12 62t60 31t48 -31q11 -31 -13 -62t-60 -31q-35 0 -47 31z" />
    <glyph glyph-name="UkaliqPatternSegmentsAbcdef_UkaliqModifierDot" unicode="&#xf1d3f;&#x331;" 
d="M355 -170q-12 31 12 62t60 31t48 -31q11 -31 -13 -62t-60 -31q-35 0 -47 31zM198 352l-63 -317h157q157 0 198 205q86 428 -133 428q-96 0 -159 -316zM144 352q71 352 220 352q273 0 180 -464q-48 -240 -259 -240h-211z" />
    <glyph glyph-name="UkaliqPatternSegmentsG_UkaliqModifierDot" unicode="&#xf1d40;&#x331;" 
d="M155 375h412l-9 -47h-412zM355 -170q-12 31 12 62t60 31t48 -31q11 -31 -13 -62t-60 -31q-35 0 -47 31z" />
    <glyph glyph-name="UkaliqPatternSegmentsCg_UkaliqModifierDot" unicode="&#xf1d41;&#x331;" 
d="M153 369h195q222 0 183 -193l-35 -176h-54l35 176q32 158 -136 158h-195zM366 -170q-11 31 13 62t60 31q35 0 47 -31t-12 -62t-60 -31t-48 31z" />
    <glyph glyph-name="UkaliqPatternSegmentsFg_UkaliqModifierDot" unicode="&#xf1d42;&#x331;" 
d="M268 704l-35 -176q-32 -159 137 -159h194l-7 -35h-194q-222 0 -184 194l36 176h53zM355 -170q-12 31 12 62t60 31t48 -31q11 -31 -13 -62t-60 -31q-35 0 -47 31z" />
    <glyph glyph-name="UkaliqPatternSegmentsCfg_UkaliqModifierDot" unicode="&#xf1d43;&#x331;" 
d="M366 -170q-11 31 13 62t60 31q35 0 47 -31t-12 -62t-60 -31t-48 31zM268 704l-35 -176q-32 -159 126 -159h211l-74 -369h-54l67 334h-157q-211 0 -173 194l36 176h53z" />
    <glyph glyph-name="UkaliqPatternSegmentsEg_UkaliqModifierDot" unicode="&#xf1d44;&#x331;" 
d="M557 334h-194q-169 0 -200 -158l-35 -176h-54l35 176q39 193 261 193h194zM355 -170q-12 31 12 62t60 31t48 -31q11 -31 -13 -62t-60 -31q-35 0 -47 31z" />
    <glyph glyph-name="UkaliqPatternSegmentsCeg_UkaliqModifierDot" unicode="&#xf1d45;&#x331;" 
d="M74 0l35 176q39 193 250 193t172 -193l-35 -176h-54l35 176q32 158 -125 158q-158 0 -189 -158l-35 -176h-54zM366 -170q-11 31 13 62t60 31q35 0 47 -31t-12 -62t-60 -31t-48 31z" />
    <glyph glyph-name="UkaliqPatternSegmentsEfg_UkaliqModifierDot" unicode="&#xf1d46;&#x331;" 
d="M355 -170q-12 31 12 62t60 31t48 -31q11 -31 -13 -62t-60 -31q-35 0 -47 31zM268 704l-52 -264l-15 -71h363l-7 -35h-363l-14 -70l-52 -264h-54l53 264l35 176l53 264h53z" />
    <glyph glyph-name="UkaliqPatternSegmentsCefg_UkaliqModifierDot" unicode="&#xf1d47;&#x331;" 
d="M366 -170q-11 31 13 62t60 31q35 0 47 -31t-12 -62t-60 -31t-48 31zM268 704l-52 -264l-15 -71h158q211 0 172 -193l-35 -176h-54l35 176q32 158 -125 158h-158l-14 -70l-52 -264h-54l53 264l35 176l53 264h53z" />
    <glyph glyph-name="UkaliqPatternSegmentsBg_UkaliqModifierDot" unicode="&#xf1d48;&#x331;" 
d="M637 704l-35 -176q-39 -194 -261 -194h-195l7 35h195q168 0 200 159l35 176h54zM355 -170q-12 31 12 62t60 31t48 -31q11 -31 -13 -62t-60 -31q-35 0 -47 31z" />
    <glyph glyph-name="UkaliqPatternSegmentsBcg_UkaliqModifierDot" unicode="&#xf1d49;&#x331;" 
d="M637 704l-53 -264l-35 -176l-53 -264h-54l53 264l14 70h-363l7 35h363l14 71l53 264h54zM366 -170q-11 31 13 62t60 31q35 0 47 -31t-12 -62t-60 -31t-48 31z" />
    <glyph glyph-name="UkaliqPatternSegmentsBfg_UkaliqModifierDot" unicode="&#xf1d4a;&#x331;" 
d="M268 704l-35 -176q-32 -159 126 -159q157 0 189 159l35 176h54l-35 -176q-39 -194 -250 -194t-173 194l36 176h53zM355 -170q-12 31 12 62t60 31t48 -31q11 -31 -13 -62t-60 -31q-35 0 -47 31z" />
    <glyph glyph-name="UkaliqPatternSegmentsBcfg_UkaliqModifierDot" unicode="&#xf1d4b;&#x331;" 
d="M366 -170q-11 31 13 62t60 31q35 0 47 -31t-12 -62t-60 -31t-48 31zM268 704l-35 -176q-32 -159 126 -159h157l14 71l53 264h54l-53 -264l-35 -176l-53 -264h-54l53 264l14 70h-157q-211 0 -173 194l36 176h53z" />
    <glyph glyph-name="UkaliqPatternSegmentsBeg_UkaliqModifierDot" unicode="&#xf1d4c;&#x331;" 
d="M637 704l-35 -176q-39 -194 -250 -194h-158l-66 -334h-54l74 369h211q157 0 189 159l35 176h54zM355 -170q-12 31 12 62t60 31t48 -31q11 -31 -13 -62t-60 -31q-35 0 -47 31z" />
    <glyph glyph-name="UkaliqPatternSegmentsBceg_UkaliqModifierDot" unicode="&#xf1d4d;&#x331;" 
d="M637 704l-53 -264l-35 -176l-53 -264h-54l53 264l14 70h-157q-158 0 -189 -158l-35 -176h-54l35 176q39 193 250 193h157l14 71l53 264h54zM366 -170q-11 31 13 62t60 31q35 0 47 -31t-12 -62t-60 -31t-48 31z" />
    <glyph glyph-name="UkaliqPatternSegmentsBefg_UkaliqModifierDot" unicode="&#xf1d4e;&#x331;" 
d="M355 -170q-12 31 12 62t60 31t48 -31q11 -31 -13 -62t-60 -31q-35 0 -47 31zM637 704l-35 -176q-39 -194 -250 -194h-158l-14 -70l-52 -264h-54l53 264l35 176l53 264h53l-52 -264l-15 -71h158q157 0 189 159l35 176h54z" />
    <glyph glyph-name="UkaliqPatternSegmentsBcefg_UkaliqModifierDot" unicode="&#xf1d4f;&#x331;" 
d="M366 -170q-11 31 13 62t60 31q35 0 47 -31t-12 -62t-60 -31t-48 31zM637 704l-53 -264l-35 -176l-53 -264h-54l53 264l14 70h-315l-14 -70l-52 -264h-54l53 264l35 176l53 264h53l-52 -264l-15 -71h315l14 71l53 264h54z" />
    <glyph glyph-name="UkaliqPatternSegmentsDg_UkaliqModifierDot" unicode="&#xf1d50;&#x331;" 
d="M89 47h413l-10 -47h-412zM155 375h412l-9 -47h-412zM355 -170q-12 31 12 62t60 31t48 -31q11 -31 -13 -62t-60 -31q-35 0 -47 31z" />
    <glyph glyph-name="UkaliqPatternSegmentsCdg_UkaliqModifierDot" unicode="&#xf1d51;&#x331;" 
d="M153 369h195q222 0 185 -184q-37 -185 -259 -185h-195l7 35h195q168 0 198 150q30 149 -138 149h-195zM355 -170q-12 31 12 62t60 31t48 -31q11 -31 -13 -62t-60 -31q-35 0 -47 31z" />
    <glyph glyph-name="UkaliqPatternSegmentsDfg_UkaliqModifierDot" unicode="&#xf1d52;&#x331;" 
d="M268 704l-35 -176q-32 -159 137 -159h194l-7 -35h-194q-222 0 -184 194l36 176h53zM89 47h413l-10 -47h-412zM355 -170q-12 31 12 62t60 31t48 -31q11 -31 -13 -62t-60 -31q-35 0 -47 31z" />
    <glyph glyph-name="UkaliqPatternSegmentsCdfg_UkaliqModifierDot" unicode="&#xf1d53;&#x331;" 
d="M355 -170q-12 31 12 62t60 31t48 -31q11 -31 -13 -62t-60 -31q-35 0 -47 31zM268 704l-35 -176q-32 -159 126 -159h211l-37 -184q-37 -185 -259 -185h-195l7 35h195q168 0 198 150l30 149h-157q-211 0 -173 194l36 176h53z" />
    <glyph glyph-name="UkaliqPatternSegmentsDeg_UkaliqModifierDot" unicode="&#xf1d54;&#x331;" 
d="M557 334h-194q-169 0 -198 -149l-30 -150h363l-7 -35h-417l37 185q37 184 259 184h194zM355 -170q-12 31 12 62t60 31t48 -31q11 -31 -13 -62t-60 -31q-35 0 -47 31z" />
    <glyph glyph-name="UkaliqPatternSegmentsCdeg_UkaliqModifierDot" unicode="&#xf1d55;&#x331;" 
d="M355 -170q-12 31 12 62t60 31t48 -31q11 -31 -13 -62t-60 -31q-35 0 -47 31zM165 185l-30 -150h157q157 0 187 150q30 149 -127 149q-158 0 -187 -149zM111 185q37 184 248 184t174 -184q-37 -185 -248 -185h-211z" />
    <glyph glyph-name="UkaliqPatternSegmentsDefg_UkaliqModifierDot" unicode="&#xf1d56;&#x331;" 
d="M355 -170q-12 31 12 62t60 31t48 -31q11 -31 -13 -62t-60 -31q-35 0 -47 31zM268 704l-52 -264l-14 -71h362l-7 -35h-363l-13 -66l-46 -233h363l-7 -35h-417l54 268l34 172l53 264h53z" />
    <glyph glyph-name="UkaliqPatternSegmentsCdefg_UkaliqModifierDot" unicode="&#xf1d57;&#x331;" 
d="M355 -170q-12 31 12 62t60 31t48 -31q11 -31 -13 -62t-60 -31q-35 0 -47 31zM268 704l-52 -264l-14 -71h157q211 0 174 -184q-37 -185 -248 -185h-211l54 268l34 172l53 264h53zM194 334l-13 -66l-46 -233h157q157 0 187 150q30 149 -127 149h-158z" />
    <glyph glyph-name="UkaliqPatternSegmentsBdg_UkaliqModifierDot" unicode="&#xf1d58;&#x331;" 
d="M89 47h413l-10 -47h-412zM637 704l-35 -176q-39 -194 -261 -194h-195l7 35h195q168 0 200 159l35 176h54zM355 -170q-12 31 12 62t60 31t48 -31q11 -31 -13 -62t-60 -31q-35 0 -47 31z" />
    <glyph glyph-name="UkaliqPatternSegmentsBcdg_UkaliqModifierDot" unicode="&#xf1d59;&#x331;" 
d="M637 704l-53 -264l-34 -172l-17 -83q-37 -185 -259 -185h-195l7 35h195q168 0 198 150l17 83l13 66h-363l7 35h363l14 71l53 264h54zM355 -170q-12 31 12 62t60 31t48 -31q11 -31 -13 -62t-60 -31q-35 0 -47 31z" />
    <glyph glyph-name="UkaliqPatternSegmentsBdfg_UkaliqModifierDot" unicode="&#xf1d5a;&#x331;" 
d="M268 704l-35 -176q-32 -159 126 -159q157 0 189 159l35 176h54l-35 -176q-39 -194 -250 -194t-173 194l36 176h53zM89 47h413l-10 -47h-412zM355 -170q-12 31 12 62t60 31t48 -31q11 -31 -13 -62t-60 -31q-35 0 -47 31z" />
    <glyph glyph-name="UkaliqPatternSegmentsBcdfg_UkaliqModifierDot" unicode="&#xf1d5b;&#x331;" 
d="M355 -170q-12 31 12 62t60 31t48 -31q11 -31 -13 -62t-60 -31q-35 0 -47 31zM268 704l-35 -176q-32 -159 126 -159h157l14 71l53 264h54l-53 -264l-34 -172l-17 -83q-37 -185 -259 -185h-195l7 35h195q168 0 198 150l17 83l13 66h-157q-211 0 -173 194l36 176h53z" />
    <glyph glyph-name="UkaliqPatternSegmentsBdeg_UkaliqModifierDot" unicode="&#xf1d5c;&#x331;" 
d="M637 704l-35 -176q-39 -194 -250 -194h-158l-59 -299h363l-7 -35h-417l74 369h211q157 0 189 159l35 176h54zM355 -170q-12 31 12 62t60 31t48 -31q11 -31 -13 -62t-60 -31q-35 0 -47 31z" />
    <glyph glyph-name="UkaliqPatternSegmentsBcdeg_UkaliqModifierDot" unicode="&#xf1d5d;&#x331;" 
d="M637 704l-53 -264l-34 -172l-17 -83q-37 -185 -248 -185h-211l37 185q37 184 248 184h157l14 71l53 264h54zM355 -170q-12 31 12 62t60 31t48 -31q11 -31 -13 -62t-60 -31q-35 0 -47 31zM509 334h-157q-158 0 -187 -149l-30 -150h157q157 0 187 150l17 83z" />
    <glyph glyph-name="UkaliqPatternSegmentsBdefg_UkaliqModifierDot" unicode="&#xf1d5e;&#x331;" 
d="M355 -170q-12 31 12 62t60 31t48 -31q11 -31 -13 -62t-60 -31q-35 0 -47 31zM637 704l-35 -176q-39 -194 -250 -194h-158l-13 -66l-46 -233h363l-7 -35h-417l54 268l34 172l53 264h53l-52 -264l-14 -71h157q157 0 189 159l35 176h54z" />
    <glyph glyph-name="UkaliqPatternSegmentsBcdefg_UkaliqModifierDot" unicode="&#xf1d5f;&#x331;" 
d="M355 -170q-12 31 12 62t60 31t48 -31q11 -31 -13 -62t-60 -31q-35 0 -47 31zM268 704l-52 -264l-14 -71h314l14 71l53 264h54l-53 -264l-34 -172l-17 -83q-37 -185 -248 -185h-211l54 268l34 172l53 264h53zM509 334h-315l-13 -66l-46 -233h157q157 0 187 150l17 83z" />
    <glyph glyph-name="UkaliqPatternSegmentsAg_UkaliqModifierDot" unicode="&#xf1d60;&#x331;" 
d="M155 375h412l-9 -47h-412zM355 -170q-12 31 12 62t60 31t48 -31q11 -31 -13 -62t-60 -31q-35 0 -47 31zM221 704h412l-9 -47h-413z" />
    <glyph glyph-name="UkaliqPatternSegmentsAcg_UkaliqModifierDot" unicode="&#xf1d61;&#x331;" 
d="M153 369h195q222 0 183 -193l-35 -176h-54l35 176q32 158 -136 158h-195zM366 -170q-11 31 13 62t60 31q35 0 47 -31t-12 -62t-60 -31t-48 31zM221 704h412l-9 -47h-413z" />
    <glyph glyph-name="UkaliqPatternSegmentsAfg_UkaliqModifierDot" unicode="&#xf1d62;&#x331;" 
d="M624 668h-195q-168 0 -198 -149q-30 -150 139 -150h194l-7 -35h-194q-222 0 -185 185t258 185h195zM355 -170q-12 31 12 62t60 31t48 -31q11 -31 -13 -62t-60 -31q-35 0 -47 31z" />
    <glyph glyph-name="UkaliqPatternSegmentsAcfg_UkaliqModifierDot" unicode="&#xf1d63;&#x331;" 
d="M366 -170q-11 31 13 62t60 31q35 0 47 -31t-12 -62t-60 -31t-48 31zM624 668h-195q-168 0 -198 -149q-30 -150 128 -150h211l-74 -369h-54l67 334h-157q-211 0 -174 185t258 185h195z" />
    <glyph glyph-name="UkaliqPatternSegmentsAeg_UkaliqModifierDot" unicode="&#xf1d64;&#x331;" 
d="M557 334h-194q-169 0 -200 -158l-35 -176h-54l35 176q39 193 261 193h194zM355 -170q-12 31 12 62t60 31t48 -31q11 -31 -13 -62t-60 -31q-35 0 -47 31zM221 704h412l-9 -47h-413z" />
    <glyph glyph-name="UkaliqPatternSegmentsAceg_UkaliqModifierDot" unicode="&#xf1d65;&#x331;" 
d="M74 0l35 176q39 193 250 193t172 -193l-35 -176h-54l35 176q32 158 -125 158q-158 0 -189 -158l-35 -176h-54zM366 -170q-11 31 13 62t60 31q35 0 47 -31t-12 -62t-60 -31t-48 31zM221 704h412l-9 -47h-413z" />
    <glyph glyph-name="UkaliqPatternSegmentsAefg_UkaliqModifierDot" unicode="&#xf1d66;&#x331;" 
d="M355 -170q-12 31 12 62t60 31t48 -31q11 -31 -13 -62t-60 -31q-35 0 -47 31zM624 668h-195q-168 0 -198 -149l-16 -84l-14 -66h363l-7 -35h-363l-14 -70l-52 -264h-54l53 264l34 171l17 84q37 185 258 185h195z" />
    <glyph glyph-name="UkaliqPatternSegmentsAcefg_UkaliqModifierDot" unicode="&#xf1d67;&#x331;" 
d="M366 -170q-11 31 13 62t60 31q35 0 47 -31t-12 -62t-60 -31t-48 31zM624 668h-195q-168 0 -198 -149l-16 -84l-14 -66h158q211 0 172 -193l-35 -176h-54l35 176q32 158 -125 158h-158l-14 -70l-52 -264h-54l53 264l34 171l17 84q37 185 258 185h195z" />
    <glyph glyph-name="UkaliqPatternSegmentsAbg_UkaliqModifierDot" unicode="&#xf1d68;&#x331;" 
d="M220 704q417 0 369 -241q-26 -129 -248 -129h-195l7 35h195q168 0 187 94q41 205 -322 205zM355 -170q-12 31 12 62t60 31t48 -31q11 -31 -13 -62t-60 -31q-35 0 -47 31z" />
    <glyph glyph-name="UkaliqPatternSegmentsAbcg_UkaliqModifierDot" unicode="&#xf1d69;&#x331;" 
d="M220 704q417 0 360 -285l-31 -155l-53 -264h-54l53 264l14 70h-363l7 35h363l10 50q50 249 -313 249zM366 -170q-11 31 13 62t60 31q35 0 47 -31t-12 -62t-60 -31t-48 31z" />
    <glyph glyph-name="UkaliqPatternSegmentsAbfg_UkaliqModifierDot" unicode="&#xf1d6a;&#x331;" 
d="M355 -170q-12 31 12 62t60 31t48 -31q11 -31 -13 -62t-60 -31q-35 0 -47 31zM231 519q-30 -150 128 -150q157 0 176 94q41 205 -178 205q-96 0 -126 -149zM178 519q37 185 186 185q273 0 225 -241q-26 -129 -237 -129t-174 185z" />
    <glyph glyph-name="UkaliqPatternSegmentsAbcfg_UkaliqModifierDot" unicode="&#xf1d6b;&#x331;" 
d="M366 -170q-11 31 13 62t60 31q35 0 47 -31t-12 -62t-60 -31t-48 31zM516 369l10 50q50 249 -169 249q-96 0 -126 -149q-30 -150 128 -150h157zM509 334h-157q-211 0 -174 185t186 185q273 0 216 -285l-31 -155l-53 -264h-54l53 264z" />
    <glyph glyph-name="UkaliqPatternSegmentsAbeg_UkaliqModifierDot" unicode="&#xf1d6c;&#x331;" 
d="M220 704q417 0 369 -241q-26 -129 -237 -129h-158l-66 -334h-54l74 369h211q157 0 176 94q41 205 -322 205zM355 -170q-12 31 12 62t60 31t48 -31q11 -31 -13 -62t-60 -31q-35 0 -47 31z" />
    <glyph glyph-name="UkaliqPatternSegmentsAbceg_UkaliqModifierDot" unicode="&#xf1d6d;&#x331;" 
d="M220 704q417 0 360 -285l-31 -155l-53 -264h-54l53 264l14 70h-157q-158 0 -189 -158l-35 -176h-54l35 176q39 193 250 193h157l10 50q50 249 -313 249zM366 -170q-11 31 13 62t60 31q35 0 47 -31t-12 -62t-60 -31t-48 31z" />
    <glyph glyph-name="UkaliqPatternSegmentsAbefg_UkaliqModifierDot" unicode="&#xf1d6e;&#x331;" 
d="M355 -170q-12 31 12 62t60 31t48 -31q11 -31 -13 -62t-60 -31q-35 0 -47 31zM194 334l-14 -70l-52 -264h-54l53 264l34 171l17 84q37 185 186 185q273 0 225 -241q-26 -129 -237 -129h-158zM201 369h158q157 0 176 94q41 205 -178 205q-96 0 -126 -149l-16 -84z" />
    <glyph glyph-name="UkaliqPatternSegmentsAbcefg_UkaliqModifierDot" unicode="&#xf1d6f;&#x331;" 
d="M366 -170q-11 31 13 62t60 31q35 0 47 -31t-12 -62t-60 -31t-48 31zM74 0l53 264l34 171l17 84q37 185 186 185q273 0 216 -285l-31 -155l-53 -264h-54l53 264l14 70h-315l-14 -70l-52 -264h-54zM201 369h315l10 50q50 249 -169 249q-96 0 -126 -149l-16 -84z" />
    <glyph glyph-name="UkaliqPatternSegmentsAdg_UkaliqModifierDot" unicode="&#xf1d70;&#x331;" 
d="M89 47h413l-10 -47h-412zM155 375h412l-9 -47h-412zM355 -170q-12 31 12 62t60 31t48 -31q11 -31 -13 -62t-60 -31q-35 0 -47 31zM221 704h412l-9 -47h-413z" />
    <glyph glyph-name="UkaliqPatternSegmentsAcdg_UkaliqModifierDot" unicode="&#xf1d71;&#x331;" 
d="M153 369h195q222 0 185 -184q-37 -185 -259 -185h-195l7 35h195q168 0 198 150q30 149 -138 149h-195zM355 -170q-12 31 12 62t60 31t48 -31q11 -31 -13 -62t-60 -31q-35 0 -47 31zM221 704h412l-9 -47h-413z" />
    <glyph glyph-name="UkaliqPatternSegmentsAdfg_UkaliqModifierDot" unicode="&#xf1d72;&#x331;" 
d="M624 668h-195q-168 0 -198 -149q-30 -150 139 -150h194l-7 -35h-194q-222 0 -185 185t258 185h195zM89 47h413l-10 -47h-412zM355 -170q-12 31 12 62t60 31t48 -31q11 -31 -13 -62t-60 -31q-35 0 -47 31z" />
    <glyph glyph-name="UkaliqPatternSegmentsAcdfg_UkaliqModifierDot" unicode="&#xf1d73;&#x331;" 
d="M355 -170q-12 31 12 62t60 31t48 -31q11 -31 -13 -62t-60 -31q-35 0 -47 31zM605 668h-185q-159 0 -189 -149q-30 -150 128 -150h211l-37 -184q-37 -185 -255 -185h-191l7 35h191q164 0 194 150l30 149h-157q-211 0 -174 185t249 185h185z" />
    <glyph glyph-name="UkaliqPatternSegmentsAdeg_UkaliqModifierDot" unicode="&#xf1d74;&#x331;" 
d="M557 334h-194q-169 0 -198 -149l-30 -150h363l-7 -35h-417l37 185q37 184 259 184h194zM355 -170q-12 31 12 62t60 31t48 -31q11 -31 -13 -62t-60 -31q-35 0 -47 31zM221 704h412l-9 -47h-413z" />
    <glyph glyph-name="UkaliqPatternSegmentsAcdeg_UkaliqModifierDot" unicode="&#xf1d75;&#x331;" 
d="M355 -170q-12 31 12 62t60 31t48 -31q11 -31 -13 -62t-60 -31q-35 0 -47 31zM221 704h412l-9 -47h-413zM165 185l-30 -150h157q157 0 187 150q30 149 -127 149q-158 0 -187 -149zM111 185q37 184 248 184t174 -184q-37 -185 -248 -185h-211z" />
    <glyph glyph-name="UkaliqPatternSegmentsAdefg_UkaliqModifierDot" unicode="&#xf1d76;&#x331;" 
d="M355 -170q-12 31 12 62t60 31t48 -31q11 -31 -13 -62t-60 -31q-35 0 -47 31zM624 668h-195q-168 0 -198 -149l-16 -84l-13 -66h362l-7 -35h-363l-13 -66l-46 -233h363l-7 -35h-417l54 268l33 167l17 84q37 185 258 185h195z" />
    <glyph glyph-name="UkaliqPatternSegmentsAcdefg_UkaliqModifierDot" unicode="&#xf1d77;&#x331;" 
d="M355 -170q-12 31 12 62t60 31t48 -31q11 -31 -13 -62t-60 -31q-35 0 -47 31zM605 668h-185q-159 0 -189 -149l-16 -84l-13 -66h157q211 0 174 -184q-37 -185 -248 -185h-211l54 268l33 167l17 84q37 185 249 185h185zM194 334l-13 -66l-46 -233h157q157 0 187 150
q30 149 -127 149h-158z" />
    <glyph glyph-name="UkaliqPatternSegmentsAbdg_UkaliqModifierDot" unicode="&#xf1d78;&#x331;" 
d="M89 47h413l-10 -47h-412zM220 704q417 0 369 -241q-26 -129 -248 -129h-195l7 35h195q168 0 187 94q41 205 -322 205zM355 -170q-12 31 12 62t60 31t48 -31q11 -31 -13 -62t-60 -31q-35 0 -47 31z" />
    <glyph glyph-name="UkaliqPatternSegmentsAbcdg_UkaliqModifierDot" unicode="&#xf1d79;&#x331;" 
d="M220 704q417 0 360 -285l-30 -151l-17 -83q-37 -185 -259 -185h-195l7 35h195q168 0 198 150l17 83l13 66h-363l7 35h363l10 50q50 249 -313 249zM355 -170q-12 31 12 62t60 31t48 -31q11 -31 -13 -62t-60 -31q-35 0 -47 31z" />
    <glyph glyph-name="UkaliqPatternSegmentsAbdfg_UkaliqModifierDot" unicode="&#xf1d7a;&#x331;" 
d="M89 47h413l-10 -47h-412zM355 -170q-12 31 12 62t60 31t48 -31q11 -31 -13 -62t-60 -31q-35 0 -47 31zM231 519q-30 -150 128 -150q157 0 176 94q41 205 -178 205q-96 0 -126 -149zM178 519q37 185 186 185q273 0 225 -241q-26 -129 -237 -129t-174 185z" />
    <glyph glyph-name="UkaliqPatternSegmentsAbcdfg_UkaliqModifierDot" unicode="&#xf1d7b;&#x331;" 
d="M355 -170q-12 31 12 62t60 31t48 -31q11 -31 -13 -62t-60 -31q-35 0 -47 31zM516 369l10 50q50 249 -169 249q-96 0 -126 -149q-30 -150 128 -150h157zM509 334h-157q-211 0 -174 185t186 185q273 0 216 -285l-30 -151l-17 -83q-37 -185 -255 -185h-191l7 35h191
q164 0 194 150l17 83z" />
    <glyph glyph-name="UkaliqPatternSegmentsAbdeg_UkaliqModifierDot" unicode="&#xf1d7c;&#x331;" 
d="M239 704q398 0 350 -241q-26 -129 -237 -129h-158l-59 -299h355l-7 -35h-409l74 369h211q157 0 176 94q41 205 -303 205zM355 -170q-12 31 12 62t60 31t48 -31q11 -31 -13 -62t-60 -31q-35 0 -47 31z" />
    <glyph glyph-name="UkaliqPatternSegmentsAbcdeg_UkaliqModifierDot" unicode="&#xf1d7d;&#x331;" 
d="M239 704q398 0 341 -285l-30 -151l-17 -83q-37 -185 -248 -185h-211l37 185q37 184 248 184h157l10 50q50 249 -294 249zM355 -170q-12 31 12 62t60 31t48 -31q11 -31 -13 -62t-60 -31q-35 0 -47 31zM509 334h-157q-158 0 -187 -149l-30 -150h157q157 0 187 150l17 83z
" />
    <glyph glyph-name="UkaliqPatternSegmentsAbdefg_UkaliqModifierDot" unicode="&#xf1d7e;&#x331;" 
d="M355 -170q-12 31 12 62t60 31t48 -31q11 -31 -13 -62t-60 -31q-35 0 -47 31zM194 334l-13 -66l-46 -233h355l-7 -35h-409l54 268l33 167l17 84q37 185 186 185q273 0 225 -241q-26 -129 -237 -129h-158zM202 369h157q157 0 176 94q41 205 -178 205q-96 0 -126 -149
l-16 -84z" />
    <glyph glyph-name="UkaliqPatternSegmentsAbcdefg_UkaliqModifierDot" unicode="&#xf1d7f;&#x331;" 
d="M355 -170q-12 31 12 62t60 31t48 -31q11 -31 -13 -62t-60 -31q-35 0 -47 31zM516 369l10 50q50 249 -169 249q-96 0 -126 -149l-16 -84l-13 -66h314zM509 334h-315l-13 -66l-46 -233h157q157 0 187 150l17 83zM178 519q37 185 186 185q273 0 216 -285l-30 -151l-17 -83
q-37 -185 -248 -185h-211l54 268l33 167z" />
    <glyph glyph-name=".notdef" 
d="M89 47h413l-10 -47h-412zM355 -170q-12 31 12 62t60 31t48 -31q11 -31 -13 -62t-60 -31q-35 0 -47 31z" />
    <glyph glyph-name="NULL" horiz-adv-x="0" 
 />
    <glyph glyph-name="uni000D" unicode="&#xd;" horiz-adv-x="0" 
 />
    <glyph glyph-name="uni200D" unicode="&#x200d;" horiz-adv-x="0" 
 />
    <glyph glyph-name="uni200B" unicode="&#x200b;" horiz-adv-x="0" 
 />
    <glyph glyph-name="uni200C" unicode="&#x200c;" horiz-adv-x="0" 
 />
    <glyph glyph-name="uniFEFF" unicode="&#xfeff;" horiz-adv-x="0" 
 />
    <glyph glyph-name="space" unicode=" " 
 />
    <glyph glyph-name="uni00A0" unicode="&#xa0;" 
 />
    <glyph glyph-name="UkaliqModifierDot" unicode="&#x331;" 
d="M355 -170q-12 31 12 62t60 31t48 -31q11 -31 -13 -62t-60 -31q-35 0 -47 31z" />
    <glyph glyph-name="uni2002" unicode="&#x2002;" 
 />
    <glyph glyph-name="uni2007" unicode="&#x2007;" 
 />
    <glyph glyph-name="uni2B1B" unicode="&#x2b1b;" 
d="M0 946h578v-1242h-578v1242z" />
    <glyph glyph-name="UkaliqSpace" unicode="&#xee00;" 
 />
    <glyph glyph-name="UkaliqNumber" unicode="&#xee01;" 
d="M570 369l-74 -369h-54l74 369h54z" />
    <glyph glyph-name="UkaliqRightSingleQuotationMark" unicode="&#xee02;" 
d="M268 704l-74 -370h-53l74 370h53z" />
    <glyph glyph-name="UkaliqColon" unicode="&#xee03;" 
d="M570 369l-74 -369h-54l74 369h54zM268 704l-74 -370h-53l74 370h53z" />
    <glyph glyph-name="UkaliqFullStop" unicode="&#xee04;" 
d="M201 369l-73 -369h-54l74 369h53z" />
    <glyph glyph-name="UkaliqComma" unicode="&#xee05;" 
d="M570 369l-74 -369h-54l74 369h54zM201 369l-73 -369h-54l74 369h53z" />
    <glyph glyph-name="UkaliqRightParenthesis" unicode="&#xee06;" 
d="M268 704l-140 -704h-54l141 704h53z" />
    <glyph glyph-name="UkaliqExclamationMark" unicode="&#xee07;" 
d="M268 704l-140 -704h-54l141 704h53zM570 369l-74 -369h-54l74 369h54z" />
    <glyph glyph-name="UkaliqLeftSingleQuotationMark" unicode="&#xee08;" 
d="M637 704l-74 -370h-54l74 370h54z" />
    <glyph glyph-name="UkaliqLeftParenthesis" unicode="&#xee09;" 
d="M637 704l-141 -704h-54l141 704h54z" />
    <glyph glyph-name="UkaliqDoubleQuotationMark" unicode="&#xee0a;" 
d="M268 704l-74 -370h-53l74 370h53zM637 704l-74 -370h-54l74 370h54z" />
    <glyph glyph-name="UkaliqReversedQuestionMark" unicode="&#xee0b;" 
d="M637 704l-141 -704h-54l141 704h54zM268 704l-74 -370h-53l74 370h53z" />
    <glyph glyph-name="UkaliqSemicolon" unicode="&#xee0c;" 
d="M637 704l-74 -370h-54l74 370h54zM201 369l-73 -369h-54l74 369h53z" />
    <glyph glyph-name="UkaliqReversedExclamationMark" unicode="&#xee0d;" 
d="M637 704l-141 -704h-54l141 704h54zM201 369l-73 -369h-54l74 369h53z" />
    <glyph glyph-name="UkaliqQuestionMark" unicode="&#xee0e;" 
d="M268 704l-140 -704h-54l141 704h53zM637 704l-74 -370h-54l74 370h54z" />
    <glyph glyph-name="UkaliqEquals" unicode="&#xee0f;" 
d="M637 704l-141 -704h-54l141 704h54zM268 704l-140 -704h-54l141 704h53z" />
    <glyph glyph-name="UkaliqHyphen" unicode="&#xee10;" 
d="M89 47h413l-10 -47h-412z" />
    <glyph glyph-name="UkaliqLetterOzo" unicode="&#xee11;" 
d="M570 369l-35 -176q-39 -193 -261 -193h-195l7 35h195q168 0 200 158l35 176h54z" />
    <glyph glyph-name="UkaliqGreaterThan" unicode="&#xee12;" 
d="M89 47h413l-10 -47h-412zM268 704l-74 -370h-53l74 370h53z" />
    <glyph glyph-name="UkaliqLetterAtlha" unicode="&#xee13;" 
d="M268 704l-74 -370h-53l74 370h53zM570 369l-35 -176q-39 -193 -261 -193h-195l7 35h195q168 0 200 158l35 176h54z" />
    <glyph glyph-name="UkaliqLetterEdzre" unicode="&#xee14;" 
d="M201 369l-66 -334h363l-7 -35h-417l74 369h53z" />
    <glyph glyph-name="UkaliqOr" unicode="&#xee15;" 
d="M201 369l-66 -334h157q157 0 189 158l35 176h54l-35 -176q-39 -193 -250 -193h-211l74 369h53z" />
    <glyph glyph-name="UkaliqLetterIdzji" unicode="&#xee16;" 
d="M268 704l-133 -669h363l-7 -35h-417l141 704h53z" />
    <glyph glyph-name="UkaliqLetterOdzo" unicode="&#xee17;" 
d="M268 704l-133 -669h157q157 0 189 158l35 176h54l-35 -176q-39 -193 -250 -193h-211l141 704h53z" />
    <glyph glyph-name="UkaliqLessThan" unicode="&#xee18;" 
d="M89 47h413l-10 -47h-412zM637 704l-74 -370h-54l74 370h54z" />
    <glyph glyph-name="UkaliqLetterOso" unicode="&#xee19;" 
d="M637 704l-69 -343q-72 -361 -294 -361h-195l7 35h195q168 0 233 326l69 343h54z" />
    <glyph glyph-name="UkaliqMultiplication" unicode="&#xee1a;" 
d="M89 47h413l-10 -47h-412zM268 704l-74 -370h-53l74 370h53zM637 704l-74 -370h-54l74 370h54z" />
    <glyph glyph-name="UkaliqLetterApfa" unicode="&#xee1b;" 
d="M268 704l-74 -370h-53l74 370h53zM637 704l-69 -343q-72 -361 -294 -361h-195l7 35h195q168 0 233 326l69 343h54z" />
    <glyph glyph-name="UkaliqLetterEtsre" unicode="&#xee1c;" 
d="M201 369l-66 -334h363l-7 -35h-417l74 369h53zM637 704l-74 -370h-54l74 370h54z" />
    <glyph glyph-name="UkaliqLetterUkkhu" unicode="&#xee1d;" 
d="M637 704l-69 -343q-72 -361 -283 -361h-211l74 369h53l-66 -334h157q157 0 222 326l69 343h54z" />
    <glyph glyph-name="UkaliqLetterItsji" unicode="&#xee1e;" 
d="M268 704l-133 -669h363l-7 -35h-417l141 704h53zM637 704l-74 -370h-54l74 370h54z" />
    <glyph glyph-name="UkaliqLetterOtso" unicode="&#xee1f;" 
d="M268 704l-133 -669h157q157 0 222 326l69 343h54l-69 -343q-72 -361 -283 -361h-211l141 704h53z" />
    <glyph glyph-name="UkaliqRange" unicode="&#xee20;" 
d="M221 704h412l-9 -47h-413z" />
    <glyph glyph-name="UkaliqLetterEo" unicode="&#xee21;" 
d="M570 369l-74 -369h-54l74 369h54zM221 704h412l-9 -47h-413z" />
    <glyph glyph-name="UkaliqLetterUh" unicode="&#xee22;" 
d="M624 668h-195q-168 0 -199 -158l-36 -176h-53l35 176q39 194 260 194h195z" />
    <glyph glyph-name="UkaliqLetterEu" unicode="&#xee23;" 
d="M570 369l-74 -369h-54l74 369h54zM624 668h-195q-168 0 -199 -158l-36 -176h-53l35 176q39 194 260 194h195z" />
    <glyph glyph-name="UkaliqLetterOe" unicode="&#xee24;" 
d="M201 369l-73 -369h-54l74 369h53zM221 704h412l-9 -47h-413z" />
    <glyph glyph-name="UkaliqLetterOeh" unicode="&#xee25;" 
d="M570 369l-74 -369h-54l74 369h54zM201 369l-73 -369h-54l74 369h53zM221 704h412l-9 -47h-413z" />
    <glyph glyph-name="UkaliqLetterUi" unicode="&#xee26;" 
d="M624 668h-195q-168 0 -233 -325l-68 -343h-54l68 343q73 361 294 361h195z" />
    <glyph glyph-name="UkaliqLetterAh" unicode="&#xee27;" 
d="M624 668h-195q-168 0 -233 -325l-68 -343h-54l68 343q73 361 294 361h195zM570 369l-74 -369h-54l74 369h54z" />
    <glyph glyph-name="UkaliqLetterAe" unicode="&#xee28;" 
d="M220 704q417 0 343 -370h-54q67 334 -296 334z" />
    <glyph glyph-name="UkaliqLetterO" unicode="&#xee29;" 
d="M220 704q417 0 276 -704h-54q134 668 -229 668z" />
    <glyph glyph-name="UkaliqLetterIh" unicode="&#xee2a;" 
d="M141 334l35 176q39 194 188 194q273 0 199 -370h-54q67 334 -152 334q-96 0 -127 -158l-36 -176h-53z" />
    <glyph glyph-name="UkaliqLetterU" unicode="&#xee2b;" 
d="M141 334l35 176q39 194 188 194q273 0 132 -704h-54q134 668 -85 668q-96 0 -127 -158l-36 -176h-53z" />
    <glyph glyph-name="UkaliqLetterE" unicode="&#xee2c;" 
d="M220 704q417 0 343 -370h-54q67 334 -296 334zM201 369l-73 -369h-54l74 369h53z" />
    <glyph glyph-name="UkaliqLetterEh" unicode="&#xee2d;" 
d="M220 704q417 0 276 -704h-54q134 668 -229 668zM201 369l-73 -369h-54l74 369h53z" />
    <glyph glyph-name="UkaliqLetterI" unicode="&#xee2e;" 
d="M509 334q67 334 -152 334q-96 0 -161 -325l-68 -343h-54l68 343q73 361 222 361q273 0 199 -370h-54z" />
    <glyph glyph-name="UkaliqLetterOh" unicode="&#xee2f;" 
d="M74 0l68 343q73 361 222 361q273 0 132 -704h-54q134 668 -85 668q-96 0 -161 -325l-68 -343h-54z" />
    <glyph glyph-name="UkaliqPlus" unicode="&#xee30;" 
d="M89 47h413l-10 -47h-412zM221 704h412l-9 -47h-413z" />
    <glyph glyph-name="UkaliqCurrency" unicode="&#xee31;" 
d="M570 369l-35 -176q-39 -193 -261 -193h-195l7 35h195q168 0 200 158l35 176h54zM221 704h412l-9 -47h-413z" />
    <glyph glyph-name="UkaliqAt" unicode="&#xee32;" 
d="M89 47h413l-10 -47h-412zM624 668h-195q-168 0 -199 -158l-36 -176h-53l35 176q39 194 260 194h195z" />
    <glyph glyph-name="UkaliqLetterAlha" unicode="&#xee33;" 
d="M624 668h-195q-168 0 -199 -158l-36 -176h-53l35 176q39 194 260 194h195zM570 369l-35 -176q-39 -193 -261 -193h-195l7 35h195q168 0 200 158l35 176h54z" />
    <glyph glyph-name="UkaliqLetterElre" unicode="&#xee34;" 
d="M201 369l-66 -334h363l-7 -35h-417l74 369h53zM221 704h412l-9 -47h-413z" />
    <glyph glyph-name="UkaliqLetterUlgu" unicode="&#xee35;" 
d="M201 369l-66 -334h157q157 0 189 158l35 176h54l-35 -176q-39 -193 -250 -193h-211l74 369h53zM221 704h412l-9 -47h-413z" />
    <glyph glyph-name="UkaliqLetterIlji" unicode="&#xee36;" 
d="M624 668h-195q-168 0 -231 -316l-63 -317h363l-7 -35h-417l70 352q71 352 292 352h195z" />
    <glyph glyph-name="UkaliqLetterOlo" unicode="&#xee37;" 
d="M624 668h-195q-168 0 -231 -316l-63 -317h157q157 0 189 158l35 176h54l-35 -176q-39 -193 -250 -193h-211l70 352q71 352 292 352h195z" />
    <glyph glyph-name="UkaliqDegree" unicode="&#xee38;" 
d="M89 47h413l-10 -47h-412zM220 704q417 0 343 -370h-54q67 334 -296 334z" />
    <glyph glyph-name="UkaliqLetterHbat" unicode="&#xee39;" 
d="M220 704q417 0 324 -464q-48 -240 -270 -240h-195l7 35h195q168 0 209 205q86 428 -277 428z" />
    <glyph glyph-name="UkaliqLetterAnqa" unicode="&#xee3a;" 
d="M89 47h413l-10 -47h-412zM141 334l35 176q39 194 188 194q273 0 199 -370h-54q67 334 -152 334q-96 0 -127 -158l-36 -176h-53z" />
    <glyph glyph-name="UkaliqLetterAma" unicode="&#xee3b;" 
d="M141 334l35 176q39 194 188 194q273 0 180 -464q-48 -240 -270 -240h-195l7 35h195q168 0 209 205q86 428 -133 428q-96 0 -127 -158l-36 -176h-53z" />
    <glyph glyph-name="UkaliqLetterEnre" unicode="&#xee3c;" 
d="M220 704q417 0 343 -370h-54q67 334 -296 334zM201 369l-66 -334h363l-7 -35h-417l74 369h53z" />
    <glyph glyph-name="UkaliqLetterUngu" unicode="&#xee3d;" 
d="M220 704q417 0 324 -464q-48 -240 -259 -240h-211l74 369h53l-66 -334h157q157 0 198 205q86 428 -277 428z" />
    <glyph glyph-name="UkaliqLetterInji" unicode="&#xee3e;" 
d="M509 334q67 334 -152 334q-96 0 -159 -316l-63 -317h363l-7 -35h-417l70 352q71 352 220 352q273 0 199 -370h-54z" />
    <glyph glyph-name="UkaliqLetterOno" unicode="&#xee3f;" 
d="M198 352l-63 -317h157q157 0 198 205q86 428 -133 428q-96 0 -159 -316zM144 352q71 352 220 352q273 0 180 -464q-48 -240 -259 -240h-211z" />
    <glyph glyph-name="UkaliqDash" unicode="&#xee40;" 
d="M155 375h412l-9 -47h-412z" />
    <glyph glyph-name="UkaliqLetterA" unicode="&#xee41;" 
d="M153 369h195q222 0 183 -193l-35 -176h-54l35 176q32 158 -136 158h-195z" />
    <glyph glyph-name="UkaliqMinus" unicode="&#xee42;" 
d="M268 704l-35 -176q-32 -159 137 -159h194l-7 -35h-194q-222 0 -184 194l36 176h53z" />
    <glyph glyph-name="UkaliqLetterAwa" unicode="&#xee43;" 
d="M268 704l-35 -176q-32 -159 126 -159h211l-74 -369h-54l67 334h-157q-211 0 -173 194l36 176h53z" />
    <glyph glyph-name="UkaliqLetterErre" unicode="&#xee44;" 
d="M557 334h-194q-169 0 -200 -158l-35 -176h-54l35 176q39 193 261 193h194z" />
    <glyph glyph-name="UkaliqAnd" unicode="&#xee45;" 
d="M74 0l35 176q39 193 250 193t172 -193l-35 -176h-54l35 176q32 158 -125 158q-158 0 -189 -158l-35 -176h-54z" />
    <glyph glyph-name="UkaliqLetterIzji" unicode="&#xee46;" 
d="M268 704l-52 -264l-15 -71h363l-7 -35h-363l-14 -70l-52 -264h-54l53 264l35 176l53 264h53z" />
    <glyph glyph-name="UkaliqLetterOro" unicode="&#xee47;" 
d="M268 704l-52 -264l-15 -71h158q211 0 172 -193l-35 -176h-54l35 176q32 158 -125 158h-158l-14 -70l-52 -264h-54l53 264l35 176l53 264h53z" />
    <glyph glyph-name="UkaliqNot" unicode="&#xee48;" 
d="M637 704l-35 -176q-39 -194 -261 -194h-195l7 35h195q168 0 200 159l35 176h54z" />
    <glyph glyph-name="UkaliqDivision" unicode="&#xee49;" 
d="M637 704l-53 -264l-35 -176l-53 -264h-54l53 264l14 70h-363l7 35h363l14 71l53 264h54z" />
    <glyph glyph-name="UkaliqXor" unicode="&#xee4a;" 
d="M268 704l-35 -176q-32 -159 126 -159q157 0 189 159l35 176h54l-35 -176q-39 -194 -250 -194t-173 194l36 176h53z" />
    <glyph glyph-name="uniEE4B" unicode="&#xee4b;" 
d="M268 704l-35 -176q-32 -159 126 -159h157l14 71l53 264h54l-53 -264l-35 -176l-53 -264h-54l53 264l14 70h-157q-211 0 -173 194l36 176h53z" />
    <glyph glyph-name="UkaliqLetterIji" unicode="&#xee4c;" 
d="M637 704l-35 -176q-39 -194 -250 -194h-158l-66 -334h-54l74 369h211q157 0 189 159l35 176h54z" />
    <glyph glyph-name="UkaliqLetterTkot" unicode="&#xee4d;" 
d="M637 704l-53 -264l-35 -176l-53 -264h-54l53 264l14 70h-157q-158 0 -189 -158l-35 -176h-54l35 176q39 193 250 193h157l14 71l53 264h54z" />
    <glyph glyph-name="UkaliqLetterIsji" unicode="&#xee4e;" 
d="M637 704l-35 -176q-39 -194 -250 -194h-158l-14 -70l-52 -264h-54l53 264l35 176l53 264h53l-52 -264l-15 -71h158q157 0 189 159l35 176h54z" />
    <glyph glyph-name="UkaliqLetterOrro" unicode="&#xee4f;" 
d="M637 704l-53 -264l-35 -176l-53 -264h-54l53 264l14 70h-315l-14 -70l-52 -264h-54l53 264l35 176l53 264h53l-52 -264l-15 -71h315l14 71l53 264h54z" />
    <glyph glyph-name="UkaliqDigitZero" unicode="&#xee50;" 
d="M89 47h413l-10 -47h-412zM155 375h412l-9 -47h-412z" />
    <glyph glyph-name="UkaliqDigitOne" unicode="&#xee51;" 
d="M153 369h195q222 0 185 -184q-37 -185 -259 -185h-195l7 35h195q168 0 198 150q30 149 -138 149h-195z" />
    <glyph glyph-name="UkaliqDigitTwo" unicode="&#xee52;" 
d="M268 704l-35 -176q-32 -159 137 -159h194l-7 -35h-194q-222 0 -184 194l36 176h53zM89 47h413l-10 -47h-412z" />
    <glyph glyph-name="UkaliqDigitThree" unicode="&#xee53;" 
d="M268 704l-35 -176q-32 -159 126 -159h211l-37 -184q-37 -185 -259 -185h-195l7 35h195q168 0 198 150l30 149h-157q-211 0 -173 194l36 176h53z" />
    <glyph glyph-name="UkaliqDigitFour" unicode="&#xee54;" 
d="M557 334h-194q-169 0 -198 -149l-30 -150h363l-7 -35h-417l37 185q37 184 259 184h194z" />
    <glyph glyph-name="UkaliqDigitFive" unicode="&#xee55;" 
d="M165 185l-30 -150h157q157 0 187 150q30 149 -127 149q-158 0 -187 -149zM111 185q37 184 248 184t174 -184q-37 -185 -248 -185h-211z" />
    <glyph glyph-name="UkaliqDigitSix" unicode="&#xee56;" 
d="M268 704l-52 -264l-14 -71h362l-7 -35h-363l-13 -66l-46 -233h363l-7 -35h-417l54 268l34 172l53 264h53z" />
    <glyph glyph-name="UkaliqDigitSeven" unicode="&#xee57;" 
d="M268 704l-52 -264l-14 -71h157q211 0 174 -184q-37 -185 -248 -185h-211l54 268l34 172l53 264h53zM194 334l-13 -66l-46 -233h157q157 0 187 150q30 149 -127 149h-158z" />
    <glyph glyph-name="UkaliqDigitEight" unicode="&#xee58;" 
d="M89 47h413l-10 -47h-412zM637 704l-35 -176q-39 -194 -261 -194h-195l7 35h195q168 0 200 159l35 176h54z" />
    <glyph glyph-name="UkaliqDigitNine" unicode="&#xee59;" 
d="M637 704l-53 -264l-34 -172l-17 -83q-37 -185 -259 -185h-195l7 35h195q168 0 198 150l17 83l13 66h-363l7 35h363l14 71l53 264h54z" />
    <glyph glyph-name="UkaliqDigitTen" unicode="&#xee5a;" 
d="M268 704l-35 -176q-32 -159 126 -159q157 0 189 159l35 176h54l-35 -176q-39 -194 -250 -194t-173 194l36 176h53zM89 47h413l-10 -47h-412z" />
    <glyph glyph-name="UkaliqDigitEleven" unicode="&#xee5b;" 
d="M268 704l-35 -176q-32 -159 126 -159h157l14 71l53 264h54l-53 -264l-34 -172l-17 -83q-37 -185 -259 -185h-195l7 35h195q168 0 198 150l17 83l13 66h-157q-211 0 -173 194l36 176h53z" />
    <glyph glyph-name="UkaliqDigitTwelve" unicode="&#xee5c;" 
d="M637 704l-35 -176q-39 -194 -250 -194h-158l-59 -299h363l-7 -35h-417l74 369h211q157 0 189 159l35 176h54z" />
    <glyph glyph-name="UkaliqDigitThirteen" unicode="&#xee5d;" 
d="M637 704l-53 -264l-34 -172l-17 -83q-37 -185 -248 -185h-211l37 185q37 184 248 184h157l14 71l53 264h54zM509 334h-157q-158 0 -187 -149l-30 -150h157q157 0 187 150l17 83z" />
    <glyph glyph-name="UkaliqDigitFourteen" unicode="&#xee5e;" 
d="M637 704l-35 -176q-39 -194 -250 -194h-158l-13 -66l-46 -233h363l-7 -35h-417l54 268l34 172l53 264h53l-52 -264l-14 -71h157q157 0 189 159l35 176h54z" />
    <glyph glyph-name="UkaliqDigitFifteen" unicode="&#xee5f;" 
d="M268 704l-52 -264l-14 -71h314l14 71l53 264h54l-53 -264l-34 -172l-17 -83q-37 -185 -248 -185h-211l54 268l34 172l53 264h53zM509 334h-315l-13 -66l-46 -233h157q157 0 187 150l17 83z" />
    <glyph glyph-name="UkaliqLetterSchwa" unicode="&#xee60;" 
d="M155 375h412l-9 -47h-412zM221 704h412l-9 -47h-413z" />
    <glyph glyph-name="UkaliqLetterOhgo" unicode="&#xee61;" 
d="M153 369h195q222 0 183 -193l-35 -176h-54l35 176q32 158 -136 158h-195zM221 704h412l-9 -47h-413z" />
    <glyph glyph-name="UkaliqLetterArha" unicode="&#xee62;" 
d="M624 668h-195q-168 0 -198 -149q-30 -150 139 -150h194l-7 -35h-194q-222 0 -185 185t258 185h195z" />
    <glyph glyph-name="UkaliqLetterAva" unicode="&#xee63;" 
d="M624 668h-195q-168 0 -198 -149q-30 -150 128 -150h211l-74 -369h-54l67 334h-157q-211 0 -174 185t258 185h195z" />
    <glyph glyph-name="UkaliqLetterEzre" unicode="&#xee64;" 
d="M557 334h-194q-169 0 -200 -158l-35 -176h-54l35 176q39 193 261 193h194zM221 704h412l-9 -47h-413z" />
    <glyph glyph-name="UkaliqLetterUghu" unicode="&#xee65;" 
d="M74 0l35 176q39 193 250 193t172 -193l-35 -176h-54l35 176q32 158 -125 158q-158 0 -189 -158l-35 -176h-54zM221 704h412l-9 -47h-413z" />
    <glyph glyph-name="UkaliqLetterIjji" unicode="&#xee66;" 
d="M624 668h-195q-168 0 -198 -149l-16 -84l-14 -66h363l-7 -35h-363l-14 -70l-52 -264h-54l53 264l34 171l17 84q37 185 258 185h195z" />
    <glyph glyph-name="UkaliqLetterOdho" unicode="&#xee67;" 
d="M624 668h-195q-168 0 -198 -149l-16 -84l-14 -66h158q211 0 172 -193l-35 -176h-54l35 176q32 158 -125 158h-158l-14 -70l-52 -264h-54l53 264l34 171l17 84q37 185 258 185h195z" />
    <glyph glyph-name="UkaliqLetterOhho" unicode="&#xee68;" 
d="M220 704q417 0 369 -241q-26 -129 -248 -129h-195l7 35h195q168 0 187 94q41 205 -322 205z" />
    <glyph glyph-name="UkaliqLetterAha" unicode="&#xee69;" 
d="M220 704q417 0 360 -285l-31 -155l-53 -264h-54l53 264l14 70h-363l7 35h363l10 50q50 249 -313 249z" />
    <glyph glyph-name="UkaliqLetterAqha" unicode="&#xee6a;" 
d="M231 519q-30 -150 128 -150q157 0 176 94q41 205 -178 205q-96 0 -126 -149zM178 519q37 185 186 185q273 0 225 -241q-26 -129 -237 -129t-174 185z" />
    <glyph glyph-name="UkaliqLetterAfa" unicode="&#xee6b;" 
d="M516 369l10 50q50 249 -169 249q-96 0 -126 -149q-30 -150 128 -150h157zM509 334h-157q-211 0 -174 185t186 185q273 0 216 -285l-31 -155l-53 -264h-54l53 264z" />
    <glyph glyph-name="UkaliqLetterEsre" unicode="&#xee6c;" 
d="M220 704q417 0 369 -241q-26 -129 -237 -129h-158l-66 -334h-54l74 369h211q157 0 176 94q41 205 -322 205z" />
    <glyph glyph-name="UkaliqLetterUkhu" unicode="&#xee6d;" 
d="M220 704q417 0 360 -285l-31 -155l-53 -264h-54l53 264l14 70h-157q-158 0 -189 -158l-35 -176h-54l35 176q39 193 250 193h157l10 50q50 249 -313 249z" />
    <glyph glyph-name="UkaliqLetterIcji" unicode="&#xee6e;" 
d="M194 334l-14 -70l-52 -264h-54l53 264l34 171l17 84q37 185 186 185q273 0 225 -241q-26 -129 -237 -129h-158zM201 369h158q157 0 176 94q41 205 -178 205q-96 0 -126 -149l-16 -84z" />
    <glyph glyph-name="UkaliqLetterOtho" unicode="&#xee6f;" 
d="M74 0l53 264l34 171l17 84q37 185 186 185q273 0 216 -285l-31 -155l-53 -264h-54l53 264l14 70h-315l-14 -70l-52 -264h-54zM201 369h315l10 50q50 249 -169 249q-96 0 -126 -149l-16 -84z" />
    <glyph glyph-name="UkaliqIterationMark" unicode="&#xee70;" 
d="M89 47h413l-10 -47h-412zM155 375h412l-9 -47h-412zM221 704h412l-9 -47h-413z" />
    <glyph glyph-name="UkaliqPercent" unicode="&#xee71;" 
d="M153 369h195q222 0 185 -184q-37 -185 -259 -185h-195l7 35h195q168 0 198 150q30 149 -138 149h-195zM221 704h412l-9 -47h-413z" />
    <glyph glyph-name="UkaliqLetterAgqa" unicode="&#xee72;" 
d="M624 668h-195q-168 0 -198 -149q-30 -150 139 -150h194l-7 -35h-194q-222 0 -185 185t258 185h195zM89 47h413l-10 -47h-412z" />
    <glyph glyph-name="UkaliqLetterAba" unicode="&#xee73;" 
d="M605 668h-185q-159 0 -189 -149q-30 -150 128 -150h211l-37 -184q-37 -185 -255 -185h-191l7 35h191q164 0 194 150l30 149h-157q-211 0 -174 185t249 185h185z" />
    <glyph glyph-name="UkaliqLetterEdre" unicode="&#xee74;" 
d="M557 334h-194q-169 0 -198 -149l-30 -150h363l-7 -35h-417l37 185q37 184 259 184h194zM221 704h412l-9 -47h-413z" />
    <glyph glyph-name="UkaliqLetterUgu" unicode="&#xee75;" 
d="M221 704h412l-9 -47h-413zM165 185l-30 -150h157q157 0 187 150q30 149 -127 149q-158 0 -187 -149zM111 185q37 184 248 184t174 -184q-37 -185 -248 -185h-211z" />
    <glyph glyph-name="UkaliqLetterIgji" unicode="&#xee76;" 
d="M624 668h-195q-168 0 -198 -149l-16 -84l-13 -66h362l-7 -35h-363l-13 -66l-46 -233h363l-7 -35h-417l54 268l33 167l17 84q37 185 258 185h195z" />
    <glyph glyph-name="UkaliqLetterOdo" unicode="&#xee77;" 
d="M605 668h-185q-159 0 -189 -149l-16 -84l-13 -66h157q211 0 174 -184q-37 -185 -248 -185h-211l54 268l33 167l17 84q37 185 249 185h185zM194 334l-13 -66l-46 -233h157q157 0 187 150q30 149 -127 149h-158z" />
    <glyph glyph-name="UkaliqLetterOhhko" unicode="&#xee78;" 
d="M89 47h413l-10 -47h-412zM220 704q417 0 369 -241q-26 -129 -248 -129h-195l7 35h195q168 0 187 94q41 205 -322 205z" />
    <glyph glyph-name="UkaliqLetterAhka" unicode="&#xee79;" 
d="M220 704q417 0 360 -285l-30 -151l-17 -83q-37 -185 -259 -185h-195l7 35h195q168 0 198 150l17 83l13 66h-363l7 35h363l10 50q50 249 -313 249z" />
    <glyph glyph-name="UkaliqLetterAqa" unicode="&#xee7a;" 
d="M89 47h413l-10 -47h-412zM231 519q-30 -150 128 -150q157 0 176 94q41 205 -178 205q-96 0 -126 -149zM178 519q37 185 186 185q273 0 225 -241q-26 -129 -237 -129t-174 185z" />
    <glyph glyph-name="UkaliqLetterApa" unicode="&#xee7b;" 
d="M516 369l10 50q50 249 -169 249q-96 0 -126 -149q-30 -150 128 -150h157zM509 334h-157q-211 0 -174 185t186 185q273 0 216 -285l-30 -151l-17 -83q-37 -185 -255 -185h-191l7 35h191q164 0 194 150l17 83z" />
    <glyph glyph-name="UkaliqLetterEtre" unicode="&#xee7c;" 
d="M239 704q398 0 350 -241q-26 -129 -237 -129h-158l-59 -299h355l-7 -35h-409l74 369h211q157 0 176 94q41 205 -303 205z" />
    <glyph glyph-name="UkaliqLetterUku" unicode="&#xee7d;" 
d="M239 704q398 0 341 -285l-30 -151l-17 -83q-37 -185 -248 -185h-211l37 185q37 184 248 184h157l10 50q50 249 -294 249zM509 334h-157q-158 0 -187 -149l-30 -150h157q157 0 187 150l17 83z" />
    <glyph glyph-name="UkaliqLetterIci" unicode="&#xee7e;" 
d="M194 334l-13 -66l-46 -233h355l-7 -35h-409l54 268l33 167l17 84q37 185 186 185q273 0 225 -241q-26 -129 -237 -129h-158zM202 369h157q157 0 176 94q41 205 -178 205q-96 0 -126 -149l-16 -84z" />
    <glyph glyph-name="UkaliqLetterOto" unicode="&#xee7f;" 
d="M516 369l10 50q50 249 -169 249q-96 0 -126 -149l-16 -84l-13 -66h314zM509 334h-315l-13 -66l-46 -233h157q157 0 187 150l17 83zM178 519q37 185 186 185q273 0 216 -285l-30 -151l-17 -83q-37 -185 -248 -185h-211l54 268l33 167z" />
    <glyph glyph-name="UkaliqDot" unicode="&#xee80;" 
d="M355 -170q-12 31 12 62t60 31t48 -31q11 -31 -13 -62t-60 -31q-35 0 -47 31z" />
    <glyph glyph-name="UkaliqNumberWithDot" unicode="&#xee81;" 
d="M570 369l-74 -369h-54l74 369h54zM366 -170q-11 31 13 62t60 31q35 0 47 -31t-12 -62t-60 -31t-48 31z" />
    <glyph glyph-name="UkaliqRightSingleQuotationMarkWithDot" unicode="&#xee82;" 
d="M268 704l-74 -370h-53l74 370h53zM355 -170q-12 31 12 62t60 31t48 -31q11 -31 -13 -62t-60 -31q-35 0 -47 31z" />
    <glyph glyph-name="UkaliqColonWithDot" unicode="&#xee83;" 
d="M570 369l-74 -369h-54l74 369h54zM268 704l-74 -370h-53l74 370h53zM366 -170q-11 31 13 62t60 31q35 0 47 -31t-12 -62t-60 -31t-48 31z" />
    <glyph glyph-name="UkaliqFullStopWithDot" unicode="&#xee84;" 
d="M201 369l-73 -369h-54l74 369h53zM355 -170q-12 31 12 62t60 31t48 -31q11 -31 -13 -62t-60 -31q-35 0 -47 31z" />
    <glyph glyph-name="UkaliqCommaWithDot" unicode="&#xee85;" 
d="M570 369l-74 -369h-54l74 369h54zM201 369l-73 -369h-54l74 369h53zM366 -170q-11 31 13 62t60 31q35 0 47 -31t-12 -62t-60 -31t-48 31z" />
    <glyph glyph-name="UkaliqRightParenthesisWithDot" unicode="&#xee86;" 
d="M268 704l-140 -704h-54l141 704h53zM355 -170q-12 31 12 62t60 31t48 -31q11 -31 -13 -62t-60 -31q-35 0 -47 31z" />
    <glyph glyph-name="UkaliqExclamationMarkWithDot" unicode="&#xee87;" 
d="M268 704l-140 -704h-54l141 704h53zM570 369l-74 -369h-54l74 369h54zM366 -170q-11 31 13 62t60 31q35 0 47 -31t-12 -62t-60 -31t-48 31z" />
    <glyph glyph-name="UkaliqLeftSingleQuotationMarkWithDot" unicode="&#xee88;" 
d="M637 704l-74 -370h-54l74 370h54zM355 -170q-12 31 12 62t60 31t48 -31q11 -31 -13 -62t-60 -31q-35 0 -47 31z" />
    <glyph glyph-name="UkaliqLeftParenthesisWithDot" unicode="&#xee89;" 
d="M637 704l-141 -704h-54l141 704h54zM366 -170q-11 31 13 62t60 31q35 0 47 -31t-12 -62t-60 -31t-48 31z" />
    <glyph glyph-name="UkaliqDoubleQuotationMarkWithDot" unicode="&#xee8a;" 
d="M268 704l-74 -370h-53l74 370h53zM637 704l-74 -370h-54l74 370h54zM355 -170q-12 31 12 62t60 31t48 -31q11 -31 -13 -62t-60 -31q-35 0 -47 31z" />
    <glyph glyph-name="UkaliqReversedQuestionMarkWithDot" unicode="&#xee8b;" 
d="M637 704l-141 -704h-54l141 704h54zM268 704l-74 -370h-53l74 370h53zM366 -170q-11 31 13 62t60 31q35 0 47 -31t-12 -62t-60 -31t-48 31z" />
    <glyph glyph-name="UkaliqSemicolonWithDot" unicode="&#xee8c;" 
d="M637 704l-74 -370h-54l74 370h54zM201 369l-73 -369h-54l74 369h53zM355 -170q-12 31 12 62t60 31t48 -31q11 -31 -13 -62t-60 -31q-35 0 -47 31z" />
    <glyph glyph-name="UkaliqReversedExclamationMarkWithDot" unicode="&#xee8d;" 
d="M637 704l-141 -704h-54l141 704h54zM201 369l-73 -369h-54l74 369h53zM366 -170q-11 31 13 62t60 31q35 0 47 -31t-12 -62t-60 -31t-48 31z" />
    <glyph glyph-name="UkaliqQuestionMarkWithDot" unicode="&#xee8e;" 
d="M268 704l-140 -704h-54l141 704h53zM637 704l-74 -370h-54l74 370h54zM355 -170q-12 31 12 62t60 31t48 -31q11 -31 -13 -62t-60 -31q-35 0 -47 31z" />
    <glyph glyph-name="UkaliqEqualsWithDot" unicode="&#xee8f;" 
d="M637 704l-141 -704h-54l141 704h54zM268 704l-140 -704h-54l141 704h53zM366 -170q-11 31 13 62t60 31q35 0 47 -31t-12 -62t-60 -31t-48 31z" />
    <glyph glyph-name="UkaliqHyphenWithDot" unicode="&#xee90;" 
d="M89 47h413l-10 -47h-412zM355 -170q-12 31 12 62t60 31t48 -31q11 -31 -13 -62t-60 -31q-35 0 -47 31z" />
    <glyph glyph-name="UkaliqLetterOzoWithDot" unicode="&#xee91;" 
d="M355 -170q-12 31 12 62t60 31t48 -31q11 -31 -13 -62t-60 -31q-35 0 -47 31zM570 369l-35 -176q-39 -193 -261 -193h-195l7 35h195q168 0 200 158l35 176h54z" />
    <glyph glyph-name="UkaliqGreaterThanWithDot" unicode="&#xee92;" 
d="M89 47h413l-10 -47h-412zM268 704l-74 -370h-53l74 370h53zM355 -170q-12 31 12 62t60 31t48 -31q11 -31 -13 -62t-60 -31q-35 0 -47 31z" />
    <glyph glyph-name="UkaliqLetterAtlhaWithDot" unicode="&#xee93;" 
d="M268 704l-74 -370h-53l74 370h53zM355 -170q-12 31 12 62t60 31t48 -31q11 -31 -13 -62t-60 -31q-35 0 -47 31zM570 369l-35 -176q-39 -193 -261 -193h-195l7 35h195q168 0 200 158l35 176h54z" />
    <glyph glyph-name="UkaliqLetterEdzreWithDot" unicode="&#xee94;" 
d="M201 369l-66 -334h363l-7 -35h-417l74 369h53zM355 -170q-12 31 12 62t60 31t48 -31q11 -31 -13 -62t-60 -31q-35 0 -47 31z" />
    <glyph glyph-name="UkaliqOrWithDot" unicode="&#xee95;" 
d="M201 369l-66 -334h157q157 0 189 158l35 176h54l-35 -176q-39 -193 -250 -193h-211l74 369h53zM355 -170q-12 31 12 62t60 31t48 -31q11 -31 -13 -62t-60 -31q-35 0 -47 31z" />
    <glyph glyph-name="UkaliqLetterIdzjiWithDot" unicode="&#xee96;" 
d="M268 704l-133 -669h363l-7 -35h-417l141 704h53zM355 -170q-12 31 12 62t60 31t48 -31q11 -31 -13 -62t-60 -31q-35 0 -47 31z" />
    <glyph glyph-name="UkaliqLetterOdzoWithDot" unicode="&#xee97;" 
d="M268 704l-133 -669h157q157 0 189 158l35 176h54l-35 -176q-39 -193 -250 -193h-211l141 704h53zM355 -170q-12 31 12 62t60 31t48 -31q11 -31 -13 -62t-60 -31q-35 0 -47 31z" />
    <glyph glyph-name="UkaliqLessThanWithDot" unicode="&#xee98;" 
d="M89 47h413l-10 -47h-412zM637 704l-74 -370h-54l74 370h54zM355 -170q-12 31 12 62t60 31t48 -31q11 -31 -13 -62t-60 -31q-35 0 -47 31z" />
    <glyph glyph-name="UkaliqLetterOsoWithDot" unicode="&#xee99;" 
d="M637 704l-69 -343q-72 -361 -294 -361h-195l7 35h195q168 0 233 326l69 343h54zM355 -170q-12 31 12 62t60 31t48 -31q11 -31 -13 -62t-60 -31q-35 0 -47 31z" />
    <glyph glyph-name="UkaliqMultiplicationWithDot" unicode="&#xee9a;" 
d="M89 47h413l-10 -47h-412zM268 704l-74 -370h-53l74 370h53zM637 704l-74 -370h-54l74 370h54zM355 -170q-12 31 12 62t60 31t48 -31q11 -31 -13 -62t-60 -31q-35 0 -47 31z" />
    <glyph glyph-name="UkaliqLetterApfaWithDot" unicode="&#xee9b;" 
d="M268 704l-74 -370h-53l74 370h53zM637 704l-69 -343q-72 -361 -294 -361h-195l7 35h195q168 0 233 326l69 343h54zM355 -170q-12 31 12 62t60 31t48 -31q11 -31 -13 -62t-60 -31q-35 0 -47 31z" />
    <glyph glyph-name="UkaliqLetterEtsreWithDot" unicode="&#xee9c;" 
d="M201 369l-66 -334h363l-7 -35h-417l74 369h53zM637 704l-74 -370h-54l74 370h54zM355 -170q-12 31 12 62t60 31t48 -31q11 -31 -13 -62t-60 -31q-35 0 -47 31z" />
    <glyph glyph-name="UkaliqLetterUkkhuWithDot" unicode="&#xee9d;" 
d="M637 704l-69 -343q-72 -361 -283 -361h-211l74 369h53l-66 -334h157q157 0 222 326l69 343h54zM355 -170q-12 31 12 62t60 31t48 -31q11 -31 -13 -62t-60 -31q-35 0 -47 31z" />
    <glyph glyph-name="UkaliqLetterItsjiWithDot" unicode="&#xee9e;" 
d="M268 704l-133 -669h363l-7 -35h-417l141 704h53zM637 704l-74 -370h-54l74 370h54zM355 -170q-12 31 12 62t60 31t48 -31q11 -31 -13 -62t-60 -31q-35 0 -47 31z" />
    <glyph glyph-name="UkaliqLetterOtsoWithDot" unicode="&#xee9f;" 
d="M268 704l-133 -669h157q157 0 222 326l69 343h54l-69 -343q-72 -361 -283 -361h-211l141 704h53zM355 -170q-12 31 12 62t60 31t48 -31q11 -31 -13 -62t-60 -31q-35 0 -47 31z" />
    <glyph glyph-name="UkaliqRangeWithDot" unicode="&#xeea0;" 
d="M355 -170q-12 31 12 62t60 31t48 -31q11 -31 -13 -62t-60 -31q-35 0 -47 31zM221 704h412l-9 -47h-413z" />
    <glyph glyph-name="UkaliqLetterEoWithDot" unicode="&#xeea1;" 
d="M570 369l-74 -369h-54l74 369h54zM366 -170q-11 31 13 62t60 31q35 0 47 -31t-12 -62t-60 -31t-48 31zM221 704h412l-9 -47h-413z" />
    <glyph glyph-name="UkaliqLetterUhWithDot" unicode="&#xeea2;" 
d="M624 668h-195q-168 0 -199 -158l-36 -176h-53l35 176q39 194 260 194h195zM355 -170q-12 31 12 62t60 31t48 -31q11 -31 -13 -62t-60 -31q-35 0 -47 31z" />
    <glyph glyph-name="UkaliqLetterEuWithDot" unicode="&#xeea3;" 
d="M570 369l-74 -369h-54l74 369h54zM624 668h-195q-168 0 -199 -158l-36 -176h-53l35 176q39 194 260 194h195zM366 -170q-11 31 13 62t60 31q35 0 47 -31t-12 -62t-60 -31t-48 31z" />
    <glyph glyph-name="UkaliqLetterOeWithDot" unicode="&#xeea4;" 
d="M201 369l-73 -369h-54l74 369h53zM355 -170q-12 31 12 62t60 31t48 -31q11 -31 -13 -62t-60 -31q-35 0 -47 31zM221 704h412l-9 -47h-413z" />
    <glyph glyph-name="UkaliqLetterOehWithDot" unicode="&#xeea5;" 
d="M570 369l-74 -369h-54l74 369h54zM201 369l-73 -369h-54l74 369h53zM366 -170q-11 31 13 62t60 31q35 0 47 -31t-12 -62t-60 -31t-48 31zM221 704h412l-9 -47h-413z" />
    <glyph glyph-name="UkaliqLetterUiWithDot" unicode="&#xeea6;" 
d="M624 668h-195q-168 0 -233 -325l-68 -343h-54l68 343q73 361 294 361h195zM355 -170q-12 31 12 62t60 31t48 -31q11 -31 -13 -62t-60 -31q-35 0 -47 31z" />
    <glyph glyph-name="UkaliqLetterAhWithDot" unicode="&#xeea7;" 
d="M624 668h-195q-168 0 -233 -325l-68 -343h-54l68 343q73 361 294 361h195zM570 369l-74 -369h-54l74 369h54zM366 -170q-11 31 13 62t60 31q35 0 47 -31t-12 -62t-60 -31t-48 31z" />
    <glyph glyph-name="UkaliqLetterAeWithDot" unicode="&#xeea8;" 
d="M220 704q417 0 343 -370h-54q67 334 -296 334zM355 -170q-12 31 12 62t60 31t48 -31q11 -31 -13 -62t-60 -31q-35 0 -47 31z" />
    </font>
</defs>
</svg>
