<?xml version="1.0" standalone="no"?>
<!DOCTYPE svg PUBLIC "-//W3C//DTD SVG 1.1//EN" "http://www.w3.org/Graphics/SVG/1.1/DTD/svg11.dtd" >
<svg xmlns="http://www.w3.org/2000/svg" xmlns:xlink="http://www.w3.org/1999/xlink" version="1.1">
<metadata>
Created by FontForge 20170812 at Mon Jan 23 00:30:10 2023
 By ht,,,
Copyright (C) 2022-2023 Henrik Theiling, License CC-BY-NC4.0
</metadata>
<defs>
<font id="UkaliqSansLight" horiz-adv-x="578" >
  <font-face 
    font-family="Ukaliq Sans"
    font-weight="250"
    font-stretch="normal"
    units-per-em="1024"
    panose-1="2 0 4 3 0 0 0 0 0 0"
    ascent="727"
    descent="-297"
    bbox="0 -296 578 946"
    underline-thickness="78"
    underline-position="-171"
    unicode-range="U+000D-F1DFF"
  />
<missing-glyph 
d="M83 47h412v-47h-412v47zM384 -170q-17 31 0 62q18 31 54 31t54 -31t0 -62t-54 -31t-54 31z" />
    <glyph glyph-name="UkaliqSpace_UkaliqModifierDot" unicode="&#xee00;&#x331;" 
d="M384 -170q-17 31 0 62q18 31 54 31t54 -31t0 -62t-54 -31t-54 31z" />
    <glyph glyph-name="UkaliqNumber_UkaliqModifierDot" unicode="&#xee01;&#x331;" 
d="M500 369v-369h-53v369h53zM396 -170q-18 31 0 62t54 31t53 -31q18 -31 0 -62q-17 -31 -53 -31t-54 31z" />
    <glyph glyph-name="UkaliqRightSingleQuotationMark_UkaliqModifierDot" unicode="&#xee02;&#x331;" 
d="M132 704v-370h-54v370h54zM384 -170q-17 31 0 62q18 31 54 31t54 -31t0 -62t-54 -31t-54 31z" />
    <glyph glyph-name="UkaliqColon_UkaliqModifierDot" unicode="&#xee03;&#x331;" 
d="M500 369v-369h-53v369h53zM132 704v-370h-54v370h54zM396 -170q-18 31 0 62t54 31t53 -31q18 -31 0 -62q-17 -31 -53 -31t-54 31z" />
    <glyph glyph-name="UkaliqFullStop_UkaliqModifierDot" unicode="&#xee04;&#x331;" 
d="M132 369v-369h-54v369h54zM384 -170q-17 31 0 62q18 31 54 31t54 -31t0 -62t-54 -31t-54 31z" />
    <glyph glyph-name="UkaliqComma_UkaliqModifierDot" unicode="&#xee05;&#x331;" 
d="M500 369v-369h-53v369h53zM132 369v-369h-54v369h54zM396 -170q-18 31 0 62t54 31t53 -31q18 -31 0 -62q-17 -31 -53 -31t-54 31z" />
    <glyph glyph-name="UkaliqRightParenthesis_UkaliqModifierDot" unicode="&#xee06;&#x331;" 
d="M132 704v-704h-54v704h54zM384 -170q-17 31 0 62q18 31 54 31t54 -31t0 -62t-54 -31t-54 31z" />
    <glyph glyph-name="UkaliqExclamationMark_UkaliqModifierDot" unicode="&#xee07;&#x331;" 
d="M132 704v-704h-54v704h54zM500 369v-369h-53v369h53zM396 -170q-18 31 0 62t54 31t53 -31q18 -31 0 -62q-17 -31 -53 -31t-54 31z" />
    <glyph glyph-name="UkaliqLeftSingleQuotationMark_UkaliqModifierDot" unicode="&#xee08;&#x331;" 
d="M500 704v-370h-53v370h53zM384 -170q-17 31 0 62q18 31 54 31t54 -31t0 -62t-54 -31t-54 31z" />
    <glyph glyph-name="UkaliqLeftParenthesis_UkaliqModifierDot" unicode="&#xee09;&#x331;" 
d="M500 704v-704h-53v704h53zM396 -170q-18 31 0 62t54 31t53 -31q18 -31 0 -62q-17 -31 -53 -31t-54 31z" />
    <glyph glyph-name="UkaliqDoubleQuotationMark_UkaliqModifierDot" unicode="&#xee0a;&#x331;" 
d="M132 704v-370h-54v370h54zM500 704v-370h-53v370h53zM384 -170q-17 31 0 62q18 31 54 31t54 -31t0 -62t-54 -31t-54 31z" />
    <glyph glyph-name="UkaliqReversedQuestionMark_UkaliqModifierDot" unicode="&#xee0b;&#x331;" 
d="M500 704v-704h-53v704h53zM132 704v-370h-54v370h54zM396 -170q-18 31 0 62t54 31t53 -31q18 -31 0 -62q-17 -31 -53 -31t-54 31z" />
    <glyph glyph-name="UkaliqSemicolon_UkaliqModifierDot" unicode="&#xee0c;&#x331;" 
d="M500 704v-370h-53v370h53zM132 369v-369h-54v369h54zM384 -170q-17 31 0 62q18 31 54 31t54 -31t0 -62t-54 -31t-54 31z" />
    <glyph glyph-name="UkaliqReversedExclamationMark_UkaliqModifierDot" unicode="&#xee0d;&#x331;" 
d="M500 704v-704h-53v704h53zM132 369v-369h-54v369h54zM396 -170q-18 31 0 62t54 31t53 -31q18 -31 0 -62q-17 -31 -53 -31t-54 31z" />
    <glyph glyph-name="UkaliqQuestionMark_UkaliqModifierDot" unicode="&#xee0e;&#x331;" 
d="M132 704v-704h-54v704h54zM500 704v-370h-53v370h53zM384 -170q-17 31 0 62q18 31 54 31t54 -31t0 -62t-54 -31t-54 31z" />
    <glyph glyph-name="UkaliqEquals_UkaliqModifierDot" unicode="&#xee0f;&#x331;" 
d="M500 704v-704h-53v704h53zM132 704v-704h-54v704h54zM396 -170q-18 31 0 62t54 31t53 -31q18 -31 0 -62q-17 -31 -53 -31t-54 31z" />
    <glyph glyph-name="UkaliqHyphen_UkaliqModifierDot" unicode="&#xee10;&#x331;" 
d="M83 47h412v-47h-412v47zM384 -170q-17 31 0 62q18 31 54 31t54 -31t0 -62t-54 -31t-54 31z" />
    <glyph glyph-name="UkaliqLetterOzo_UkaliqModifierDot" unicode="&#xee11;&#x331;" 
d="M384 -170q-17 31 0 62q18 31 54 31t54 -31t0 -62t-54 -31t-54 31zM500 369v-176q0 -193 -222 -193h-194v35h194q169 0 169 158v176h53z" />
    <glyph glyph-name="UkaliqGreaterThan_UkaliqModifierDot" unicode="&#xee12;&#x331;" 
d="M83 47h412v-47h-412v47zM132 704v-370h-54v370h54zM384 -170q-17 31 0 62q18 31 54 31t54 -31t0 -62t-54 -31t-54 31z" />
    <glyph glyph-name="UkaliqLetterAtlha_UkaliqModifierDot" unicode="&#xee13;&#x331;" 
d="M132 704v-370h-54v370h54zM384 -170q-17 31 0 62q18 31 54 31t54 -31t0 -62t-54 -31t-54 31zM500 369v-176q0 -193 -222 -193h-194v35h194q169 0 169 158v176h53z" />
    <glyph glyph-name="UkaliqLetterEdzre_UkaliqModifierDot" unicode="&#xee14;&#x331;" 
d="M132 369v-334h363v-35h-417v369h54zM384 -170q-17 31 0 62q18 31 54 31t54 -31t0 -62t-54 -31t-54 31z" />
    <glyph glyph-name="UkaliqOr_UkaliqModifierDot" unicode="&#xee15;&#x331;" 
d="M132 369v-334h157q158 0 158 158v176h53v-176q0 -193 -211 -193h-211v369h54zM384 -170q-17 31 0 62q18 31 54 31t54 -31t0 -62t-54 -31t-54 31z" />
    <glyph glyph-name="UkaliqLetterIdzji_UkaliqModifierDot" unicode="&#xee16;&#x331;" 
d="M132 704v-669h363v-35h-417v704h54zM384 -170q-17 31 0 62q18 31 54 31t54 -31t0 -62t-54 -31t-54 31z" />
    <glyph glyph-name="UkaliqLetterOdzo_UkaliqModifierDot" unicode="&#xee17;&#x331;" 
d="M132 704v-669h157q158 0 158 158v176h53v-176q0 -193 -211 -193h-211v704h54zM384 -170q-17 31 0 62q18 31 54 31t54 -31t0 -62t-54 -31t-54 31z" />
    <glyph glyph-name="UkaliqLessThan_UkaliqModifierDot" unicode="&#xee18;&#x331;" 
d="M83 47h412v-47h-412v47zM500 704v-370h-53v370h53zM384 -170q-17 31 0 62q18 31 54 31t54 -31t0 -62t-54 -31t-54 31z" />
    <glyph glyph-name="UkaliqLetterOso_UkaliqModifierDot" unicode="&#xee19;&#x331;" 
d="M500 704v-343q0 -361 -222 -361h-194v35h194q169 0 169 326v343h53zM384 -170q-17 31 0 62q18 31 54 31t54 -31t0 -62t-54 -31t-54 31z" />
    <glyph glyph-name="UkaliqMultiplication_UkaliqModifierDot" unicode="&#xee1a;&#x331;" 
d="M83 47h412v-47h-412v47zM132 704v-370h-54v370h54zM500 704v-370h-53v370h53zM384 -170q-17 31 0 62q18 31 54 31t54 -31t0 -62t-54 -31t-54 31z" />
    <glyph glyph-name="UkaliqLetterApfa_UkaliqModifierDot" unicode="&#xee1b;&#x331;" 
d="M132 704v-370h-54v370h54zM500 704v-343q0 -361 -222 -361h-194v35h194q169 0 169 326v343h53zM384 -170q-17 31 0 62q18 31 54 31t54 -31t0 -62t-54 -31t-54 31z" />
    <glyph glyph-name="UkaliqLetterEtsre_UkaliqModifierDot" unicode="&#xee1c;&#x331;" 
d="M132 369v-334h363v-35h-417v369h54zM500 704v-370h-53v370h53zM384 -170q-17 31 0 62q18 31 54 31t54 -31t0 -62t-54 -31t-54 31z" />
    <glyph glyph-name="UkaliqLetterUkkhu_UkaliqModifierDot" unicode="&#xee1d;&#x331;" 
d="M500 704v-343q0 -361 -211 -361h-211v369h54v-334h157q158 0 158 326v343h53zM384 -170q-17 31 0 62q18 31 54 31t54 -31t0 -62t-54 -31t-54 31z" />
    <glyph glyph-name="UkaliqLetterItsji_UkaliqModifierDot" unicode="&#xee1e;&#x331;" 
d="M132 704v-669h363v-35h-417v704h54zM500 704v-370h-53v370h53zM384 -170q-17 31 0 62q18 31 54 31t54 -31t0 -62t-54 -31t-54 31z" />
    <glyph glyph-name="UkaliqLetterOtso_UkaliqModifierDot" unicode="&#xee1f;&#x331;" 
d="M132 704v-669h157q158 0 158 326v343h53v-343q0 -361 -211 -361h-211v704h54zM384 -170q-17 31 0 62q18 31 54 31t54 -31t0 -62t-54 -31t-54 31z" />
    <glyph glyph-name="UkaliqRange_UkaliqModifierDot" unicode="&#xee20;&#x331;" 
d="M384 -170q-17 31 0 62q18 31 54 31t54 -31t0 -62t-54 -31t-54 31zM83 704h412v-47h-412v47z" />
    <glyph glyph-name="UkaliqLetterEo_UkaliqModifierDot" unicode="&#xee21;&#x331;" 
d="M500 369v-369h-53v369h53zM396 -170q-18 31 0 62t54 31t53 -31q18 -31 0 -62q-17 -31 -53 -31t-54 31zM83 704h412v-47h-412v47z" />
    <glyph glyph-name="UkaliqLetterUh_UkaliqModifierDot" unicode="&#xee22;&#x331;" 
d="M495 668h-195q-168 0 -168 -158v-176h-54v176q0 194 222 194h195v-36zM384 -170q-17 31 0 62q18 31 54 31t54 -31t0 -62t-54 -31t-54 31z" />
    <glyph glyph-name="UkaliqLetterEu_UkaliqModifierDot" unicode="&#xee23;&#x331;" 
d="M500 369v-369h-53v369h53zM495 668h-195q-168 0 -168 -158v-176h-54v176q0 194 222 194h195v-36zM396 -170q-18 31 0 62t54 31t53 -31q18 -31 0 -62q-17 -31 -53 -31t-54 31z" />
    <glyph glyph-name="UkaliqLetterOe_UkaliqModifierDot" unicode="&#xee24;&#x331;" 
d="M132 369v-369h-54v369h54zM384 -170q-17 31 0 62q18 31 54 31t54 -31t0 -62t-54 -31t-54 31zM83 704h412v-47h-412v47z" />
    <glyph glyph-name="UkaliqLetterOeh_UkaliqModifierDot" unicode="&#xee25;&#x331;" 
d="M500 369v-369h-53v369h53zM132 369v-369h-54v369h54zM396 -170q-18 31 0 62t54 31t53 -31q18 -31 0 -62q-17 -31 -53 -31t-54 31zM83 704h412v-47h-412v47z" />
    <glyph glyph-name="UkaliqLetterUi_UkaliqModifierDot" unicode="&#xee26;&#x331;" 
d="M495 668h-195q-168 0 -168 -325v-343h-54v343q0 361 222 361h195v-36zM384 -170q-17 31 0 62q18 31 54 31t54 -31t0 -62t-54 -31t-54 31z" />
    <glyph glyph-name="UkaliqLetterAh_UkaliqModifierDot" unicode="&#xee27;&#x331;" 
d="M495 668h-195q-168 0 -168 -325v-343h-54v343q0 361 222 361h195v-36zM500 369v-369h-53v369h53zM396 -170q-18 31 0 62t54 31t53 -31q18 -31 0 -62q-17 -31 -53 -31t-54 31z" />
    <glyph glyph-name="UkaliqLetterAe_UkaliqModifierDot" unicode="&#xee28;&#x331;" 
d="M84 704q416 0 416 -370h-53q0 334 -363 334v36zM384 -170q-17 31 0 62q18 31 54 31t54 -31t0 -62t-54 -31t-54 31z" />
    <glyph glyph-name="UkaliqLetterO_UkaliqModifierDot" unicode="&#xee29;&#x331;" 
d="M84 704q416 0 416 -704h-53q0 668 -363 668v36zM396 -170q-18 31 0 62t54 31t53 -31q18 -31 0 -62q-17 -31 -53 -31t-54 31z" />
    <glyph glyph-name="UkaliqLetterIh_UkaliqModifierDot" unicode="&#xee2a;&#x331;" 
d="M78 334v176q0 194 150 194q272 0 272 -370h-53q0 334 -219 334q-96 0 -96 -158v-176h-54zM384 -170q-17 31 0 62q18 31 54 31t54 -31t0 -62t-54 -31t-54 31z" />
    <glyph glyph-name="UkaliqLetterU_UkaliqModifierDot" unicode="&#xee2b;&#x331;" 
d="M78 334v176q0 194 150 194q272 0 272 -704h-53q0 668 -219 668q-96 0 -96 -158v-176h-54zM396 -170q-18 31 0 62t54 31t53 -31q18 -31 0 -62q-17 -31 -53 -31t-54 31z" />
    <glyph glyph-name="UkaliqLetterE_UkaliqModifierDot" unicode="&#xee2c;&#x331;" 
d="M84 704q416 0 416 -370h-53q0 334 -363 334v36zM132 369v-369h-54v369h54zM384 -170q-17 31 0 62q18 31 54 31t54 -31t0 -62t-54 -31t-54 31z" />
    <glyph glyph-name="UkaliqLetterEh_UkaliqModifierDot" unicode="&#xee2d;&#x331;" 
d="M84 704q416 0 416 -704h-53q0 668 -363 668v36zM132 369v-369h-54v369h54zM396 -170q-18 31 0 62t54 31t53 -31q18 -31 0 -62q-17 -31 -53 -31t-54 31z" />
    <glyph glyph-name="UkaliqLetterI_UkaliqModifierDot" unicode="&#xee2e;&#x331;" 
d="M447 334q0 334 -219 334q-96 0 -96 -325v-343h-54v343q0 361 150 361q272 0 272 -370h-53zM384 -170q-17 31 0 62q18 31 54 31t54 -31t0 -62t-54 -31t-54 31z" />
    <glyph glyph-name="UkaliqLetterOh_UkaliqModifierDot" unicode="&#xee2f;&#x331;" 
d="M78 0v343q0 361 150 361q272 0 272 -704h-53q0 668 -219 668q-96 0 -96 -325v-343h-54zM396 -170q-18 31 0 62t54 31t53 -31q18 -31 0 -62q-17 -31 -53 -31t-54 31z" />
    <glyph glyph-name="UkaliqPlus_UkaliqModifierDot" unicode="&#xee30;&#x331;" 
d="M83 47h412v-47h-412v47zM384 -170q-17 31 0 62q18 31 54 31t54 -31t0 -62t-54 -31t-54 31zM83 704h412v-47h-412v47z" />
    <glyph glyph-name="UkaliqCurrency_UkaliqModifierDot" unicode="&#xee31;&#x331;" 
d="M384 -170q-17 31 0 62q18 31 54 31t54 -31t0 -62t-54 -31t-54 31zM500 369v-176q0 -193 -222 -193h-194v35h194q169 0 169 158v176h53zM83 704h412v-47h-412v47z" />
    <glyph glyph-name="UkaliqAt_UkaliqModifierDot" unicode="&#xee32;&#x331;" 
d="M83 47h412v-47h-412v47zM495 668h-195q-168 0 -168 -158v-176h-54v176q0 194 222 194h195v-36zM384 -170q-17 31 0 62q18 31 54 31t54 -31t0 -62t-54 -31t-54 31z" />
    <glyph glyph-name="UkaliqLetterAlha_UkaliqModifierDot" unicode="&#xee33;&#x331;" 
d="M495 668h-195q-168 0 -168 -158v-176h-54v176q0 194 222 194h195v-36zM384 -170q-17 31 0 62q18 31 54 31t54 -31t0 -62t-54 -31t-54 31zM500 369v-176q0 -193 -222 -193h-194v35h194q169 0 169 158v176h53z" />
    <glyph glyph-name="UkaliqLetterElre_UkaliqModifierDot" unicode="&#xee34;&#x331;" 
d="M132 369v-334h363v-35h-417v369h54zM384 -170q-17 31 0 62q18 31 54 31t54 -31t0 -62t-54 -31t-54 31zM83 704h412v-47h-412v47z" />
    <glyph glyph-name="UkaliqLetterUlgu_UkaliqModifierDot" unicode="&#xee35;&#x331;" 
d="M132 369v-334h157q158 0 158 158v176h53v-176q0 -193 -211 -193h-211v369h54zM384 -170q-17 31 0 62q18 31 54 31t54 -31t0 -62t-54 -31t-54 31zM83 704h412v-47h-412v47z" />
    <glyph glyph-name="UkaliqLetterIlji_UkaliqModifierDot" unicode="&#xee36;&#x331;" 
d="M495 668h-195q-168 0 -168 -316v-317h363v-35h-417v352q0 352 222 352h195v-36zM384 -170q-17 31 0 62q18 31 54 31t54 -31t0 -62t-54 -31t-54 31z" />
    <glyph glyph-name="UkaliqLetterOlo_UkaliqModifierDot" unicode="&#xee37;&#x331;" 
d="M495 668h-195q-168 0 -168 -316v-317h157q158 0 158 158v176h53v-176q0 -193 -211 -193h-211v352q0 352 222 352h195v-36zM384 -170q-17 31 0 62q18 31 54 31t54 -31t0 -62t-54 -31t-54 31z" />
    <glyph glyph-name="UkaliqDegree_UkaliqModifierDot" unicode="&#xee38;&#x331;" 
d="M83 47h412v-47h-412v47zM84 704q416 0 416 -370h-53q0 334 -363 334v36zM384 -170q-17 31 0 62q18 31 54 31t54 -31t0 -62t-54 -31t-54 31z" />
    <glyph glyph-name="UkaliqLetterHbat_UkaliqModifierDot" unicode="&#xee39;&#x331;" 
d="M84 704q416 0 416 -464q0 -240 -222 -240h-194v35h194q169 0 169 205q0 428 -363 428v36zM384 -170q-17 31 0 62q18 31 54 31t54 -31t0 -62t-54 -31t-54 31z" />
    <glyph glyph-name="UkaliqLetterAnqa_UkaliqModifierDot" unicode="&#xee3a;&#x331;" 
d="M83 47h412v-47h-412v47zM78 334v176q0 194 150 194q272 0 272 -370h-53q0 334 -219 334q-96 0 -96 -158v-176h-54zM384 -170q-17 31 0 62q18 31 54 31t54 -31t0 -62t-54 -31t-54 31z" />
    <glyph glyph-name="UkaliqLetterAma_UkaliqModifierDot" unicode="&#xee3b;&#x331;" 
d="M78 334v176q0 194 150 194q272 0 272 -464q0 -240 -222 -240h-194v35h194q169 0 169 205q0 428 -219 428q-96 0 -96 -158v-176h-54zM384 -170q-17 31 0 62q18 31 54 31t54 -31t0 -62t-54 -31t-54 31z" />
    <glyph glyph-name="UkaliqLetterEnre_UkaliqModifierDot" unicode="&#xee3c;&#x331;" 
d="M84 704q416 0 416 -370h-53q0 334 -363 334v36zM132 369v-334h363v-35h-417v369h54zM384 -170q-17 31 0 62q18 31 54 31t54 -31t0 -62t-54 -31t-54 31z" />
    <glyph glyph-name="UkaliqLetterUngu_UkaliqModifierDot" unicode="&#xee3d;&#x331;" 
d="M84 704q416 0 416 -464q0 -240 -211 -240h-211v369h54v-334h157q158 0 158 205q0 428 -363 428v36zM384 -170q-17 31 0 62q18 31 54 31t54 -31t0 -62t-54 -31t-54 31z" />
    <glyph glyph-name="UkaliqLetterInji_UkaliqModifierDot" unicode="&#xee3e;&#x331;" 
d="M447 334q0 334 -219 334q-96 0 -96 -316v-317h363v-35h-417v352q0 352 150 352q272 0 272 -370h-53zM384 -170q-17 31 0 62q18 31 54 31t54 -31t0 -62t-54 -31t-54 31z" />
    <glyph glyph-name="UkaliqLetterOno_UkaliqModifierDot" unicode="&#xee3f;&#x331;" 
d="M384 -170q-17 31 0 62q18 31 54 31t54 -31t0 -62t-54 -31t-54 31zM132 352v-317h157q158 0 158 205q0 428 -219 428q-96 0 -96 -316zM78 352q0 352 150 352q272 0 272 -464q0 -240 -211 -240h-211v352z" />
    <glyph glyph-name="UkaliqDash_UkaliqModifierDot" unicode="&#xee40;&#x331;" 
d="M83 375h412v-47h-412v47zM384 -170q-17 31 0 62q18 31 54 31t54 -31t0 -62t-54 -31t-54 31z" />
    <glyph glyph-name="UkaliqLetterA_UkaliqModifierDot" unicode="&#xee41;&#x331;" 
d="M84 369h194q222 0 222 -193v-176h-53v176q0 158 -169 158h-194v35zM396 -170q-18 31 0 62t54 31t53 -31q18 -31 0 -62q-17 -31 -53 -31t-54 31z" />
    <glyph glyph-name="UkaliqMinus_UkaliqModifierDot" unicode="&#xee42;&#x331;" 
d="M132 704v-176q0 -159 168 -159h195v-35h-195q-222 0 -222 194v176h54zM384 -170q-17 31 0 62q18 31 54 31t54 -31t0 -62t-54 -31t-54 31z" />
    <glyph glyph-name="UkaliqLetterAwa_UkaliqModifierDot" unicode="&#xee43;&#x331;" 
d="M396 -170q-18 31 0 62t54 31t53 -31q18 -31 0 -62q-17 -31 -53 -31t-54 31zM132 704v-176q0 -159 157 -159h211v-369h-53v334h-158q-211 0 -211 194v176h54z" />
    <glyph glyph-name="UkaliqLetterErre_UkaliqModifierDot" unicode="&#xee44;&#x331;" 
d="M495 334h-195q-168 0 -168 -158v-176h-54v176q0 193 222 193h195v-35zM384 -170q-17 31 0 62q18 31 54 31t54 -31t0 -62t-54 -31t-54 31z" />
    <glyph glyph-name="UkaliqAnd_UkaliqModifierDot" unicode="&#xee45;&#x331;" 
d="M78 0v176q0 193 211 193t211 -193v-176h-53v176q0 158 -158 158q-157 0 -157 -158v-176h-54zM396 -170q-18 31 0 62t54 31t53 -31q18 -31 0 -62q-17 -31 -53 -31t-54 31z" />
    <glyph glyph-name="UkaliqLetterIzji_UkaliqModifierDot" unicode="&#xee46;&#x331;" 
d="M384 -170q-17 31 0 62q18 31 54 31t54 -31t0 -62t-54 -31t-54 31zM132 704v-264v-71h363v-35h-363v-70v-264h-54v264v176v264h54z" />
    <glyph glyph-name="UkaliqLetterOro_UkaliqModifierDot" unicode="&#xee47;&#x331;" 
d="M396 -170q-18 31 0 62t54 31t53 -31q18 -31 0 -62q-17 -31 -53 -31t-54 31zM132 704v-264v-71h157q211 0 211 -193v-176h-53v176q0 158 -158 158h-157v-70v-264h-54v264v176v264h54z" />
    <glyph glyph-name="UkaliqNot_UkaliqModifierDot" unicode="&#xee48;&#x331;" 
d="M500 704v-176q0 -194 -222 -194h-194v35h194q169 0 169 159v176h53zM384 -170q-17 31 0 62q18 31 54 31t54 -31t0 -62t-54 -31t-54 31z" />
    <glyph glyph-name="UkaliqDivision_UkaliqModifierDot" unicode="&#xee49;&#x331;" 
d="M500 704v-264v-176v-264h-53v264v70h-363v35h363v71v264h53zM396 -170q-18 31 0 62t54 31t53 -31q18 -31 0 -62q-17 -31 -53 -31t-54 31z" />
    <glyph glyph-name="UkaliqXor_UkaliqModifierDot" unicode="&#xee4a;&#x331;" 
d="M132 704v-176q0 -159 157 -159q158 0 158 159v176h53v-176q0 -194 -211 -194t-211 194v176h54zM384 -170q-17 31 0 62q18 31 54 31t54 -31t0 -62t-54 -31t-54 31z" />
    <glyph glyph-name="uniEE4B_UkaliqModifierDot" unicode="&#xee4b;&#x331;" 
d="M396 -170q-18 31 0 62t54 31t53 -31q18 -31 0 -62q-17 -31 -53 -31t-54 31zM132 704v-176q0 -159 157 -159h158v71v264h53v-264v-176v-264h-53v264v70h-158q-211 0 -211 194v176h54z" />
    <glyph glyph-name="UkaliqLetterIji_UkaliqModifierDot" unicode="&#xee4c;&#x331;" 
d="M500 704v-176q0 -194 -211 -194h-157v-334h-54v369h211q158 0 158 159v176h53zM384 -170q-17 31 0 62q18 31 54 31t54 -31t0 -62t-54 -31t-54 31z" />
    <glyph glyph-name="UkaliqLetterTkot_UkaliqModifierDot" unicode="&#xee4d;&#x331;" 
d="M500 704v-264v-176v-264h-53v264v70h-158q-157 0 -157 -158v-176h-54v176q0 193 211 193h158v71v264h53zM396 -170q-18 31 0 62t54 31t53 -31q18 -31 0 -62q-17 -31 -53 -31t-54 31z" />
    <glyph glyph-name="UkaliqLetterIsji_UkaliqModifierDot" unicode="&#xee4e;&#x331;" 
d="M384 -170q-17 31 0 62q18 31 54 31t54 -31t0 -62t-54 -31t-54 31zM500 704v-176q0 -194 -211 -194h-157v-70v-264h-54v264v176v264h54v-264v-71h157q158 0 158 159v176h53z" />
    <glyph glyph-name="UkaliqLetterOrro_UkaliqModifierDot" unicode="&#xee4f;&#x331;" 
d="M396 -170q-18 31 0 62t54 31t53 -31q18 -31 0 -62q-17 -31 -53 -31t-54 31zM500 704v-264v-176v-264h-53v264v70h-315v-70v-264h-54v264v176v264h54v-264v-71h315v71v264h53z" />
    <glyph glyph-name="UkaliqDigitZero_UkaliqModifierDot" unicode="&#xee50;&#x331;" 
d="M83 47h412v-47h-412v47zM83 375h412v-47h-412v47zM384 -170q-17 31 0 62q18 31 54 31t54 -31t0 -62t-54 -31t-54 31z" />
    <glyph glyph-name="UkaliqDigitOne_UkaliqModifierDot" unicode="&#xee51;&#x331;" 
d="M84 369h194q222 0 222 -184q0 -185 -222 -185h-194v35h194q169 0 169 150q0 149 -169 149h-194v35zM384 -170q-17 31 0 62q18 31 54 31t54 -31t0 -62t-54 -31t-54 31z" />
    <glyph glyph-name="UkaliqDigitTwo_UkaliqModifierDot" unicode="&#xee52;&#x331;" 
d="M132 704v-176q0 -159 168 -159h195v-35h-195q-222 0 -222 194v176h54zM83 47h412v-47h-412v47zM384 -170q-17 31 0 62q18 31 54 31t54 -31t0 -62t-54 -31t-54 31z" />
    <glyph glyph-name="UkaliqDigitThree_UkaliqModifierDot" unicode="&#xee53;&#x331;" 
d="M384 -170q-17 31 0 62q18 31 54 31t54 -31t0 -62t-54 -31t-54 31zM132 704v-176q0 -159 157 -159h211v-184q0 -185 -222 -185h-194v35h194q169 0 169 150v149h-158q-211 0 -211 194v176h54z" />
    <glyph glyph-name="UkaliqDigitFour_UkaliqModifierDot" unicode="&#xee54;&#x331;" 
d="M495 334h-195q-168 0 -168 -149v-150h363v-35h-417v185q0 184 222 184h195v-35zM384 -170q-17 31 0 62q18 31 54 31t54 -31t0 -62t-54 -31t-54 31z" />
    <glyph glyph-name="UkaliqDigitFive_UkaliqModifierDot" unicode="&#xee55;&#x331;" 
d="M384 -170q-17 31 0 62q18 31 54 31t54 -31t0 -62t-54 -31t-54 31zM132 185v-150h157q158 0 158 150q0 149 -158 149q-157 0 -157 -149zM78 185q0 184 211 184t211 -184q0 -185 -211 -185h-211v185z" />
    <glyph glyph-name="UkaliqDigitSix_UkaliqModifierDot" unicode="&#xee56;&#x331;" 
d="M384 -170q-17 31 0 62q18 31 54 31t54 -31t0 -62t-54 -31t-54 31zM132 704v-264v-71h363v-35h-363v-66v-233h363v-35h-417v268v172v264h54z" />
    <glyph glyph-name="UkaliqDigitSeven_UkaliqModifierDot" unicode="&#xee57;&#x331;" 
d="M384 -170q-17 31 0 62q18 31 54 31t54 -31t0 -62t-54 -31t-54 31zM132 704v-264v-71h157q211 0 211 -184q0 -185 -211 -185h-211v268v172v264h54zM132 334v-66v-233h157q158 0 158 150q0 149 -158 149h-157z" />
    <glyph glyph-name="UkaliqDigitEight_UkaliqModifierDot" unicode="&#xee58;&#x331;" 
d="M83 47h412v-47h-412v47zM500 704v-176q0 -194 -222 -194h-194v35h194q169 0 169 159v176h53zM384 -170q-17 31 0 62q18 31 54 31t54 -31t0 -62t-54 -31t-54 31z" />
    <glyph glyph-name="UkaliqDigitNine_UkaliqModifierDot" unicode="&#xee59;&#x331;" 
d="M500 704v-264v-172v-83q0 -185 -222 -185h-194v35h194q169 0 169 150v83v66h-363v35h363v71v264h53zM384 -170q-17 31 0 62q18 31 54 31t54 -31t0 -62t-54 -31t-54 31z" />
    <glyph glyph-name="UkaliqDigitTen_UkaliqModifierDot" unicode="&#xee5a;&#x331;" 
d="M132 704v-176q0 -159 157 -159q158 0 158 159v176h53v-176q0 -194 -211 -194t-211 194v176h54zM83 47h412v-47h-412v47zM384 -170q-17 31 0 62q18 31 54 31t54 -31t0 -62t-54 -31t-54 31z" />
    <glyph glyph-name="UkaliqDigitEleven_UkaliqModifierDot" unicode="&#xee5b;&#x331;" 
d="M384 -170q-17 31 0 62q18 31 54 31t54 -31t0 -62t-54 -31t-54 31zM132 704v-176q0 -159 157 -159h158v71v264h53v-264v-172v-83q0 -185 -222 -185h-194v35h194q169 0 169 150v83v66h-158q-211 0 -211 194v176h54z" />
    <glyph glyph-name="UkaliqDigitTwelve_UkaliqModifierDot" unicode="&#xee5c;&#x331;" 
d="M500 704v-176q0 -194 -211 -194h-157v-299h363v-35h-417v369h211q158 0 158 159v176h53zM384 -170q-17 31 0 62q18 31 54 31t54 -31t0 -62t-54 -31t-54 31z" />
    <glyph glyph-name="UkaliqDigitThirteen_UkaliqModifierDot" unicode="&#xee5d;&#x331;" 
d="M500 704v-264v-172v-83q0 -185 -211 -185h-211v185q0 184 211 184h158v71v264h53zM384 -170q-17 31 0 62q18 31 54 31t54 -31t0 -62t-54 -31t-54 31zM447 334h-158q-157 0 -157 -149v-150h157q158 0 158 150v83v66z" />
    <glyph glyph-name="UkaliqDigitFourteen_UkaliqModifierDot" unicode="&#xee5e;&#x331;" 
d="M384 -170q-17 31 0 62q18 31 54 31t54 -31t0 -62t-54 -31t-54 31zM500 704v-176q0 -194 -211 -194h-157v-66v-233h363v-35h-417v268v172v264h54v-264v-71h157q158 0 158 159v176h53z" />
    <glyph glyph-name="UkaliqDigitFifteen_UkaliqModifierDot" unicode="&#xee5f;&#x331;" 
d="M384 -170q-17 31 0 62q18 31 54 31t54 -31t0 -62t-54 -31t-54 31zM132 704v-264v-71h315v71v264h53v-264v-172v-83q0 -185 -211 -185h-211v268v172v264h54zM447 334h-315v-66v-233h157q158 0 158 150v83v66z" />
    <glyph glyph-name="UkaliqLetterSchwa_UkaliqModifierDot" unicode="&#xee60;&#x331;" 
d="M83 375h412v-47h-412v47zM384 -170q-17 31 0 62q18 31 54 31t54 -31t0 -62t-54 -31t-54 31zM83 704h412v-47h-412v47z" />
    <glyph glyph-name="UkaliqLetterOhgo_UkaliqModifierDot" unicode="&#xee61;&#x331;" 
d="M84 369h194q222 0 222 -193v-176h-53v176q0 158 -169 158h-194v35zM396 -170q-18 31 0 62t54 31t53 -31q18 -31 0 -62q-17 -31 -53 -31t-54 31zM83 704h412v-47h-412v47z" />
    <glyph glyph-name="UkaliqLetterArha_UkaliqModifierDot" unicode="&#xee62;&#x331;" 
d="M495 668h-195q-168 0 -168 -149q0 -150 168 -150h195v-35h-195q-222 0 -222 185t222 185h195v-36zM384 -170q-17 31 0 62q18 31 54 31t54 -31t0 -62t-54 -31t-54 31z" />
    <glyph glyph-name="UkaliqLetterAva_UkaliqModifierDot" unicode="&#xee63;&#x331;" 
d="M396 -170q-18 31 0 62t54 31t53 -31q18 -31 0 -62q-17 -31 -53 -31t-54 31zM495 668h-195q-168 0 -168 -149q0 -150 157 -150h211v-369h-53v334h-158q-211 0 -211 185t222 185h195v-36z" />
    <glyph glyph-name="UkaliqLetterEzre_UkaliqModifierDot" unicode="&#xee64;&#x331;" 
d="M495 334h-195q-168 0 -168 -158v-176h-54v176q0 193 222 193h195v-35zM384 -170q-17 31 0 62q18 31 54 31t54 -31t0 -62t-54 -31t-54 31zM83 704h412v-47h-412v47z" />
    <glyph glyph-name="UkaliqLetterUghu_UkaliqModifierDot" unicode="&#xee65;&#x331;" 
d="M78 0v176q0 193 211 193t211 -193v-176h-53v176q0 158 -158 158q-157 0 -157 -158v-176h-54zM396 -170q-18 31 0 62t54 31t53 -31q18 -31 0 -62q-17 -31 -53 -31t-54 31zM83 704h412v-47h-412v47z" />
    <glyph glyph-name="UkaliqLetterIjji_UkaliqModifierDot" unicode="&#xee66;&#x331;" 
d="M384 -170q-17 31 0 62q18 31 54 31t54 -31t0 -62t-54 -31t-54 31zM495 668h-195q-168 0 -168 -149v-84v-66h363v-35h-363v-70v-264h-54v264v171v84q0 185 222 185h195v-36z" />
    <glyph glyph-name="UkaliqLetterOdho_UkaliqModifierDot" unicode="&#xee67;&#x331;" 
d="M396 -170q-18 31 0 62t54 31t53 -31q18 -31 0 -62q-17 -31 -53 -31t-54 31zM495 668h-195q-168 0 -168 -149v-84v-66h157q211 0 211 -193v-176h-53v176q0 158 -158 158h-157v-70v-264h-54v264v171v84q0 185 222 185h195v-36z" />
    <glyph glyph-name="UkaliqLetterOhho_UkaliqModifierDot" unicode="&#xee68;&#x331;" 
d="M84 704q416 0 416 -241q0 -129 -222 -129h-194v35h194q169 0 169 94q0 205 -363 205v36zM384 -170q-17 31 0 62q18 31 54 31t54 -31t0 -62t-54 -31t-54 31z" />
    <glyph glyph-name="UkaliqLetterAha_UkaliqModifierDot" unicode="&#xee69;&#x331;" 
d="M84 704q416 0 416 -285v-155v-264h-53v264v70h-363v35h363v50q0 249 -363 249v36zM396 -170q-18 31 0 62t54 31t53 -31q18 -31 0 -62q-17 -31 -53 -31t-54 31z" />
    <glyph glyph-name="UkaliqLetterAqha_UkaliqModifierDot" unicode="&#xee6a;&#x331;" 
d="M384 -170q-17 31 0 62q18 31 54 31t54 -31t0 -62t-54 -31t-54 31zM132 519q0 -150 157 -150q158 0 158 94q0 205 -219 205q-96 0 -96 -149zM78 519q0 185 150 185q272 0 272 -241q0 -129 -211 -129t-211 185z" />
    <glyph glyph-name="UkaliqLetterAfa_UkaliqModifierDot" unicode="&#xee6b;&#x331;" 
d="M396 -170q-18 31 0 62t54 31t53 -31q18 -31 0 -62q-17 -31 -53 -31t-54 31zM447 369v50q0 249 -219 249q-96 0 -96 -149q0 -150 157 -150h158zM447 334h-158q-211 0 -211 185t150 185q272 0 272 -285v-155v-264h-53v264v70z" />
    <glyph glyph-name="UkaliqLetterEsre_UkaliqModifierDot" unicode="&#xee6c;&#x331;" 
d="M84 704q416 0 416 -241q0 -129 -211 -129h-157v-334h-54v369h211q158 0 158 94q0 205 -363 205v36zM384 -170q-17 31 0 62q18 31 54 31t54 -31t0 -62t-54 -31t-54 31z" />
    <glyph glyph-name="UkaliqLetterUkhu_UkaliqModifierDot" unicode="&#xee6d;&#x331;" 
d="M84 704q416 0 416 -285v-155v-264h-53v264v70h-158q-157 0 -157 -158v-176h-54v176q0 193 211 193h158v50q0 249 -363 249v36zM396 -170q-18 31 0 62t54 31t53 -31q18 -31 0 -62q-17 -31 -53 -31t-54 31z" />
    <glyph glyph-name="UkaliqLetterIcji_UkaliqModifierDot" unicode="&#xee6e;&#x331;" 
d="M384 -170q-17 31 0 62q18 31 54 31t54 -31t0 -62t-54 -31t-54 31zM132 334v-70v-264h-54v264v171v84q0 185 150 185q272 0 272 -241q0 -129 -211 -129h-157zM132 369h157q158 0 158 94q0 205 -219 205q-96 0 -96 -149v-84v-66z" />
    <glyph glyph-name="UkaliqLetterOtho_UkaliqModifierDot" unicode="&#xee6f;&#x331;" 
d="M396 -170q-18 31 0 62t54 31t53 -31q18 -31 0 -62q-17 -31 -53 -31t-54 31zM78 0v264v171v84q0 185 150 185q272 0 272 -285v-155v-264h-53v264v70h-315v-70v-264h-54zM132 369h315v50q0 249 -219 249q-96 0 -96 -149v-84v-66z" />
    <glyph glyph-name="UkaliqIterationMark_UkaliqModifierDot" unicode="&#xee70;&#x331;" 
d="M83 47h412v-47h-412v47zM83 375h412v-47h-412v47zM384 -170q-17 31 0 62q18 31 54 31t54 -31t0 -62t-54 -31t-54 31zM83 704h412v-47h-412v47z" />
    <glyph glyph-name="UkaliqPercent_UkaliqModifierDot" unicode="&#xee71;&#x331;" 
d="M84 369h194q222 0 222 -184q0 -185 -222 -185h-194v35h194q169 0 169 150q0 149 -169 149h-194v35zM384 -170q-17 31 0 62q18 31 54 31t54 -31t0 -62t-54 -31t-54 31zM83 704h412v-47h-412v47z" />
    <glyph glyph-name="UkaliqLetterAgqa_UkaliqModifierDot" unicode="&#xee72;&#x331;" 
d="M495 668h-195q-168 0 -168 -149q0 -150 168 -150h195v-35h-195q-222 0 -222 185t222 185h195v-36zM83 47h412v-47h-412v47zM384 -170q-17 31 0 62q18 31 54 31t54 -31t0 -62t-54 -31t-54 31z" />
    <glyph glyph-name="UkaliqLetterAba_UkaliqModifierDot" unicode="&#xee73;&#x331;" 
d="M384 -170q-17 31 0 62q18 31 54 31t54 -31t0 -62t-54 -31t-54 31zM476 668h-185q-159 0 -159 -149q0 -150 157 -150h211v-184q0 -185 -217 -185h-191v35h191q164 0 164 150v149h-158q-211 0 -211 185t213 185h185v-36z" />
    <glyph glyph-name="UkaliqLetterEdre_UkaliqModifierDot" unicode="&#xee74;&#x331;" 
d="M495 334h-195q-168 0 -168 -149v-150h363v-35h-417v185q0 184 222 184h195v-35zM384 -170q-17 31 0 62q18 31 54 31t54 -31t0 -62t-54 -31t-54 31zM83 704h412v-47h-412v47z" />
    <glyph glyph-name="UkaliqLetterUgu_UkaliqModifierDot" unicode="&#xee75;&#x331;" 
d="M384 -170q-17 31 0 62q18 31 54 31t54 -31t0 -62t-54 -31t-54 31zM83 704h412v-47h-412v47zM132 185v-150h157q158 0 158 150q0 149 -158 149q-157 0 -157 -149zM78 185q0 184 211 184t211 -184q0 -185 -211 -185h-211v185z" />
    <glyph glyph-name="UkaliqLetterIgji_UkaliqModifierDot" unicode="&#xee76;&#x331;" 
d="M384 -170q-17 31 0 62q18 31 54 31t54 -31t0 -62t-54 -31t-54 31zM495 668h-195q-168 0 -168 -149v-84v-66h363v-35h-363v-66v-233h363v-35h-417v268v167v84q0 185 222 185h195v-36z" />
    <glyph glyph-name="UkaliqLetterOdo_UkaliqModifierDot" unicode="&#xee77;&#x331;" 
d="M384 -170q-17 31 0 62q18 31 54 31t54 -31t0 -62t-54 -31t-54 31zM476 668h-185q-159 0 -159 -149v-84v-66h157q211 0 211 -184q0 -185 -211 -185h-211v268v167v84q0 185 213 185h185v-36zM132 334v-66v-233h157q158 0 158 150q0 149 -158 149h-157z" />
    <glyph glyph-name="UkaliqLetterOhhko_UkaliqModifierDot" unicode="&#xee78;&#x331;" 
d="M83 47h412v-47h-412v47zM84 704q416 0 416 -241q0 -129 -222 -129h-194v35h194q169 0 169 94q0 205 -363 205v36zM384 -170q-17 31 0 62q18 31 54 31t54 -31t0 -62t-54 -31t-54 31z" />
    <glyph glyph-name="UkaliqLetterAhka_UkaliqModifierDot" unicode="&#xee79;&#x331;" 
d="M84 704q416 0 416 -285v-151v-83q0 -185 -222 -185h-194v35h194q169 0 169 150v83v66h-363v35h363v50q0 249 -363 249v36zM384 -170q-17 31 0 62q18 31 54 31t54 -31t0 -62t-54 -31t-54 31z" />
    <glyph glyph-name="UkaliqLetterAqa_UkaliqModifierDot" unicode="&#xee7a;&#x331;" 
d="M83 47h412v-47h-412v47zM384 -170q-17 31 0 62q18 31 54 31t54 -31t0 -62t-54 -31t-54 31zM132 519q0 -150 157 -150q158 0 158 94q0 205 -219 205q-96 0 -96 -149zM78 519q0 185 150 185q272 0 272 -241q0 -129 -211 -129t-211 185z" />
    <glyph glyph-name="UkaliqLetterApa_UkaliqModifierDot" unicode="&#xee7b;&#x331;" 
d="M384 -170q-17 31 0 62q18 31 54 31t54 -31t0 -62t-54 -31t-54 31zM447 369v50q0 249 -219 249q-96 0 -96 -149q0 -150 157 -150h158zM447 334h-158q-211 0 -211 185t150 185q272 0 272 -285v-151v-83q0 -185 -217 -185h-191v35h191q164 0 164 150v83v66z" />
    <glyph glyph-name="UkaliqLetterEtre_UkaliqModifierDot" unicode="&#xee7c;&#x331;" 
d="M102 704q398 0 398 -241q0 -129 -211 -129h-157v-299h355v-35h-409v369h211q158 0 158 94q0 205 -345 205v36zM384 -170q-17 31 0 62q18 31 54 31t54 -31t0 -62t-54 -31t-54 31z" />
    <glyph glyph-name="UkaliqLetterUku_UkaliqModifierDot" unicode="&#xee7d;&#x331;" 
d="M102 704q398 0 398 -285v-151v-83q0 -185 -211 -185h-211v185q0 184 211 184h158v50q0 249 -345 249v36zM384 -170q-17 31 0 62q18 31 54 31t54 -31t0 -62t-54 -31t-54 31zM447 334h-158q-157 0 -157 -149v-150h157q158 0 158 150v83v66z" />
    <glyph glyph-name="UkaliqLetterIci_UkaliqModifierDot" unicode="&#xee7e;&#x331;" 
d="M384 -170q-17 31 0 62q18 31 54 31t54 -31t0 -62t-54 -31t-54 31zM132 334v-66v-233h355v-35h-409v268v167v84q0 185 150 185q272 0 272 -241q0 -129 -211 -129h-157zM132 369h157q158 0 158 94q0 205 -219 205q-96 0 -96 -149v-84v-66z" />
    <glyph glyph-name="UkaliqLetterOto_UkaliqModifierDot" unicode="&#xee7f;&#x331;" 
d="M384 -170q-17 31 0 62q18 31 54 31t54 -31t0 -62t-54 -31t-54 31zM447 369v50q0 249 -219 249q-96 0 -96 -149v-84v-66h315zM447 334h-315v-66v-233h157q158 0 158 150v83v66zM78 519q0 185 150 185q272 0 272 -285v-151v-83q0 -185 -211 -185h-211v268v167v84z" />
    <glyph glyph-name="UkaliqPatternBlank_UkaliqModifierDot" unicode="&#xf1d00;&#x331;" 
d="M384 -170q-17 31 0 62q18 31 54 31t54 -31t0 -62t-54 -31t-54 31z" />
    <glyph glyph-name="UkaliqPatternSegmentsC_UkaliqModifierDot" unicode="&#xf1d01;&#x331;" 
d="M500 369v-369h-53v369h53zM396 -170q-18 31 0 62t54 31t53 -31q18 -31 0 -62q-17 -31 -53 -31t-54 31z" />
    <glyph glyph-name="UkaliqPatternSegmentsF_UkaliqModifierDot" unicode="&#xf1d02;&#x331;" 
d="M132 704v-370h-54v370h54zM384 -170q-17 31 0 62q18 31 54 31t54 -31t0 -62t-54 -31t-54 31z" />
    <glyph glyph-name="UkaliqPatternSegmentsCf_UkaliqModifierDot" unicode="&#xf1d03;&#x331;" 
d="M500 369v-369h-53v369h53zM132 704v-370h-54v370h54zM396 -170q-18 31 0 62t54 31t53 -31q18 -31 0 -62q-17 -31 -53 -31t-54 31z" />
    <glyph glyph-name="UkaliqPatternSegmentsE_UkaliqModifierDot" unicode="&#xf1d04;&#x331;" 
d="M132 369v-369h-54v369h54zM384 -170q-17 31 0 62q18 31 54 31t54 -31t0 -62t-54 -31t-54 31z" />
    <glyph glyph-name="UkaliqPatternSegmentsCe_UkaliqModifierDot" unicode="&#xf1d05;&#x331;" 
d="M500 369v-369h-53v369h53zM132 369v-369h-54v369h54zM396 -170q-18 31 0 62t54 31t53 -31q18 -31 0 -62q-17 -31 -53 -31t-54 31z" />
    <glyph glyph-name="UkaliqPatternSegmentsEf_UkaliqModifierDot" unicode="&#xf1d06;&#x331;" 
d="M132 704v-704h-54v704h54zM384 -170q-17 31 0 62q18 31 54 31t54 -31t0 -62t-54 -31t-54 31z" />
    <glyph glyph-name="UkaliqPatternSegmentsCef_UkaliqModifierDot" unicode="&#xf1d07;&#x331;" 
d="M132 704v-704h-54v704h54zM500 369v-369h-53v369h53zM396 -170q-18 31 0 62t54 31t53 -31q18 -31 0 -62q-17 -31 -53 -31t-54 31z" />
    <glyph glyph-name="UkaliqPatternSegmentsB_UkaliqModifierDot" unicode="&#xf1d08;&#x331;" 
d="M500 704v-370h-53v370h53zM384 -170q-17 31 0 62q18 31 54 31t54 -31t0 -62t-54 -31t-54 31z" />
    <glyph glyph-name="UkaliqPatternSegmentsBc_UkaliqModifierDot" unicode="&#xf1d09;&#x331;" 
d="M500 704v-704h-53v704h53zM396 -170q-18 31 0 62t54 31t53 -31q18 -31 0 -62q-17 -31 -53 -31t-54 31z" />
    <glyph glyph-name="UkaliqPatternSegmentsBf_UkaliqModifierDot" unicode="&#xf1d0a;&#x331;" 
d="M132 704v-370h-54v370h54zM500 704v-370h-53v370h53zM384 -170q-17 31 0 62q18 31 54 31t54 -31t0 -62t-54 -31t-54 31z" />
    <glyph glyph-name="UkaliqPatternSegmentsBcf_UkaliqModifierDot" unicode="&#xf1d0b;&#x331;" 
d="M500 704v-704h-53v704h53zM132 704v-370h-54v370h54zM396 -170q-18 31 0 62t54 31t53 -31q18 -31 0 -62q-17 -31 -53 -31t-54 31z" />
    <glyph glyph-name="UkaliqPatternSegmentsBe_UkaliqModifierDot" unicode="&#xf1d0c;&#x331;" 
d="M500 704v-370h-53v370h53zM132 369v-369h-54v369h54zM384 -170q-17 31 0 62q18 31 54 31t54 -31t0 -62t-54 -31t-54 31z" />
    <glyph glyph-name="UkaliqPatternSegmentsBce_UkaliqModifierDot" unicode="&#xf1d0d;&#x331;" 
d="M500 704v-704h-53v704h53zM132 369v-369h-54v369h54zM396 -170q-18 31 0 62t54 31t53 -31q18 -31 0 -62q-17 -31 -53 -31t-54 31z" />
    <glyph glyph-name="UkaliqPatternSegmentsBef_UkaliqModifierDot" unicode="&#xf1d0e;&#x331;" 
d="M132 704v-704h-54v704h54zM500 704v-370h-53v370h53zM384 -170q-17 31 0 62q18 31 54 31t54 -31t0 -62t-54 -31t-54 31z" />
    <glyph glyph-name="UkaliqPatternSegmentsBcef_UkaliqModifierDot" unicode="&#xf1d0f;&#x331;" 
d="M500 704v-704h-53v704h53zM132 704v-704h-54v704h54zM396 -170q-18 31 0 62t54 31t53 -31q18 -31 0 -62q-17 -31 -53 -31t-54 31z" />
    <glyph glyph-name="UkaliqPatternSegmentsD_UkaliqModifierDot" unicode="&#xf1d10;&#x331;" 
d="M83 47h412v-47h-412v47zM384 -170q-17 31 0 62q18 31 54 31t54 -31t0 -62t-54 -31t-54 31z" />
    <glyph glyph-name="UkaliqPatternSegmentsCd_UkaliqModifierDot" unicode="&#xf1d11;&#x331;" 
d="M384 -170q-17 31 0 62q18 31 54 31t54 -31t0 -62t-54 -31t-54 31zM500 369v-176q0 -193 -222 -193h-194v35h194q169 0 169 158v176h53z" />
    <glyph glyph-name="UkaliqPatternSegmentsDf_UkaliqModifierDot" unicode="&#xf1d12;&#x331;" 
d="M83 47h412v-47h-412v47zM132 704v-370h-54v370h54zM384 -170q-17 31 0 62q18 31 54 31t54 -31t0 -62t-54 -31t-54 31z" />
    <glyph glyph-name="UkaliqPatternSegmentsCdf_UkaliqModifierDot" unicode="&#xf1d13;&#x331;" 
d="M132 704v-370h-54v370h54zM384 -170q-17 31 0 62q18 31 54 31t54 -31t0 -62t-54 -31t-54 31zM500 369v-176q0 -193 -222 -193h-194v35h194q169 0 169 158v176h53z" />
    <glyph glyph-name="UkaliqPatternSegmentsDe_UkaliqModifierDot" unicode="&#xf1d14;&#x331;" 
d="M132 369v-334h363v-35h-417v369h54zM384 -170q-17 31 0 62q18 31 54 31t54 -31t0 -62t-54 -31t-54 31z" />
    <glyph glyph-name="UkaliqPatternSegmentsCde_UkaliqModifierDot" unicode="&#xf1d15;&#x331;" 
d="M132 369v-334h157q158 0 158 158v176h53v-176q0 -193 -211 -193h-211v369h54zM384 -170q-17 31 0 62q18 31 54 31t54 -31t0 -62t-54 -31t-54 31z" />
    <glyph glyph-name="UkaliqPatternSegmentsDef_UkaliqModifierDot" unicode="&#xf1d16;&#x331;" 
d="M132 704v-669h363v-35h-417v704h54zM384 -170q-17 31 0 62q18 31 54 31t54 -31t0 -62t-54 -31t-54 31z" />
    <glyph glyph-name="UkaliqPatternSegmentsCdef_UkaliqModifierDot" unicode="&#xf1d17;&#x331;" 
d="M132 704v-669h157q158 0 158 158v176h53v-176q0 -193 -211 -193h-211v704h54zM384 -170q-17 31 0 62q18 31 54 31t54 -31t0 -62t-54 -31t-54 31z" />
    <glyph glyph-name="UkaliqPatternSegmentsBd_UkaliqModifierDot" unicode="&#xf1d18;&#x331;" 
d="M83 47h412v-47h-412v47zM500 704v-370h-53v370h53zM384 -170q-17 31 0 62q18 31 54 31t54 -31t0 -62t-54 -31t-54 31z" />
    <glyph glyph-name="UkaliqPatternSegmentsBcd_UkaliqModifierDot" unicode="&#xf1d19;&#x331;" 
d="M500 704v-343q0 -361 -222 -361h-194v35h194q169 0 169 326v343h53zM384 -170q-17 31 0 62q18 31 54 31t54 -31t0 -62t-54 -31t-54 31z" />
    <glyph glyph-name="UkaliqPatternSegmentsBdf_UkaliqModifierDot" unicode="&#xf1d1a;&#x331;" 
d="M83 47h412v-47h-412v47zM132 704v-370h-54v370h54zM500 704v-370h-53v370h53zM384 -170q-17 31 0 62q18 31 54 31t54 -31t0 -62t-54 -31t-54 31z" />
    <glyph glyph-name="UkaliqPatternSegmentsBcdf_UkaliqModifierDot" unicode="&#xf1d1b;&#x331;" 
d="M132 704v-370h-54v370h54zM500 704v-343q0 -361 -222 -361h-194v35h194q169 0 169 326v343h53zM384 -170q-17 31 0 62q18 31 54 31t54 -31t0 -62t-54 -31t-54 31z" />
    <glyph glyph-name="UkaliqPatternSegmentsBde_UkaliqModifierDot" unicode="&#xf1d1c;&#x331;" 
d="M132 369v-334h363v-35h-417v369h54zM500 704v-370h-53v370h53zM384 -170q-17 31 0 62q18 31 54 31t54 -31t0 -62t-54 -31t-54 31z" />
    <glyph glyph-name="UkaliqPatternSegmentsBcde_UkaliqModifierDot" unicode="&#xf1d1d;&#x331;" 
d="M500 704v-343q0 -361 -211 -361h-211v369h54v-334h157q158 0 158 326v343h53zM384 -170q-17 31 0 62q18 31 54 31t54 -31t0 -62t-54 -31t-54 31z" />
    <glyph glyph-name="UkaliqPatternSegmentsBdef_UkaliqModifierDot" unicode="&#xf1d1e;&#x331;" 
d="M132 704v-669h363v-35h-417v704h54zM500 704v-370h-53v370h53zM384 -170q-17 31 0 62q18 31 54 31t54 -31t0 -62t-54 -31t-54 31z" />
    <glyph glyph-name="UkaliqPatternSegmentsBcdef_UkaliqModifierDot" unicode="&#xf1d1f;&#x331;" 
d="M132 704v-669h157q158 0 158 326v343h53v-343q0 -361 -211 -361h-211v704h54zM384 -170q-17 31 0 62q18 31 54 31t54 -31t0 -62t-54 -31t-54 31z" />
    <glyph glyph-name="UkaliqPatternSegmentsA_UkaliqModifierDot" unicode="&#xf1d20;&#x331;" 
d="M384 -170q-17 31 0 62q18 31 54 31t54 -31t0 -62t-54 -31t-54 31zM83 704h412v-47h-412v47z" />
    <glyph glyph-name="UkaliqPatternSegmentsAc_UkaliqModifierDot" unicode="&#xf1d21;&#x331;" 
d="M500 369v-369h-53v369h53zM396 -170q-18 31 0 62t54 31t53 -31q18 -31 0 -62q-17 -31 -53 -31t-54 31zM83 704h412v-47h-412v47z" />
    <glyph glyph-name="UkaliqPatternSegmentsAf_UkaliqModifierDot" unicode="&#xf1d22;&#x331;" 
d="M495 668h-195q-168 0 -168 -158v-176h-54v176q0 194 222 194h195v-36zM384 -170q-17 31 0 62q18 31 54 31t54 -31t0 -62t-54 -31t-54 31z" />
    <glyph glyph-name="UkaliqPatternSegmentsAcf_UkaliqModifierDot" unicode="&#xf1d23;&#x331;" 
d="M500 369v-369h-53v369h53zM495 668h-195q-168 0 -168 -158v-176h-54v176q0 194 222 194h195v-36zM396 -170q-18 31 0 62t54 31t53 -31q18 -31 0 -62q-17 -31 -53 -31t-54 31z" />
    <glyph glyph-name="UkaliqPatternSegmentsAe_UkaliqModifierDot" unicode="&#xf1d24;&#x331;" 
d="M132 369v-369h-54v369h54zM384 -170q-17 31 0 62q18 31 54 31t54 -31t0 -62t-54 -31t-54 31zM83 704h412v-47h-412v47z" />
    <glyph glyph-name="UkaliqPatternSegmentsAce_UkaliqModifierDot" unicode="&#xf1d25;&#x331;" 
d="M500 369v-369h-53v369h53zM132 369v-369h-54v369h54zM396 -170q-18 31 0 62t54 31t53 -31q18 -31 0 -62q-17 -31 -53 -31t-54 31zM83 704h412v-47h-412v47z" />
    <glyph glyph-name="UkaliqPatternSegmentsAef_UkaliqModifierDot" unicode="&#xf1d26;&#x331;" 
d="M495 668h-195q-168 0 -168 -325v-343h-54v343q0 361 222 361h195v-36zM384 -170q-17 31 0 62q18 31 54 31t54 -31t0 -62t-54 -31t-54 31z" />
    <glyph glyph-name="UkaliqPatternSegmentsAcef_UkaliqModifierDot" unicode="&#xf1d27;&#x331;" 
d="M495 668h-195q-168 0 -168 -325v-343h-54v343q0 361 222 361h195v-36zM500 369v-369h-53v369h53zM396 -170q-18 31 0 62t54 31t53 -31q18 -31 0 -62q-17 -31 -53 -31t-54 31z" />
    <glyph glyph-name="UkaliqPatternSegmentsAb_UkaliqModifierDot" unicode="&#xf1d28;&#x331;" 
d="M84 704q416 0 416 -370h-53q0 334 -363 334v36zM384 -170q-17 31 0 62q18 31 54 31t54 -31t0 -62t-54 -31t-54 31z" />
    <glyph glyph-name="UkaliqPatternSegmentsAbc_UkaliqModifierDot" unicode="&#xf1d29;&#x331;" 
d="M84 704q416 0 416 -704h-53q0 668 -363 668v36zM396 -170q-18 31 0 62t54 31t53 -31q18 -31 0 -62q-17 -31 -53 -31t-54 31z" />
    <glyph glyph-name="UkaliqPatternSegmentsAbf_UkaliqModifierDot" unicode="&#xf1d2a;&#x331;" 
d="M78 334v176q0 194 150 194q272 0 272 -370h-53q0 334 -219 334q-96 0 -96 -158v-176h-54zM384 -170q-17 31 0 62q18 31 54 31t54 -31t0 -62t-54 -31t-54 31z" />
    <glyph glyph-name="UkaliqPatternSegmentsAbcf_UkaliqModifierDot" unicode="&#xf1d2b;&#x331;" 
d="M78 334v176q0 194 150 194q272 0 272 -704h-53q0 668 -219 668q-96 0 -96 -158v-176h-54zM396 -170q-18 31 0 62t54 31t53 -31q18 -31 0 -62q-17 -31 -53 -31t-54 31z" />
    <glyph glyph-name="UkaliqPatternSegmentsAbe_UkaliqModifierDot" unicode="&#xf1d2c;&#x331;" 
d="M84 704q416 0 416 -370h-53q0 334 -363 334v36zM132 369v-369h-54v369h54zM384 -170q-17 31 0 62q18 31 54 31t54 -31t0 -62t-54 -31t-54 31z" />
    <glyph glyph-name="UkaliqPatternSegmentsAbce_UkaliqModifierDot" unicode="&#xf1d2d;&#x331;" 
d="M84 704q416 0 416 -704h-53q0 668 -363 668v36zM132 369v-369h-54v369h54zM396 -170q-18 31 0 62t54 31t53 -31q18 -31 0 -62q-17 -31 -53 -31t-54 31z" />
    <glyph glyph-name="UkaliqPatternSegmentsAbef_UkaliqModifierDot" unicode="&#xf1d2e;&#x331;" 
d="M447 334q0 334 -219 334q-96 0 -96 -325v-343h-54v343q0 361 150 361q272 0 272 -370h-53zM384 -170q-17 31 0 62q18 31 54 31t54 -31t0 -62t-54 -31t-54 31z" />
    <glyph glyph-name="UkaliqPatternSegmentsAbcef_UkaliqModifierDot" unicode="&#xf1d2f;&#x331;" 
d="M78 0v343q0 361 150 361q272 0 272 -704h-53q0 668 -219 668q-96 0 -96 -325v-343h-54zM396 -170q-18 31 0 62t54 31t53 -31q18 -31 0 -62q-17 -31 -53 -31t-54 31z" />
    <glyph glyph-name="UkaliqPatternSegmentsAd_UkaliqModifierDot" unicode="&#xf1d30;&#x331;" 
d="M83 47h412v-47h-412v47zM384 -170q-17 31 0 62q18 31 54 31t54 -31t0 -62t-54 -31t-54 31zM83 704h412v-47h-412v47z" />
    <glyph glyph-name="UkaliqPatternSegmentsAcd_UkaliqModifierDot" unicode="&#xf1d31;&#x331;" 
d="M384 -170q-17 31 0 62q18 31 54 31t54 -31t0 -62t-54 -31t-54 31zM500 369v-176q0 -193 -222 -193h-194v35h194q169 0 169 158v176h53zM83 704h412v-47h-412v47z" />
    <glyph glyph-name="UkaliqPatternSegmentsAdf_UkaliqModifierDot" unicode="&#xf1d32;&#x331;" 
d="M83 47h412v-47h-412v47zM495 668h-195q-168 0 -168 -158v-176h-54v176q0 194 222 194h195v-36zM384 -170q-17 31 0 62q18 31 54 31t54 -31t0 -62t-54 -31t-54 31z" />
    <glyph glyph-name="UkaliqPatternSegmentsAcdf_UkaliqModifierDot" unicode="&#xf1d33;&#x331;" 
d="M495 668h-195q-168 0 -168 -158v-176h-54v176q0 194 222 194h195v-36zM384 -170q-17 31 0 62q18 31 54 31t54 -31t0 -62t-54 -31t-54 31zM500 369v-176q0 -193 -222 -193h-194v35h194q169 0 169 158v176h53z" />
    <glyph glyph-name="UkaliqPatternSegmentsAde_UkaliqModifierDot" unicode="&#xf1d34;&#x331;" 
d="M132 369v-334h363v-35h-417v369h54zM384 -170q-17 31 0 62q18 31 54 31t54 -31t0 -62t-54 -31t-54 31zM83 704h412v-47h-412v47z" />
    <glyph glyph-name="UkaliqPatternSegmentsAcde_UkaliqModifierDot" unicode="&#xf1d35;&#x331;" 
d="M132 369v-334h157q158 0 158 158v176h53v-176q0 -193 -211 -193h-211v369h54zM384 -170q-17 31 0 62q18 31 54 31t54 -31t0 -62t-54 -31t-54 31zM83 704h412v-47h-412v47z" />
    <glyph glyph-name="UkaliqPatternSegmentsAdef_UkaliqModifierDot" unicode="&#xf1d36;&#x331;" 
d="M495 668h-195q-168 0 -168 -316v-317h363v-35h-417v352q0 352 222 352h195v-36zM384 -170q-17 31 0 62q18 31 54 31t54 -31t0 -62t-54 -31t-54 31z" />
    <glyph glyph-name="UkaliqPatternSegmentsAcdef_UkaliqModifierDot" unicode="&#xf1d37;&#x331;" 
d="M495 668h-195q-168 0 -168 -316v-317h157q158 0 158 158v176h53v-176q0 -193 -211 -193h-211v352q0 352 222 352h195v-36zM384 -170q-17 31 0 62q18 31 54 31t54 -31t0 -62t-54 -31t-54 31z" />
    <glyph glyph-name="UkaliqPatternSegmentsAbd_UkaliqModifierDot" unicode="&#xf1d38;&#x331;" 
d="M83 47h412v-47h-412v47zM84 704q416 0 416 -370h-53q0 334 -363 334v36zM384 -170q-17 31 0 62q18 31 54 31t54 -31t0 -62t-54 -31t-54 31z" />
    <glyph glyph-name="UkaliqPatternSegmentsAbcd_UkaliqModifierDot" unicode="&#xf1d39;&#x331;" 
d="M84 704q416 0 416 -464q0 -240 -222 -240h-194v35h194q169 0 169 205q0 428 -363 428v36zM384 -170q-17 31 0 62q18 31 54 31t54 -31t0 -62t-54 -31t-54 31z" />
    <glyph glyph-name="UkaliqPatternSegmentsAbdf_UkaliqModifierDot" unicode="&#xf1d3a;&#x331;" 
d="M83 47h412v-47h-412v47zM78 334v176q0 194 150 194q272 0 272 -370h-53q0 334 -219 334q-96 0 -96 -158v-176h-54zM384 -170q-17 31 0 62q18 31 54 31t54 -31t0 -62t-54 -31t-54 31z" />
    <glyph glyph-name="UkaliqPatternSegmentsAbcdf_UkaliqModifierDot" unicode="&#xf1d3b;&#x331;" 
d="M78 334v176q0 194 150 194q272 0 272 -464q0 -240 -222 -240h-194v35h194q169 0 169 205q0 428 -219 428q-96 0 -96 -158v-176h-54zM384 -170q-17 31 0 62q18 31 54 31t54 -31t0 -62t-54 -31t-54 31z" />
    <glyph glyph-name="UkaliqPatternSegmentsAbde_UkaliqModifierDot" unicode="&#xf1d3c;&#x331;" 
d="M84 704q416 0 416 -370h-53q0 334 -363 334v36zM132 369v-334h363v-35h-417v369h54zM384 -170q-17 31 0 62q18 31 54 31t54 -31t0 -62t-54 -31t-54 31z" />
    <glyph glyph-name="UkaliqPatternSegmentsAbcde_UkaliqModifierDot" unicode="&#xf1d3d;&#x331;" 
d="M84 704q416 0 416 -464q0 -240 -211 -240h-211v369h54v-334h157q158 0 158 205q0 428 -363 428v36zM384 -170q-17 31 0 62q18 31 54 31t54 -31t0 -62t-54 -31t-54 31z" />
    <glyph glyph-name="UkaliqPatternSegmentsAbdef_UkaliqModifierDot" unicode="&#xf1d3e;&#x331;" 
d="M447 334q0 334 -219 334q-96 0 -96 -316v-317h363v-35h-417v352q0 352 150 352q272 0 272 -370h-53zM384 -170q-17 31 0 62q18 31 54 31t54 -31t0 -62t-54 -31t-54 31z" />
    <glyph glyph-name="UkaliqPatternSegmentsAbcdef_UkaliqModifierDot" unicode="&#xf1d3f;&#x331;" 
d="M384 -170q-17 31 0 62q18 31 54 31t54 -31t0 -62t-54 -31t-54 31zM132 352v-317h157q158 0 158 205q0 428 -219 428q-96 0 -96 -316zM78 352q0 352 150 352q272 0 272 -464q0 -240 -211 -240h-211v352z" />
    <glyph glyph-name="UkaliqPatternSegmentsG_UkaliqModifierDot" unicode="&#xf1d40;&#x331;" 
d="M83 375h412v-47h-412v47zM384 -170q-17 31 0 62q18 31 54 31t54 -31t0 -62t-54 -31t-54 31z" />
    <glyph glyph-name="UkaliqPatternSegmentsCg_UkaliqModifierDot" unicode="&#xf1d41;&#x331;" 
d="M84 369h194q222 0 222 -193v-176h-53v176q0 158 -169 158h-194v35zM396 -170q-18 31 0 62t54 31t53 -31q18 -31 0 -62q-17 -31 -53 -31t-54 31z" />
    <glyph glyph-name="UkaliqPatternSegmentsFg_UkaliqModifierDot" unicode="&#xf1d42;&#x331;" 
d="M132 704v-176q0 -159 168 -159h195v-35h-195q-222 0 -222 194v176h54zM384 -170q-17 31 0 62q18 31 54 31t54 -31t0 -62t-54 -31t-54 31z" />
    <glyph glyph-name="UkaliqPatternSegmentsCfg_UkaliqModifierDot" unicode="&#xf1d43;&#x331;" 
d="M396 -170q-18 31 0 62t54 31t53 -31q18 -31 0 -62q-17 -31 -53 -31t-54 31zM132 704v-176q0 -159 157 -159h211v-369h-53v334h-158q-211 0 -211 194v176h54z" />
    <glyph glyph-name="UkaliqPatternSegmentsEg_UkaliqModifierDot" unicode="&#xf1d44;&#x331;" 
d="M495 334h-195q-168 0 -168 -158v-176h-54v176q0 193 222 193h195v-35zM384 -170q-17 31 0 62q18 31 54 31t54 -31t0 -62t-54 -31t-54 31z" />
    <glyph glyph-name="UkaliqPatternSegmentsCeg_UkaliqModifierDot" unicode="&#xf1d45;&#x331;" 
d="M78 0v176q0 193 211 193t211 -193v-176h-53v176q0 158 -158 158q-157 0 -157 -158v-176h-54zM396 -170q-18 31 0 62t54 31t53 -31q18 -31 0 -62q-17 -31 -53 -31t-54 31z" />
    <glyph glyph-name="UkaliqPatternSegmentsEfg_UkaliqModifierDot" unicode="&#xf1d46;&#x331;" 
d="M384 -170q-17 31 0 62q18 31 54 31t54 -31t0 -62t-54 -31t-54 31zM132 704v-264v-71h363v-35h-363v-70v-264h-54v264v176v264h54z" />
    <glyph glyph-name="UkaliqPatternSegmentsCefg_UkaliqModifierDot" unicode="&#xf1d47;&#x331;" 
d="M396 -170q-18 31 0 62t54 31t53 -31q18 -31 0 -62q-17 -31 -53 -31t-54 31zM132 704v-264v-71h157q211 0 211 -193v-176h-53v176q0 158 -158 158h-157v-70v-264h-54v264v176v264h54z" />
    <glyph glyph-name="UkaliqPatternSegmentsBg_UkaliqModifierDot" unicode="&#xf1d48;&#x331;" 
d="M500 704v-176q0 -194 -222 -194h-194v35h194q169 0 169 159v176h53zM384 -170q-17 31 0 62q18 31 54 31t54 -31t0 -62t-54 -31t-54 31z" />
    <glyph glyph-name="UkaliqPatternSegmentsBcg_UkaliqModifierDot" unicode="&#xf1d49;&#x331;" 
d="M500 704v-264v-176v-264h-53v264v70h-363v35h363v71v264h53zM396 -170q-18 31 0 62t54 31t53 -31q18 -31 0 -62q-17 -31 -53 -31t-54 31z" />
    <glyph glyph-name="UkaliqPatternSegmentsBfg_UkaliqModifierDot" unicode="&#xf1d4a;&#x331;" 
d="M132 704v-176q0 -159 157 -159q158 0 158 159v176h53v-176q0 -194 -211 -194t-211 194v176h54zM384 -170q-17 31 0 62q18 31 54 31t54 -31t0 -62t-54 -31t-54 31z" />
    <glyph glyph-name="UkaliqPatternSegmentsBcfg_UkaliqModifierDot" unicode="&#xf1d4b;&#x331;" 
d="M396 -170q-18 31 0 62t54 31t53 -31q18 -31 0 -62q-17 -31 -53 -31t-54 31zM132 704v-176q0 -159 157 -159h158v71v264h53v-264v-176v-264h-53v264v70h-158q-211 0 -211 194v176h54z" />
    <glyph glyph-name="UkaliqPatternSegmentsBeg_UkaliqModifierDot" unicode="&#xf1d4c;&#x331;" 
d="M500 704v-176q0 -194 -211 -194h-157v-334h-54v369h211q158 0 158 159v176h53zM384 -170q-17 31 0 62q18 31 54 31t54 -31t0 -62t-54 -31t-54 31z" />
    <glyph glyph-name="UkaliqPatternSegmentsBceg_UkaliqModifierDot" unicode="&#xf1d4d;&#x331;" 
d="M500 704v-264v-176v-264h-53v264v70h-158q-157 0 -157 -158v-176h-54v176q0 193 211 193h158v71v264h53zM396 -170q-18 31 0 62t54 31t53 -31q18 -31 0 -62q-17 -31 -53 -31t-54 31z" />
    <glyph glyph-name="UkaliqPatternSegmentsBefg_UkaliqModifierDot" unicode="&#xf1d4e;&#x331;" 
d="M384 -170q-17 31 0 62q18 31 54 31t54 -31t0 -62t-54 -31t-54 31zM500 704v-176q0 -194 -211 -194h-157v-70v-264h-54v264v176v264h54v-264v-71h157q158 0 158 159v176h53z" />
    <glyph glyph-name="UkaliqPatternSegmentsBcefg_UkaliqModifierDot" unicode="&#xf1d4f;&#x331;" 
d="M396 -170q-18 31 0 62t54 31t53 -31q18 -31 0 -62q-17 -31 -53 -31t-54 31zM500 704v-264v-176v-264h-53v264v70h-315v-70v-264h-54v264v176v264h54v-264v-71h315v71v264h53z" />
    <glyph glyph-name="UkaliqPatternSegmentsDg_UkaliqModifierDot" unicode="&#xf1d50;&#x331;" 
d="M83 47h412v-47h-412v47zM83 375h412v-47h-412v47zM384 -170q-17 31 0 62q18 31 54 31t54 -31t0 -62t-54 -31t-54 31z" />
    <glyph glyph-name="UkaliqPatternSegmentsCdg_UkaliqModifierDot" unicode="&#xf1d51;&#x331;" 
d="M84 369h194q222 0 222 -184q0 -185 -222 -185h-194v35h194q169 0 169 150q0 149 -169 149h-194v35zM384 -170q-17 31 0 62q18 31 54 31t54 -31t0 -62t-54 -31t-54 31z" />
    <glyph glyph-name="UkaliqPatternSegmentsDfg_UkaliqModifierDot" unicode="&#xf1d52;&#x331;" 
d="M132 704v-176q0 -159 168 -159h195v-35h-195q-222 0 -222 194v176h54zM83 47h412v-47h-412v47zM384 -170q-17 31 0 62q18 31 54 31t54 -31t0 -62t-54 -31t-54 31z" />
    <glyph glyph-name="UkaliqPatternSegmentsCdfg_UkaliqModifierDot" unicode="&#xf1d53;&#x331;" 
d="M384 -170q-17 31 0 62q18 31 54 31t54 -31t0 -62t-54 -31t-54 31zM132 704v-176q0 -159 157 -159h211v-184q0 -185 -222 -185h-194v35h194q169 0 169 150v149h-158q-211 0 -211 194v176h54z" />
    <glyph glyph-name="UkaliqPatternSegmentsDeg_UkaliqModifierDot" unicode="&#xf1d54;&#x331;" 
d="M495 334h-195q-168 0 -168 -149v-150h363v-35h-417v185q0 184 222 184h195v-35zM384 -170q-17 31 0 62q18 31 54 31t54 -31t0 -62t-54 -31t-54 31z" />
    <glyph glyph-name="UkaliqPatternSegmentsCdeg_UkaliqModifierDot" unicode="&#xf1d55;&#x331;" 
d="M384 -170q-17 31 0 62q18 31 54 31t54 -31t0 -62t-54 -31t-54 31zM132 185v-150h157q158 0 158 150q0 149 -158 149q-157 0 -157 -149zM78 185q0 184 211 184t211 -184q0 -185 -211 -185h-211v185z" />
    <glyph glyph-name="UkaliqPatternSegmentsDefg_UkaliqModifierDot" unicode="&#xf1d56;&#x331;" 
d="M384 -170q-17 31 0 62q18 31 54 31t54 -31t0 -62t-54 -31t-54 31zM132 704v-264v-71h363v-35h-363v-66v-233h363v-35h-417v268v172v264h54z" />
    <glyph glyph-name="UkaliqPatternSegmentsCdefg_UkaliqModifierDot" unicode="&#xf1d57;&#x331;" 
d="M384 -170q-17 31 0 62q18 31 54 31t54 -31t0 -62t-54 -31t-54 31zM132 704v-264v-71h157q211 0 211 -184q0 -185 -211 -185h-211v268v172v264h54zM132 334v-66v-233h157q158 0 158 150q0 149 -158 149h-157z" />
    <glyph glyph-name="UkaliqPatternSegmentsBdg_UkaliqModifierDot" unicode="&#xf1d58;&#x331;" 
d="M83 47h412v-47h-412v47zM500 704v-176q0 -194 -222 -194h-194v35h194q169 0 169 159v176h53zM384 -170q-17 31 0 62q18 31 54 31t54 -31t0 -62t-54 -31t-54 31z" />
    <glyph glyph-name="UkaliqPatternSegmentsBcdg_UkaliqModifierDot" unicode="&#xf1d59;&#x331;" 
d="M500 704v-264v-172v-83q0 -185 -222 -185h-194v35h194q169 0 169 150v83v66h-363v35h363v71v264h53zM384 -170q-17 31 0 62q18 31 54 31t54 -31t0 -62t-54 -31t-54 31z" />
    <glyph glyph-name="UkaliqPatternSegmentsBdfg_UkaliqModifierDot" unicode="&#xf1d5a;&#x331;" 
d="M132 704v-176q0 -159 157 -159q158 0 158 159v176h53v-176q0 -194 -211 -194t-211 194v176h54zM83 47h412v-47h-412v47zM384 -170q-17 31 0 62q18 31 54 31t54 -31t0 -62t-54 -31t-54 31z" />
    <glyph glyph-name="UkaliqPatternSegmentsBcdfg_UkaliqModifierDot" unicode="&#xf1d5b;&#x331;" 
d="M384 -170q-17 31 0 62q18 31 54 31t54 -31t0 -62t-54 -31t-54 31zM132 704v-176q0 -159 157 -159h158v71v264h53v-264v-172v-83q0 -185 -222 -185h-194v35h194q169 0 169 150v83v66h-158q-211 0 -211 194v176h54z" />
    <glyph glyph-name="UkaliqPatternSegmentsBdeg_UkaliqModifierDot" unicode="&#xf1d5c;&#x331;" 
d="M500 704v-176q0 -194 -211 -194h-157v-299h363v-35h-417v369h211q158 0 158 159v176h53zM384 -170q-17 31 0 62q18 31 54 31t54 -31t0 -62t-54 -31t-54 31z" />
    <glyph glyph-name="UkaliqPatternSegmentsBcdeg_UkaliqModifierDot" unicode="&#xf1d5d;&#x331;" 
d="M500 704v-264v-172v-83q0 -185 -211 -185h-211v185q0 184 211 184h158v71v264h53zM384 -170q-17 31 0 62q18 31 54 31t54 -31t0 -62t-54 -31t-54 31zM447 334h-158q-157 0 -157 -149v-150h157q158 0 158 150v83v66z" />
    <glyph glyph-name="UkaliqPatternSegmentsBdefg_UkaliqModifierDot" unicode="&#xf1d5e;&#x331;" 
d="M384 -170q-17 31 0 62q18 31 54 31t54 -31t0 -62t-54 -31t-54 31zM500 704v-176q0 -194 -211 -194h-157v-66v-233h363v-35h-417v268v172v264h54v-264v-71h157q158 0 158 159v176h53z" />
    <glyph glyph-name="UkaliqPatternSegmentsBcdefg_UkaliqModifierDot" unicode="&#xf1d5f;&#x331;" 
d="M384 -170q-17 31 0 62q18 31 54 31t54 -31t0 -62t-54 -31t-54 31zM132 704v-264v-71h315v71v264h53v-264v-172v-83q0 -185 -211 -185h-211v268v172v264h54zM447 334h-315v-66v-233h157q158 0 158 150v83v66z" />
    <glyph glyph-name="UkaliqPatternSegmentsAg_UkaliqModifierDot" unicode="&#xf1d60;&#x331;" 
d="M83 375h412v-47h-412v47zM384 -170q-17 31 0 62q18 31 54 31t54 -31t0 -62t-54 -31t-54 31zM83 704h412v-47h-412v47z" />
    <glyph glyph-name="UkaliqPatternSegmentsAcg_UkaliqModifierDot" unicode="&#xf1d61;&#x331;" 
d="M84 369h194q222 0 222 -193v-176h-53v176q0 158 -169 158h-194v35zM396 -170q-18 31 0 62t54 31t53 -31q18 -31 0 -62q-17 -31 -53 -31t-54 31zM83 704h412v-47h-412v47z" />
    <glyph glyph-name="UkaliqPatternSegmentsAfg_UkaliqModifierDot" unicode="&#xf1d62;&#x331;" 
d="M495 668h-195q-168 0 -168 -149q0 -150 168 -150h195v-35h-195q-222 0 -222 185t222 185h195v-36zM384 -170q-17 31 0 62q18 31 54 31t54 -31t0 -62t-54 -31t-54 31z" />
    <glyph glyph-name="UkaliqPatternSegmentsAcfg_UkaliqModifierDot" unicode="&#xf1d63;&#x331;" 
d="M396 -170q-18 31 0 62t54 31t53 -31q18 -31 0 -62q-17 -31 -53 -31t-54 31zM495 668h-195q-168 0 -168 -149q0 -150 157 -150h211v-369h-53v334h-158q-211 0 -211 185t222 185h195v-36z" />
    <glyph glyph-name="UkaliqPatternSegmentsAeg_UkaliqModifierDot" unicode="&#xf1d64;&#x331;" 
d="M495 334h-195q-168 0 -168 -158v-176h-54v176q0 193 222 193h195v-35zM384 -170q-17 31 0 62q18 31 54 31t54 -31t0 -62t-54 -31t-54 31zM83 704h412v-47h-412v47z" />
    <glyph glyph-name="UkaliqPatternSegmentsAceg_UkaliqModifierDot" unicode="&#xf1d65;&#x331;" 
d="M78 0v176q0 193 211 193t211 -193v-176h-53v176q0 158 -158 158q-157 0 -157 -158v-176h-54zM396 -170q-18 31 0 62t54 31t53 -31q18 -31 0 -62q-17 -31 -53 -31t-54 31zM83 704h412v-47h-412v47z" />
    <glyph glyph-name="UkaliqPatternSegmentsAefg_UkaliqModifierDot" unicode="&#xf1d66;&#x331;" 
d="M384 -170q-17 31 0 62q18 31 54 31t54 -31t0 -62t-54 -31t-54 31zM495 668h-195q-168 0 -168 -149v-84v-66h363v-35h-363v-70v-264h-54v264v171v84q0 185 222 185h195v-36z" />
    <glyph glyph-name="UkaliqPatternSegmentsAcefg_UkaliqModifierDot" unicode="&#xf1d67;&#x331;" 
d="M396 -170q-18 31 0 62t54 31t53 -31q18 -31 0 -62q-17 -31 -53 -31t-54 31zM495 668h-195q-168 0 -168 -149v-84v-66h157q211 0 211 -193v-176h-53v176q0 158 -158 158h-157v-70v-264h-54v264v171v84q0 185 222 185h195v-36z" />
    <glyph glyph-name="UkaliqPatternSegmentsAbg_UkaliqModifierDot" unicode="&#xf1d68;&#x331;" 
d="M84 704q416 0 416 -241q0 -129 -222 -129h-194v35h194q169 0 169 94q0 205 -363 205v36zM384 -170q-17 31 0 62q18 31 54 31t54 -31t0 -62t-54 -31t-54 31z" />
    <glyph glyph-name="UkaliqPatternSegmentsAbcg_UkaliqModifierDot" unicode="&#xf1d69;&#x331;" 
d="M84 704q416 0 416 -285v-155v-264h-53v264v70h-363v35h363v50q0 249 -363 249v36zM396 -170q-18 31 0 62t54 31t53 -31q18 -31 0 -62q-17 -31 -53 -31t-54 31z" />
    <glyph glyph-name="UkaliqPatternSegmentsAbfg_UkaliqModifierDot" unicode="&#xf1d6a;&#x331;" 
d="M384 -170q-17 31 0 62q18 31 54 31t54 -31t0 -62t-54 -31t-54 31zM132 519q0 -150 157 -150q158 0 158 94q0 205 -219 205q-96 0 -96 -149zM78 519q0 185 150 185q272 0 272 -241q0 -129 -211 -129t-211 185z" />
    <glyph glyph-name="UkaliqPatternSegmentsAbcfg_UkaliqModifierDot" unicode="&#xf1d6b;&#x331;" 
d="M396 -170q-18 31 0 62t54 31t53 -31q18 -31 0 -62q-17 -31 -53 -31t-54 31zM447 369v50q0 249 -219 249q-96 0 -96 -149q0 -150 157 -150h158zM447 334h-158q-211 0 -211 185t150 185q272 0 272 -285v-155v-264h-53v264v70z" />
    <glyph glyph-name="UkaliqPatternSegmentsAbeg_UkaliqModifierDot" unicode="&#xf1d6c;&#x331;" 
d="M84 704q416 0 416 -241q0 -129 -211 -129h-157v-334h-54v369h211q158 0 158 94q0 205 -363 205v36zM384 -170q-17 31 0 62q18 31 54 31t54 -31t0 -62t-54 -31t-54 31z" />
    <glyph glyph-name="UkaliqPatternSegmentsAbceg_UkaliqModifierDot" unicode="&#xf1d6d;&#x331;" 
d="M84 704q416 0 416 -285v-155v-264h-53v264v70h-158q-157 0 -157 -158v-176h-54v176q0 193 211 193h158v50q0 249 -363 249v36zM396 -170q-18 31 0 62t54 31t53 -31q18 -31 0 -62q-17 -31 -53 -31t-54 31z" />
    <glyph glyph-name="UkaliqPatternSegmentsAbefg_UkaliqModifierDot" unicode="&#xf1d6e;&#x331;" 
d="M384 -170q-17 31 0 62q18 31 54 31t54 -31t0 -62t-54 -31t-54 31zM132 334v-70v-264h-54v264v171v84q0 185 150 185q272 0 272 -241q0 -129 -211 -129h-157zM132 369h157q158 0 158 94q0 205 -219 205q-96 0 -96 -149v-84v-66z" />
    <glyph glyph-name="UkaliqPatternSegmentsAbcefg_UkaliqModifierDot" unicode="&#xf1d6f;&#x331;" 
d="M396 -170q-18 31 0 62t54 31t53 -31q18 -31 0 -62q-17 -31 -53 -31t-54 31zM78 0v264v171v84q0 185 150 185q272 0 272 -285v-155v-264h-53v264v70h-315v-70v-264h-54zM132 369h315v50q0 249 -219 249q-96 0 -96 -149v-84v-66z" />
    <glyph glyph-name="UkaliqPatternSegmentsAdg_UkaliqModifierDot" unicode="&#xf1d70;&#x331;" 
d="M83 47h412v-47h-412v47zM83 375h412v-47h-412v47zM384 -170q-17 31 0 62q18 31 54 31t54 -31t0 -62t-54 -31t-54 31zM83 704h412v-47h-412v47z" />
    <glyph glyph-name="UkaliqPatternSegmentsAcdg_UkaliqModifierDot" unicode="&#xf1d71;&#x331;" 
d="M84 369h194q222 0 222 -184q0 -185 -222 -185h-194v35h194q169 0 169 150q0 149 -169 149h-194v35zM384 -170q-17 31 0 62q18 31 54 31t54 -31t0 -62t-54 -31t-54 31zM83 704h412v-47h-412v47z" />
    <glyph glyph-name="UkaliqPatternSegmentsAdfg_UkaliqModifierDot" unicode="&#xf1d72;&#x331;" 
d="M495 668h-195q-168 0 -168 -149q0 -150 168 -150h195v-35h-195q-222 0 -222 185t222 185h195v-36zM83 47h412v-47h-412v47zM384 -170q-17 31 0 62q18 31 54 31t54 -31t0 -62t-54 -31t-54 31z" />
    <glyph glyph-name="UkaliqPatternSegmentsAcdfg_UkaliqModifierDot" unicode="&#xf1d73;&#x331;" 
d="M384 -170q-17 31 0 62q18 31 54 31t54 -31t0 -62t-54 -31t-54 31zM476 668h-185q-159 0 -159 -149q0 -150 157 -150h211v-184q0 -185 -217 -185h-191v35h191q164 0 164 150v149h-158q-211 0 -211 185t213 185h185v-36z" />
    <glyph glyph-name="UkaliqPatternSegmentsAdeg_UkaliqModifierDot" unicode="&#xf1d74;&#x331;" 
d="M495 334h-195q-168 0 -168 -149v-150h363v-35h-417v185q0 184 222 184h195v-35zM384 -170q-17 31 0 62q18 31 54 31t54 -31t0 -62t-54 -31t-54 31zM83 704h412v-47h-412v47z" />
    <glyph glyph-name="UkaliqPatternSegmentsAcdeg_UkaliqModifierDot" unicode="&#xf1d75;&#x331;" 
d="M384 -170q-17 31 0 62q18 31 54 31t54 -31t0 -62t-54 -31t-54 31zM83 704h412v-47h-412v47zM132 185v-150h157q158 0 158 150q0 149 -158 149q-157 0 -157 -149zM78 185q0 184 211 184t211 -184q0 -185 -211 -185h-211v185z" />
    <glyph glyph-name="UkaliqPatternSegmentsAdefg_UkaliqModifierDot" unicode="&#xf1d76;&#x331;" 
d="M384 -170q-17 31 0 62q18 31 54 31t54 -31t0 -62t-54 -31t-54 31zM495 668h-195q-168 0 -168 -149v-84v-66h363v-35h-363v-66v-233h363v-35h-417v268v167v84q0 185 222 185h195v-36z" />
    <glyph glyph-name="UkaliqPatternSegmentsAcdefg_UkaliqModifierDot" unicode="&#xf1d77;&#x331;" 
d="M384 -170q-17 31 0 62q18 31 54 31t54 -31t0 -62t-54 -31t-54 31zM476 668h-185q-159 0 -159 -149v-84v-66h157q211 0 211 -184q0 -185 -211 -185h-211v268v167v84q0 185 213 185h185v-36zM132 334v-66v-233h157q158 0 158 150q0 149 -158 149h-157z" />
    <glyph glyph-name="UkaliqPatternSegmentsAbdg_UkaliqModifierDot" unicode="&#xf1d78;&#x331;" 
d="M83 47h412v-47h-412v47zM84 704q416 0 416 -241q0 -129 -222 -129h-194v35h194q169 0 169 94q0 205 -363 205v36zM384 -170q-17 31 0 62q18 31 54 31t54 -31t0 -62t-54 -31t-54 31z" />
    <glyph glyph-name="UkaliqPatternSegmentsAbcdg_UkaliqModifierDot" unicode="&#xf1d79;&#x331;" 
d="M84 704q416 0 416 -285v-151v-83q0 -185 -222 -185h-194v35h194q169 0 169 150v83v66h-363v35h363v50q0 249 -363 249v36zM384 -170q-17 31 0 62q18 31 54 31t54 -31t0 -62t-54 -31t-54 31z" />
    <glyph glyph-name="UkaliqPatternSegmentsAbdfg_UkaliqModifierDot" unicode="&#xf1d7a;&#x331;" 
d="M83 47h412v-47h-412v47zM384 -170q-17 31 0 62q18 31 54 31t54 -31t0 -62t-54 -31t-54 31zM132 519q0 -150 157 -150q158 0 158 94q0 205 -219 205q-96 0 -96 -149zM78 519q0 185 150 185q272 0 272 -241q0 -129 -211 -129t-211 185z" />
    <glyph glyph-name="UkaliqPatternSegmentsAbcdfg_UkaliqModifierDot" unicode="&#xf1d7b;&#x331;" 
d="M384 -170q-17 31 0 62q18 31 54 31t54 -31t0 -62t-54 -31t-54 31zM447 369v50q0 249 -219 249q-96 0 -96 -149q0 -150 157 -150h158zM447 334h-158q-211 0 -211 185t150 185q272 0 272 -285v-151v-83q0 -185 -217 -185h-191v35h191q164 0 164 150v83v66z" />
    <glyph glyph-name="UkaliqPatternSegmentsAbdeg_UkaliqModifierDot" unicode="&#xf1d7c;&#x331;" 
d="M102 704q398 0 398 -241q0 -129 -211 -129h-157v-299h355v-35h-409v369h211q158 0 158 94q0 205 -345 205v36zM384 -170q-17 31 0 62q18 31 54 31t54 -31t0 -62t-54 -31t-54 31z" />
    <glyph glyph-name="UkaliqPatternSegmentsAbcdeg_UkaliqModifierDot" unicode="&#xf1d7d;&#x331;" 
d="M102 704q398 0 398 -285v-151v-83q0 -185 -211 -185h-211v185q0 184 211 184h158v50q0 249 -345 249v36zM384 -170q-17 31 0 62q18 31 54 31t54 -31t0 -62t-54 -31t-54 31zM447 334h-158q-157 0 -157 -149v-150h157q158 0 158 150v83v66z" />
    <glyph glyph-name="UkaliqPatternSegmentsAbdefg_UkaliqModifierDot" unicode="&#xf1d7e;&#x331;" 
d="M384 -170q-17 31 0 62q18 31 54 31t54 -31t0 -62t-54 -31t-54 31zM132 334v-66v-233h355v-35h-409v268v167v84q0 185 150 185q272 0 272 -241q0 -129 -211 -129h-157zM132 369h157q158 0 158 94q0 205 -219 205q-96 0 -96 -149v-84v-66z" />
    <glyph glyph-name="UkaliqPatternSegmentsAbcdefg_UkaliqModifierDot" unicode="&#xf1d7f;&#x331;" 
d="M384 -170q-17 31 0 62q18 31 54 31t54 -31t0 -62t-54 -31t-54 31zM447 369v50q0 249 -219 249q-96 0 -96 -149v-84v-66h315zM447 334h-315v-66v-233h157q158 0 158 150v83v66zM78 519q0 185 150 185q272 0 272 -285v-151v-83q0 -185 -211 -185h-211v268v167v84z" />
    <glyph glyph-name=".notdef" 
d="M83 47h412v-47h-412v47zM384 -170q-17 31 0 62q18 31 54 31t54 -31t0 -62t-54 -31t-54 31z" />
    <glyph glyph-name="NULL" horiz-adv-x="0" 
 />
    <glyph glyph-name="uni000D" unicode="&#xd;" horiz-adv-x="0" 
 />
    <glyph glyph-name="uni200D" unicode="&#x200d;" horiz-adv-x="0" 
 />
    <glyph glyph-name="uni200B" unicode="&#x200b;" horiz-adv-x="0" 
 />
    <glyph glyph-name="uni200C" unicode="&#x200c;" horiz-adv-x="0" 
 />
    <glyph glyph-name="uniFEFF" unicode="&#xfeff;" horiz-adv-x="0" 
 />
    <glyph glyph-name="space" unicode=" " 
 />
    <glyph glyph-name="uni00A0" unicode="&#xa0;" 
 />
    <glyph glyph-name="UkaliqModifierDot" unicode="&#x331;" 
d="M384 -170q-17 31 0 62q18 31 54 31t54 -31t0 -62t-54 -31t-54 31z" />
    <glyph glyph-name="uni2002" unicode="&#x2002;" 
 />
    <glyph glyph-name="uni2007" unicode="&#x2007;" 
 />
    <glyph glyph-name="uni2B1B" unicode="&#x2b1b;" 
d="M0 946h578v-1242h-578v1242z" />
    <glyph glyph-name="UkaliqSpace" unicode="&#xee00;" 
 />
    <glyph glyph-name="UkaliqNumber" unicode="&#xee01;" 
d="M500 369v-369h-53v369h53z" />
    <glyph glyph-name="UkaliqRightSingleQuotationMark" unicode="&#xee02;" 
d="M132 704v-370h-54v370h54z" />
    <glyph glyph-name="UkaliqColon" unicode="&#xee03;" 
d="M500 369v-369h-53v369h53zM132 704v-370h-54v370h54z" />
    <glyph glyph-name="UkaliqFullStop" unicode="&#xee04;" 
d="M132 369v-369h-54v369h54z" />
    <glyph glyph-name="UkaliqComma" unicode="&#xee05;" 
d="M500 369v-369h-53v369h53zM132 369v-369h-54v369h54z" />
    <glyph glyph-name="UkaliqRightParenthesis" unicode="&#xee06;" 
d="M132 704v-704h-54v704h54z" />
    <glyph glyph-name="UkaliqExclamationMark" unicode="&#xee07;" 
d="M132 704v-704h-54v704h54zM500 369v-369h-53v369h53z" />
    <glyph glyph-name="UkaliqLeftSingleQuotationMark" unicode="&#xee08;" 
d="M500 704v-370h-53v370h53z" />
    <glyph glyph-name="UkaliqLeftParenthesis" unicode="&#xee09;" 
d="M500 704v-704h-53v704h53z" />
    <glyph glyph-name="UkaliqDoubleQuotationMark" unicode="&#xee0a;" 
d="M132 704v-370h-54v370h54zM500 704v-370h-53v370h53z" />
    <glyph glyph-name="UkaliqReversedQuestionMark" unicode="&#xee0b;" 
d="M500 704v-704h-53v704h53zM132 704v-370h-54v370h54z" />
    <glyph glyph-name="UkaliqSemicolon" unicode="&#xee0c;" 
d="M500 704v-370h-53v370h53zM132 369v-369h-54v369h54z" />
    <glyph glyph-name="UkaliqReversedExclamationMark" unicode="&#xee0d;" 
d="M500 704v-704h-53v704h53zM132 369v-369h-54v369h54z" />
    <glyph glyph-name="UkaliqQuestionMark" unicode="&#xee0e;" 
d="M132 704v-704h-54v704h54zM500 704v-370h-53v370h53z" />
    <glyph glyph-name="UkaliqEquals" unicode="&#xee0f;" 
d="M500 704v-704h-53v704h53zM132 704v-704h-54v704h54z" />
    <glyph glyph-name="UkaliqHyphen" unicode="&#xee10;" 
d="M83 47h412v-47h-412v47z" />
    <glyph glyph-name="UkaliqLetterOzo" unicode="&#xee11;" 
d="M500 369v-176q0 -193 -222 -193h-194v35h194q169 0 169 158v176h53z" />
    <glyph glyph-name="UkaliqGreaterThan" unicode="&#xee12;" 
d="M83 47h412v-47h-412v47zM132 704v-370h-54v370h54z" />
    <glyph glyph-name="UkaliqLetterAtlha" unicode="&#xee13;" 
d="M132 704v-370h-54v370h54zM500 369v-176q0 -193 -222 -193h-194v35h194q169 0 169 158v176h53z" />
    <glyph glyph-name="UkaliqLetterEdzre" unicode="&#xee14;" 
d="M132 369v-334h363v-35h-417v369h54z" />
    <glyph glyph-name="UkaliqOr" unicode="&#xee15;" 
d="M132 369v-334h157q158 0 158 158v176h53v-176q0 -193 -211 -193h-211v369h54z" />
    <glyph glyph-name="UkaliqLetterIdzji" unicode="&#xee16;" 
d="M132 704v-669h363v-35h-417v704h54z" />
    <glyph glyph-name="UkaliqLetterOdzo" unicode="&#xee17;" 
d="M132 704v-669h157q158 0 158 158v176h53v-176q0 -193 -211 -193h-211v704h54z" />
    <glyph glyph-name="UkaliqLessThan" unicode="&#xee18;" 
d="M83 47h412v-47h-412v47zM500 704v-370h-53v370h53z" />
    <glyph glyph-name="UkaliqLetterOso" unicode="&#xee19;" 
d="M500 704v-343q0 -361 -222 -361h-194v35h194q169 0 169 326v343h53z" />
    <glyph glyph-name="UkaliqMultiplication" unicode="&#xee1a;" 
d="M83 47h412v-47h-412v47zM132 704v-370h-54v370h54zM500 704v-370h-53v370h53z" />
    <glyph glyph-name="UkaliqLetterApfa" unicode="&#xee1b;" 
d="M132 704v-370h-54v370h54zM500 704v-343q0 -361 -222 -361h-194v35h194q169 0 169 326v343h53z" />
    <glyph glyph-name="UkaliqLetterEtsre" unicode="&#xee1c;" 
d="M132 369v-334h363v-35h-417v369h54zM500 704v-370h-53v370h53z" />
    <glyph glyph-name="UkaliqLetterUkkhu" unicode="&#xee1d;" 
d="M500 704v-343q0 -361 -211 -361h-211v369h54v-334h157q158 0 158 326v343h53z" />
    <glyph glyph-name="UkaliqLetterItsji" unicode="&#xee1e;" 
d="M132 704v-669h363v-35h-417v704h54zM500 704v-370h-53v370h53z" />
    <glyph glyph-name="UkaliqLetterOtso" unicode="&#xee1f;" 
d="M132 704v-669h157q158 0 158 326v343h53v-343q0 -361 -211 -361h-211v704h54z" />
    <glyph glyph-name="UkaliqRange" unicode="&#xee20;" 
d="M83 704h412v-47h-412v47z" />
    <glyph glyph-name="UkaliqLetterEo" unicode="&#xee21;" 
d="M500 369v-369h-53v369h53zM83 704h412v-47h-412v47z" />
    <glyph glyph-name="UkaliqLetterUh" unicode="&#xee22;" 
d="M495 668h-195q-168 0 -168 -158v-176h-54v176q0 194 222 194h195v-36z" />
    <glyph glyph-name="UkaliqLetterEu" unicode="&#xee23;" 
d="M500 369v-369h-53v369h53zM495 668h-195q-168 0 -168 -158v-176h-54v176q0 194 222 194h195v-36z" />
    <glyph glyph-name="UkaliqLetterOe" unicode="&#xee24;" 
d="M132 369v-369h-54v369h54zM83 704h412v-47h-412v47z" />
    <glyph glyph-name="UkaliqLetterOeh" unicode="&#xee25;" 
d="M500 369v-369h-53v369h53zM132 369v-369h-54v369h54zM83 704h412v-47h-412v47z" />
    <glyph glyph-name="UkaliqLetterUi" unicode="&#xee26;" 
d="M495 668h-195q-168 0 -168 -325v-343h-54v343q0 361 222 361h195v-36z" />
    <glyph glyph-name="UkaliqLetterAh" unicode="&#xee27;" 
d="M495 668h-195q-168 0 -168 -325v-343h-54v343q0 361 222 361h195v-36zM500 369v-369h-53v369h53z" />
    <glyph glyph-name="UkaliqLetterAe" unicode="&#xee28;" 
d="M84 704q416 0 416 -370h-53q0 334 -363 334v36z" />
    <glyph glyph-name="UkaliqLetterO" unicode="&#xee29;" 
d="M84 704q416 0 416 -704h-53q0 668 -363 668v36z" />
    <glyph glyph-name="UkaliqLetterIh" unicode="&#xee2a;" 
d="M78 334v176q0 194 150 194q272 0 272 -370h-53q0 334 -219 334q-96 0 -96 -158v-176h-54z" />
    <glyph glyph-name="UkaliqLetterU" unicode="&#xee2b;" 
d="M78 334v176q0 194 150 194q272 0 272 -704h-53q0 668 -219 668q-96 0 -96 -158v-176h-54z" />
    <glyph glyph-name="UkaliqLetterE" unicode="&#xee2c;" 
d="M84 704q416 0 416 -370h-53q0 334 -363 334v36zM132 369v-369h-54v369h54z" />
    <glyph glyph-name="UkaliqLetterEh" unicode="&#xee2d;" 
d="M84 704q416 0 416 -704h-53q0 668 -363 668v36zM132 369v-369h-54v369h54z" />
    <glyph glyph-name="UkaliqLetterI" unicode="&#xee2e;" 
d="M447 334q0 334 -219 334q-96 0 -96 -325v-343h-54v343q0 361 150 361q272 0 272 -370h-53z" />
    <glyph glyph-name="UkaliqLetterOh" unicode="&#xee2f;" 
d="M78 0v343q0 361 150 361q272 0 272 -704h-53q0 668 -219 668q-96 0 -96 -325v-343h-54z" />
    <glyph glyph-name="UkaliqPlus" unicode="&#xee30;" 
d="M83 47h412v-47h-412v47zM83 704h412v-47h-412v47z" />
    <glyph glyph-name="UkaliqCurrency" unicode="&#xee31;" 
d="M500 369v-176q0 -193 -222 -193h-194v35h194q169 0 169 158v176h53zM83 704h412v-47h-412v47z" />
    <glyph glyph-name="UkaliqAt" unicode="&#xee32;" 
d="M83 47h412v-47h-412v47zM495 668h-195q-168 0 -168 -158v-176h-54v176q0 194 222 194h195v-36z" />
    <glyph glyph-name="UkaliqLetterAlha" unicode="&#xee33;" 
d="M495 668h-195q-168 0 -168 -158v-176h-54v176q0 194 222 194h195v-36zM500 369v-176q0 -193 -222 -193h-194v35h194q169 0 169 158v176h53z" />
    <glyph glyph-name="UkaliqLetterElre" unicode="&#xee34;" 
d="M132 369v-334h363v-35h-417v369h54zM83 704h412v-47h-412v47z" />
    <glyph glyph-name="UkaliqLetterUlgu" unicode="&#xee35;" 
d="M132 369v-334h157q158 0 158 158v176h53v-176q0 -193 -211 -193h-211v369h54zM83 704h412v-47h-412v47z" />
    <glyph glyph-name="UkaliqLetterIlji" unicode="&#xee36;" 
d="M495 668h-195q-168 0 -168 -316v-317h363v-35h-417v352q0 352 222 352h195v-36z" />
    <glyph glyph-name="UkaliqLetterOlo" unicode="&#xee37;" 
d="M495 668h-195q-168 0 -168 -316v-317h157q158 0 158 158v176h53v-176q0 -193 -211 -193h-211v352q0 352 222 352h195v-36z" />
    <glyph glyph-name="UkaliqDegree" unicode="&#xee38;" 
d="M83 47h412v-47h-412v47zM84 704q416 0 416 -370h-53q0 334 -363 334v36z" />
    <glyph glyph-name="UkaliqLetterHbat" unicode="&#xee39;" 
d="M84 704q416 0 416 -464q0 -240 -222 -240h-194v35h194q169 0 169 205q0 428 -363 428v36z" />
    <glyph glyph-name="UkaliqLetterAnqa" unicode="&#xee3a;" 
d="M83 47h412v-47h-412v47zM78 334v176q0 194 150 194q272 0 272 -370h-53q0 334 -219 334q-96 0 -96 -158v-176h-54z" />
    <glyph glyph-name="UkaliqLetterAma" unicode="&#xee3b;" 
d="M78 334v176q0 194 150 194q272 0 272 -464q0 -240 -222 -240h-194v35h194q169 0 169 205q0 428 -219 428q-96 0 -96 -158v-176h-54z" />
    <glyph glyph-name="UkaliqLetterEnre" unicode="&#xee3c;" 
d="M84 704q416 0 416 -370h-53q0 334 -363 334v36zM132 369v-334h363v-35h-417v369h54z" />
    <glyph glyph-name="UkaliqLetterUngu" unicode="&#xee3d;" 
d="M84 704q416 0 416 -464q0 -240 -211 -240h-211v369h54v-334h157q158 0 158 205q0 428 -363 428v36z" />
    <glyph glyph-name="UkaliqLetterInji" unicode="&#xee3e;" 
d="M447 334q0 334 -219 334q-96 0 -96 -316v-317h363v-35h-417v352q0 352 150 352q272 0 272 -370h-53z" />
    <glyph glyph-name="UkaliqLetterOno" unicode="&#xee3f;" 
d="M132 352v-317h157q158 0 158 205q0 428 -219 428q-96 0 -96 -316zM78 352q0 352 150 352q272 0 272 -464q0 -240 -211 -240h-211v352z" />
    <glyph glyph-name="UkaliqDash" unicode="&#xee40;" 
d="M83 375h412v-47h-412v47z" />
    <glyph glyph-name="UkaliqLetterA" unicode="&#xee41;" 
d="M84 369h194q222 0 222 -193v-176h-53v176q0 158 -169 158h-194v35z" />
    <glyph glyph-name="UkaliqMinus" unicode="&#xee42;" 
d="M132 704v-176q0 -159 168 -159h195v-35h-195q-222 0 -222 194v176h54z" />
    <glyph glyph-name="UkaliqLetterAwa" unicode="&#xee43;" 
d="M132 704v-176q0 -159 157 -159h211v-369h-53v334h-158q-211 0 -211 194v176h54z" />
    <glyph glyph-name="UkaliqLetterErre" unicode="&#xee44;" 
d="M495 334h-195q-168 0 -168 -158v-176h-54v176q0 193 222 193h195v-35z" />
    <glyph glyph-name="UkaliqAnd" unicode="&#xee45;" 
d="M78 0v176q0 193 211 193t211 -193v-176h-53v176q0 158 -158 158q-157 0 -157 -158v-176h-54z" />
    <glyph glyph-name="UkaliqLetterIzji" unicode="&#xee46;" 
d="M132 704v-264v-71h363v-35h-363v-70v-264h-54v264v176v264h54z" />
    <glyph glyph-name="UkaliqLetterOro" unicode="&#xee47;" 
d="M132 704v-264v-71h157q211 0 211 -193v-176h-53v176q0 158 -158 158h-157v-70v-264h-54v264v176v264h54z" />
    <glyph glyph-name="UkaliqNot" unicode="&#xee48;" 
d="M500 704v-176q0 -194 -222 -194h-194v35h194q169 0 169 159v176h53z" />
    <glyph glyph-name="UkaliqDivision" unicode="&#xee49;" 
d="M500 704v-264v-176v-264h-53v264v70h-363v35h363v71v264h53z" />
    <glyph glyph-name="UkaliqXor" unicode="&#xee4a;" 
d="M132 704v-176q0 -159 157 -159q158 0 158 159v176h53v-176q0 -194 -211 -194t-211 194v176h54z" />
    <glyph glyph-name="uniEE4B" unicode="&#xee4b;" 
d="M132 704v-176q0 -159 157 -159h158v71v264h53v-264v-176v-264h-53v264v70h-158q-211 0 -211 194v176h54z" />
    <glyph glyph-name="UkaliqLetterIji" unicode="&#xee4c;" 
d="M500 704v-176q0 -194 -211 -194h-157v-334h-54v369h211q158 0 158 159v176h53z" />
    <glyph glyph-name="UkaliqLetterTkot" unicode="&#xee4d;" 
d="M500 704v-264v-176v-264h-53v264v70h-158q-157 0 -157 -158v-176h-54v176q0 193 211 193h158v71v264h53z" />
    <glyph glyph-name="UkaliqLetterIsji" unicode="&#xee4e;" 
d="M500 704v-176q0 -194 -211 -194h-157v-70v-264h-54v264v176v264h54v-264v-71h157q158 0 158 159v176h53z" />
    <glyph glyph-name="UkaliqLetterOrro" unicode="&#xee4f;" 
d="M500 704v-264v-176v-264h-53v264v70h-315v-70v-264h-54v264v176v264h54v-264v-71h315v71v264h53z" />
    <glyph glyph-name="UkaliqDigitZero" unicode="&#xee50;" 
d="M83 47h412v-47h-412v47zM83 375h412v-47h-412v47z" />
    <glyph glyph-name="UkaliqDigitOne" unicode="&#xee51;" 
d="M84 369h194q222 0 222 -184q0 -185 -222 -185h-194v35h194q169 0 169 150q0 149 -169 149h-194v35z" />
    <glyph glyph-name="UkaliqDigitTwo" unicode="&#xee52;" 
d="M132 704v-176q0 -159 168 -159h195v-35h-195q-222 0 -222 194v176h54zM83 47h412v-47h-412v47z" />
    <glyph glyph-name="UkaliqDigitThree" unicode="&#xee53;" 
d="M132 704v-176q0 -159 157 -159h211v-184q0 -185 -222 -185h-194v35h194q169 0 169 150v149h-158q-211 0 -211 194v176h54z" />
    <glyph glyph-name="UkaliqDigitFour" unicode="&#xee54;" 
d="M495 334h-195q-168 0 -168 -149v-150h363v-35h-417v185q0 184 222 184h195v-35z" />
    <glyph glyph-name="UkaliqDigitFive" unicode="&#xee55;" 
d="M132 185v-150h157q158 0 158 150q0 149 -158 149q-157 0 -157 -149zM78 185q0 184 211 184t211 -184q0 -185 -211 -185h-211v185z" />
    <glyph glyph-name="UkaliqDigitSix" unicode="&#xee56;" 
d="M132 704v-264v-71h363v-35h-363v-66v-233h363v-35h-417v268v172v264h54z" />
    <glyph glyph-name="UkaliqDigitSeven" unicode="&#xee57;" 
d="M132 704v-264v-71h157q211 0 211 -184q0 -185 -211 -185h-211v268v172v264h54zM132 334v-66v-233h157q158 0 158 150q0 149 -158 149h-157z" />
    <glyph glyph-name="UkaliqDigitEight" unicode="&#xee58;" 
d="M83 47h412v-47h-412v47zM500 704v-176q0 -194 -222 -194h-194v35h194q169 0 169 159v176h53z" />
    <glyph glyph-name="UkaliqDigitNine" unicode="&#xee59;" 
d="M500 704v-264v-172v-83q0 -185 -222 -185h-194v35h194q169 0 169 150v83v66h-363v35h363v71v264h53z" />
    <glyph glyph-name="UkaliqDigitTen" unicode="&#xee5a;" 
d="M132 704v-176q0 -159 157 -159q158 0 158 159v176h53v-176q0 -194 -211 -194t-211 194v176h54zM83 47h412v-47h-412v47z" />
    <glyph glyph-name="UkaliqDigitEleven" unicode="&#xee5b;" 
d="M132 704v-176q0 -159 157 -159h158v71v264h53v-264v-172v-83q0 -185 -222 -185h-194v35h194q169 0 169 150v83v66h-158q-211 0 -211 194v176h54z" />
    <glyph glyph-name="UkaliqDigitTwelve" unicode="&#xee5c;" 
d="M500 704v-176q0 -194 -211 -194h-157v-299h363v-35h-417v369h211q158 0 158 159v176h53z" />
    <glyph glyph-name="UkaliqDigitThirteen" unicode="&#xee5d;" 
d="M500 704v-264v-172v-83q0 -185 -211 -185h-211v185q0 184 211 184h158v71v264h53zM447 334h-158q-157 0 -157 -149v-150h157q158 0 158 150v83v66z" />
    <glyph glyph-name="UkaliqDigitFourteen" unicode="&#xee5e;" 
d="M500 704v-176q0 -194 -211 -194h-157v-66v-233h363v-35h-417v268v172v264h54v-264v-71h157q158 0 158 159v176h53z" />
    <glyph glyph-name="UkaliqDigitFifteen" unicode="&#xee5f;" 
d="M132 704v-264v-71h315v71v264h53v-264v-172v-83q0 -185 -211 -185h-211v268v172v264h54zM447 334h-315v-66v-233h157q158 0 158 150v83v66z" />
    <glyph glyph-name="UkaliqLetterSchwa" unicode="&#xee60;" 
d="M83 375h412v-47h-412v47zM83 704h412v-47h-412v47z" />
    <glyph glyph-name="UkaliqLetterOhgo" unicode="&#xee61;" 
d="M84 369h194q222 0 222 -193v-176h-53v176q0 158 -169 158h-194v35zM83 704h412v-47h-412v47z" />
    <glyph glyph-name="UkaliqLetterArha" unicode="&#xee62;" 
d="M495 668h-195q-168 0 -168 -149q0 -150 168 -150h195v-35h-195q-222 0 -222 185t222 185h195v-36z" />
    <glyph glyph-name="UkaliqLetterAva" unicode="&#xee63;" 
d="M495 668h-195q-168 0 -168 -149q0 -150 157 -150h211v-369h-53v334h-158q-211 0 -211 185t222 185h195v-36z" />
    <glyph glyph-name="UkaliqLetterEzre" unicode="&#xee64;" 
d="M495 334h-195q-168 0 -168 -158v-176h-54v176q0 193 222 193h195v-35zM83 704h412v-47h-412v47z" />
    <glyph glyph-name="UkaliqLetterUghu" unicode="&#xee65;" 
d="M78 0v176q0 193 211 193t211 -193v-176h-53v176q0 158 -158 158q-157 0 -157 -158v-176h-54zM83 704h412v-47h-412v47z" />
    <glyph glyph-name="UkaliqLetterIjji" unicode="&#xee66;" 
d="M495 668h-195q-168 0 -168 -149v-84v-66h363v-35h-363v-70v-264h-54v264v171v84q0 185 222 185h195v-36z" />
    <glyph glyph-name="UkaliqLetterOdho" unicode="&#xee67;" 
d="M495 668h-195q-168 0 -168 -149v-84v-66h157q211 0 211 -193v-176h-53v176q0 158 -158 158h-157v-70v-264h-54v264v171v84q0 185 222 185h195v-36z" />
    <glyph glyph-name="UkaliqLetterOhho" unicode="&#xee68;" 
d="M84 704q416 0 416 -241q0 -129 -222 -129h-194v35h194q169 0 169 94q0 205 -363 205v36z" />
    <glyph glyph-name="UkaliqLetterAha" unicode="&#xee69;" 
d="M84 704q416 0 416 -285v-155v-264h-53v264v70h-363v35h363v50q0 249 -363 249v36z" />
    <glyph glyph-name="UkaliqLetterAqha" unicode="&#xee6a;" 
d="M132 519q0 -150 157 -150q158 0 158 94q0 205 -219 205q-96 0 -96 -149zM78 519q0 185 150 185q272 0 272 -241q0 -129 -211 -129t-211 185z" />
    <glyph glyph-name="UkaliqLetterAfa" unicode="&#xee6b;" 
d="M447 369v50q0 249 -219 249q-96 0 -96 -149q0 -150 157 -150h158zM447 334h-158q-211 0 -211 185t150 185q272 0 272 -285v-155v-264h-53v264v70z" />
    <glyph glyph-name="UkaliqLetterEsre" unicode="&#xee6c;" 
d="M84 704q416 0 416 -241q0 -129 -211 -129h-157v-334h-54v369h211q158 0 158 94q0 205 -363 205v36z" />
    <glyph glyph-name="UkaliqLetterUkhu" unicode="&#xee6d;" 
d="M84 704q416 0 416 -285v-155v-264h-53v264v70h-158q-157 0 -157 -158v-176h-54v176q0 193 211 193h158v50q0 249 -363 249v36z" />
    <glyph glyph-name="UkaliqLetterIcji" unicode="&#xee6e;" 
d="M132 334v-70v-264h-54v264v171v84q0 185 150 185q272 0 272 -241q0 -129 -211 -129h-157zM132 369h157q158 0 158 94q0 205 -219 205q-96 0 -96 -149v-84v-66z" />
    <glyph glyph-name="UkaliqLetterOtho" unicode="&#xee6f;" 
d="M78 0v264v171v84q0 185 150 185q272 0 272 -285v-155v-264h-53v264v70h-315v-70v-264h-54zM132 369h315v50q0 249 -219 249q-96 0 -96 -149v-84v-66z" />
    <glyph glyph-name="UkaliqIterationMark" unicode="&#xee70;" 
d="M83 47h412v-47h-412v47zM83 375h412v-47h-412v47zM83 704h412v-47h-412v47z" />
    <glyph glyph-name="UkaliqPercent" unicode="&#xee71;" 
d="M84 369h194q222 0 222 -184q0 -185 -222 -185h-194v35h194q169 0 169 150q0 149 -169 149h-194v35zM83 704h412v-47h-412v47z" />
    <glyph glyph-name="UkaliqLetterAgqa" unicode="&#xee72;" 
d="M495 668h-195q-168 0 -168 -149q0 -150 168 -150h195v-35h-195q-222 0 -222 185t222 185h195v-36zM83 47h412v-47h-412v47z" />
    <glyph glyph-name="UkaliqLetterAba" unicode="&#xee73;" 
d="M476 668h-185q-159 0 -159 -149q0 -150 157 -150h211v-184q0 -185 -217 -185h-191v35h191q164 0 164 150v149h-158q-211 0 -211 185t213 185h185v-36z" />
    <glyph glyph-name="UkaliqLetterEdre" unicode="&#xee74;" 
d="M495 334h-195q-168 0 -168 -149v-150h363v-35h-417v185q0 184 222 184h195v-35zM83 704h412v-47h-412v47z" />
    <glyph glyph-name="UkaliqLetterUgu" unicode="&#xee75;" 
d="M83 704h412v-47h-412v47zM132 185v-150h157q158 0 158 150q0 149 -158 149q-157 0 -157 -149zM78 185q0 184 211 184t211 -184q0 -185 -211 -185h-211v185z" />
    <glyph glyph-name="UkaliqLetterIgji" unicode="&#xee76;" 
d="M495 668h-195q-168 0 -168 -149v-84v-66h363v-35h-363v-66v-233h363v-35h-417v268v167v84q0 185 222 185h195v-36z" />
    <glyph glyph-name="UkaliqLetterOdo" unicode="&#xee77;" 
d="M476 668h-185q-159 0 -159 -149v-84v-66h157q211 0 211 -184q0 -185 -211 -185h-211v268v167v84q0 185 213 185h185v-36zM132 334v-66v-233h157q158 0 158 150q0 149 -158 149h-157z" />
    <glyph glyph-name="UkaliqLetterOhhko" unicode="&#xee78;" 
d="M83 47h412v-47h-412v47zM84 704q416 0 416 -241q0 -129 -222 -129h-194v35h194q169 0 169 94q0 205 -363 205v36z" />
    <glyph glyph-name="UkaliqLetterAhka" unicode="&#xee79;" 
d="M84 704q416 0 416 -285v-151v-83q0 -185 -222 -185h-194v35h194q169 0 169 150v83v66h-363v35h363v50q0 249 -363 249v36z" />
    <glyph glyph-name="UkaliqLetterAqa" unicode="&#xee7a;" 
d="M83 47h412v-47h-412v47zM132 519q0 -150 157 -150q158 0 158 94q0 205 -219 205q-96 0 -96 -149zM78 519q0 185 150 185q272 0 272 -241q0 -129 -211 -129t-211 185z" />
    <glyph glyph-name="UkaliqLetterApa" unicode="&#xee7b;" 
d="M447 369v50q0 249 -219 249q-96 0 -96 -149q0 -150 157 -150h158zM447 334h-158q-211 0 -211 185t150 185q272 0 272 -285v-151v-83q0 -185 -217 -185h-191v35h191q164 0 164 150v83v66z" />
    <glyph glyph-name="UkaliqLetterEtre" unicode="&#xee7c;" 
d="M102 704q398 0 398 -241q0 -129 -211 -129h-157v-299h355v-35h-409v369h211q158 0 158 94q0 205 -345 205v36z" />
    <glyph glyph-name="UkaliqLetterUku" unicode="&#xee7d;" 
d="M102 704q398 0 398 -285v-151v-83q0 -185 -211 -185h-211v185q0 184 211 184h158v50q0 249 -345 249v36zM447 334h-158q-157 0 -157 -149v-150h157q158 0 158 150v83v66z" />
    <glyph glyph-name="UkaliqLetterIci" unicode="&#xee7e;" 
d="M132 334v-66v-233h355v-35h-409v268v167v84q0 185 150 185q272 0 272 -241q0 -129 -211 -129h-157zM132 369h157q158 0 158 94q0 205 -219 205q-96 0 -96 -149v-84v-66z" />
    <glyph glyph-name="UkaliqLetterOto" unicode="&#xee7f;" 
d="M447 369v50q0 249 -219 249q-96 0 -96 -149v-84v-66h315zM447 334h-315v-66v-233h157q158 0 158 150v83v66zM78 519q0 185 150 185q272 0 272 -285v-151v-83q0 -185 -211 -185h-211v268v167v84z" />
    <glyph glyph-name="UkaliqDot" unicode="&#xee80;" 
d="M384 -170q-17 31 0 62q18 31 54 31t54 -31t0 -62t-54 -31t-54 31z" />
    <glyph glyph-name="UkaliqNumberWithDot" unicode="&#xee81;" 
d="M500 369v-369h-53v369h53zM396 -170q-18 31 0 62t54 31t53 -31q18 -31 0 -62q-17 -31 -53 -31t-54 31z" />
    <glyph glyph-name="UkaliqRightSingleQuotationMarkWithDot" unicode="&#xee82;" 
d="M132 704v-370h-54v370h54zM384 -170q-17 31 0 62q18 31 54 31t54 -31t0 -62t-54 -31t-54 31z" />
    <glyph glyph-name="UkaliqColonWithDot" unicode="&#xee83;" 
d="M500 369v-369h-53v369h53zM132 704v-370h-54v370h54zM396 -170q-18 31 0 62t54 31t53 -31q18 -31 0 -62q-17 -31 -53 -31t-54 31z" />
    <glyph glyph-name="UkaliqFullStopWithDot" unicode="&#xee84;" 
d="M132 369v-369h-54v369h54zM384 -170q-17 31 0 62q18 31 54 31t54 -31t0 -62t-54 -31t-54 31z" />
    <glyph glyph-name="UkaliqCommaWithDot" unicode="&#xee85;" 
d="M500 369v-369h-53v369h53zM132 369v-369h-54v369h54zM396 -170q-18 31 0 62t54 31t53 -31q18 -31 0 -62q-17 -31 -53 -31t-54 31z" />
    <glyph glyph-name="UkaliqRightParenthesisWithDot" unicode="&#xee86;" 
d="M132 704v-704h-54v704h54zM384 -170q-17 31 0 62q18 31 54 31t54 -31t0 -62t-54 -31t-54 31z" />
    <glyph glyph-name="UkaliqExclamationMarkWithDot" unicode="&#xee87;" 
d="M132 704v-704h-54v704h54zM500 369v-369h-53v369h53zM396 -170q-18 31 0 62t54 31t53 -31q18 -31 0 -62q-17 -31 -53 -31t-54 31z" />
    <glyph glyph-name="UkaliqLeftSingleQuotationMarkWithDot" unicode="&#xee88;" 
d="M500 704v-370h-53v370h53zM384 -170q-17 31 0 62q18 31 54 31t54 -31t0 -62t-54 -31t-54 31z" />
    <glyph glyph-name="UkaliqLeftParenthesisWithDot" unicode="&#xee89;" 
d="M500 704v-704h-53v704h53zM396 -170q-18 31 0 62t54 31t53 -31q18 -31 0 -62q-17 -31 -53 -31t-54 31z" />
    <glyph glyph-name="UkaliqDoubleQuotationMarkWithDot" unicode="&#xee8a;" 
d="M132 704v-370h-54v370h54zM500 704v-370h-53v370h53zM384 -170q-17 31 0 62q18 31 54 31t54 -31t0 -62t-54 -31t-54 31z" />
    <glyph glyph-name="UkaliqReversedQuestionMarkWithDot" unicode="&#xee8b;" 
d="M500 704v-704h-53v704h53zM132 704v-370h-54v370h54zM396 -170q-18 31 0 62t54 31t53 -31q18 -31 0 -62q-17 -31 -53 -31t-54 31z" />
    <glyph glyph-name="UkaliqSemicolonWithDot" unicode="&#xee8c;" 
d="M500 704v-370h-53v370h53zM132 369v-369h-54v369h54zM384 -170q-17 31 0 62q18 31 54 31t54 -31t0 -62t-54 -31t-54 31z" />
    <glyph glyph-name="UkaliqReversedExclamationMarkWithDot" unicode="&#xee8d;" 
d="M500 704v-704h-53v704h53zM132 369v-369h-54v369h54zM396 -170q-18 31 0 62t54 31t53 -31q18 -31 0 -62q-17 -31 -53 -31t-54 31z" />
    <glyph glyph-name="UkaliqQuestionMarkWithDot" unicode="&#xee8e;" 
d="M132 704v-704h-54v704h54zM500 704v-370h-53v370h53zM384 -170q-17 31 0 62q18 31 54 31t54 -31t0 -62t-54 -31t-54 31z" />
    <glyph glyph-name="UkaliqEqualsWithDot" unicode="&#xee8f;" 
d="M500 704v-704h-53v704h53zM132 704v-704h-54v704h54zM396 -170q-18 31 0 62t54 31t53 -31q18 -31 0 -62q-17 -31 -53 -31t-54 31z" />
    <glyph glyph-name="UkaliqHyphenWithDot" unicode="&#xee90;" 
d="M83 47h412v-47h-412v47zM384 -170q-17 31 0 62q18 31 54 31t54 -31t0 -62t-54 -31t-54 31z" />
    <glyph glyph-name="UkaliqLetterOzoWithDot" unicode="&#xee91;" 
d="M384 -170q-17 31 0 62q18 31 54 31t54 -31t0 -62t-54 -31t-54 31zM500 369v-176q0 -193 -222 -193h-194v35h194q169 0 169 158v176h53z" />
    <glyph glyph-name="UkaliqGreaterThanWithDot" unicode="&#xee92;" 
d="M83 47h412v-47h-412v47zM132 704v-370h-54v370h54zM384 -170q-17 31 0 62q18 31 54 31t54 -31t0 -62t-54 -31t-54 31z" />
    <glyph glyph-name="UkaliqLetterAtlhaWithDot" unicode="&#xee93;" 
d="M132 704v-370h-54v370h54zM384 -170q-17 31 0 62q18 31 54 31t54 -31t0 -62t-54 -31t-54 31zM500 369v-176q0 -193 -222 -193h-194v35h194q169 0 169 158v176h53z" />
    <glyph glyph-name="UkaliqLetterEdzreWithDot" unicode="&#xee94;" 
d="M132 369v-334h363v-35h-417v369h54zM384 -170q-17 31 0 62q18 31 54 31t54 -31t0 -62t-54 -31t-54 31z" />
    <glyph glyph-name="UkaliqOrWithDot" unicode="&#xee95;" 
d="M132 369v-334h157q158 0 158 158v176h53v-176q0 -193 -211 -193h-211v369h54zM384 -170q-17 31 0 62q18 31 54 31t54 -31t0 -62t-54 -31t-54 31z" />
    <glyph glyph-name="UkaliqLetterIdzjiWithDot" unicode="&#xee96;" 
d="M132 704v-669h363v-35h-417v704h54zM384 -170q-17 31 0 62q18 31 54 31t54 -31t0 -62t-54 -31t-54 31z" />
    <glyph glyph-name="UkaliqLetterOdzoWithDot" unicode="&#xee97;" 
d="M132 704v-669h157q158 0 158 158v176h53v-176q0 -193 -211 -193h-211v704h54zM384 -170q-17 31 0 62q18 31 54 31t54 -31t0 -62t-54 -31t-54 31z" />
    <glyph glyph-name="UkaliqLessThanWithDot" unicode="&#xee98;" 
d="M83 47h412v-47h-412v47zM500 704v-370h-53v370h53zM384 -170q-17 31 0 62q18 31 54 31t54 -31t0 -62t-54 -31t-54 31z" />
    <glyph glyph-name="UkaliqLetterOsoWithDot" unicode="&#xee99;" 
d="M500 704v-343q0 -361 -222 -361h-194v35h194q169 0 169 326v343h53zM384 -170q-17 31 0 62q18 31 54 31t54 -31t0 -62t-54 -31t-54 31z" />
    <glyph glyph-name="UkaliqMultiplicationWithDot" unicode="&#xee9a;" 
d="M83 47h412v-47h-412v47zM132 704v-370h-54v370h54zM500 704v-370h-53v370h53zM384 -170q-17 31 0 62q18 31 54 31t54 -31t0 -62t-54 -31t-54 31z" />
    <glyph glyph-name="UkaliqLetterApfaWithDot" unicode="&#xee9b;" 
d="M132 704v-370h-54v370h54zM500 704v-343q0 -361 -222 -361h-194v35h194q169 0 169 326v343h53zM384 -170q-17 31 0 62q18 31 54 31t54 -31t0 -62t-54 -31t-54 31z" />
    <glyph glyph-name="UkaliqLetterEtsreWithDot" unicode="&#xee9c;" 
d="M132 369v-334h363v-35h-417v369h54zM500 704v-370h-53v370h53zM384 -170q-17 31 0 62q18 31 54 31t54 -31t0 -62t-54 -31t-54 31z" />
    <glyph glyph-name="UkaliqLetterUkkhuWithDot" unicode="&#xee9d;" 
d="M500 704v-343q0 -361 -211 -361h-211v369h54v-334h157q158 0 158 326v343h53zM384 -170q-17 31 0 62q18 31 54 31t54 -31t0 -62t-54 -31t-54 31z" />
    <glyph glyph-name="UkaliqLetterItsjiWithDot" unicode="&#xee9e;" 
d="M132 704v-669h363v-35h-417v704h54zM500 704v-370h-53v370h53zM384 -170q-17 31 0 62q18 31 54 31t54 -31t0 -62t-54 -31t-54 31z" />
    <glyph glyph-name="UkaliqLetterOtsoWithDot" unicode="&#xee9f;" 
d="M132 704v-669h157q158 0 158 326v343h53v-343q0 -361 -211 -361h-211v704h54zM384 -170q-17 31 0 62q18 31 54 31t54 -31t0 -62t-54 -31t-54 31z" />
    <glyph glyph-name="UkaliqRangeWithDot" unicode="&#xeea0;" 
d="M384 -170q-17 31 0 62q18 31 54 31t54 -31t0 -62t-54 -31t-54 31zM83 704h412v-47h-412v47z" />
    <glyph glyph-name="UkaliqLetterEoWithDot" unicode="&#xeea1;" 
d="M500 369v-369h-53v369h53zM396 -170q-18 31 0 62t54 31t53 -31q18 -31 0 -62q-17 -31 -53 -31t-54 31zM83 704h412v-47h-412v47z" />
    <glyph glyph-name="UkaliqLetterUhWithDot" unicode="&#xeea2;" 
d="M495 668h-195q-168 0 -168 -158v-176h-54v176q0 194 222 194h195v-36zM384 -170q-17 31 0 62q18 31 54 31t54 -31t0 -62t-54 -31t-54 31z" />
    <glyph glyph-name="UkaliqLetterEuWithDot" unicode="&#xeea3;" 
d="M500 369v-369h-53v369h53zM495 668h-195q-168 0 -168 -158v-176h-54v176q0 194 222 194h195v-36zM396 -170q-18 31 0 62t54 31t53 -31q18 -31 0 -62q-17 -31 -53 -31t-54 31z" />
    <glyph glyph-name="UkaliqLetterOeWithDot" unicode="&#xeea4;" 
d="M132 369v-369h-54v369h54zM384 -170q-17 31 0 62q18 31 54 31t54 -31t0 -62t-54 -31t-54 31zM83 704h412v-47h-412v47z" />
    <glyph glyph-name="UkaliqLetterOehWithDot" unicode="&#xeea5;" 
d="M500 369v-369h-53v369h53zM132 369v-369h-54v369h54zM396 -170q-18 31 0 62t54 31t53 -31q18 -31 0 -62q-17 -31 -53 -31t-54 31zM83 704h412v-47h-412v47z" />
    <glyph glyph-name="UkaliqLetterUiWithDot" unicode="&#xeea6;" 
d="M495 668h-195q-168 0 -168 -325v-343h-54v343q0 361 222 361h195v-36zM384 -170q-17 31 0 62q18 31 54 31t54 -31t0 -62t-54 -31t-54 31z" />
    <glyph glyph-name="UkaliqLetterAhWithDot" unicode="&#xeea7;" 
d="M495 668h-195q-168 0 -168 -325v-343h-54v343q0 361 222 361h195v-36zM500 369v-369h-53v369h53zM396 -170q-18 31 0 62t54 31t53 -31q18 -31 0 -62q-17 -31 -53 -31t-54 31z" />
    <glyph glyph-name="UkaliqLetterAeWithDot" unicode="&#xeea8;" 
d="M84 704q416 0 416 -370h-53q0 334 -363 334v36zM384 -170q-17 31 0 62q18 31 54 31t54 -31t0 -62t-54 -31t-54 31z" />
    <glyph glyph-name="UkaliqLetterOWithDot" unicode="&#xeea9;" 
d="M84 704q416 0 416 -704h-53q0 668 -363 668v36zM396 -170q-18 31 0 62t54 31t53 -31q18 -31 0 -62q-17 -31 -53 -31t-54 31z" />
    <glyph glyph-name="UkaliqLetterIhWithDot" unicode="&#xeeaa;" 
d="M78 334v176q0 194 150 194q272 0 272 -370h-53q0 334 -219 334q-96 0 -96 -158v-176h-54zM384 -170q-17 31 0 62q18 31 54 31t54 -31t0 -62t-54 -31t-54 31z" />
    <glyph glyph-name="UkaliqLetterUWithDot" unicode="&#xeeab;" 
d="M78 334v176q0 194 150 194q272 0 272 -704h-53q0 668 -219 668q-96 0 -96 -158v-176h-54zM396 -170q-18 31 0 62t54 31t53 -31q18 -31 0 -62q-17 -31 -53 -31t-54 31z" />
    <glyph glyph-name="UkaliqLetterEWithDot" unicode="&#xeeac;" 
d="M84 704q416 0 416 -370h-53q0 334 -363 334v36zM132 369v-369h-54v369h54zM384 -170q-17 31 0 62q18 31 54 31t54 -31t0 -62t-54 -31t-54 31z" />
    <glyph glyph-name="UkaliqLetterEhWithDot" unicode="&#xeead;" 
d="M84 704q416 0 416 -704h-53q0 668 -363 668v36zM132 369v-369h-54v369h54zM396 -170q-18 31 0 62t54 31t53 -31q18 -31 0 -62q-17 -31 -53 -31t-54 31z" />
    <glyph glyph-name="UkaliqLetterIWithDot" unicode="&#xeeae;" 
d="M447 334q0 334 -219 334q-96 0 -96 -325v-343h-54v343q0 361 150 361q272 0 272 -370h-53zM384 -170q-17 31 0 62q18 31 54 31t54 -31t0 -62t-54 -31t-54 31z" />
    <glyph glyph-name="UkaliqLetterOhWithDot" unicode="&#xeeaf;" 
d="M78 0v343q0 361 150 361q272 0 272 -704h-53q0 668 -219 668q-96 0 -96 -325v-343h-54zM396 -170q-18 31 0 62t54 31t53 -31q18 -31 0 -62q-17 -31 -53 -31t-54 31z" />
    <glyph glyph-name="UkaliqPlusWithDot" unicode="&#xeeb0;" 
d="M83 47h412v-47h-412v47zM384 -170q-17 31 0 62q18 31 54 31t54 -31t0 -62t-54 -31t-54 31zM83 704h412v-47h-412v47z" />
    <glyph glyph-name="UkaliqCurrencyWithDot" unicode="&#xeeb1;" 
d="M384 -170q-17 31 0 62q18 31 54 31t54 -31t0 -62t-54 -31t-54 31zM500 369v-176q0 -193 -222 -193h-194v35h194q169 0 169 158v176h53zM83 704h412v-47h-412v47z" />
    <glyph glyph-name="UkaliqAtWithDot" unicode="&#xeeb2;" 
d="M83 47h412v-47h-412v47zM495 668h-195q-168 0 -168 -158v-176h-54v176q0 194 222 194h195v-36zM384 -170q-17 31 0 62q18 31 54 31t54 -31t0 -62t-54 -31t-54 31z" />
    <glyph glyph-name="UkaliqLetterAlhaWithDot" unicode="&#xeeb3;" 
d="M495 668h-195q-168 0 -168 -158v-176h-54v176q0 194 222 194h195v-36zM384 -170q-17 31 0 62q18 31 54 31t54 -31t0 -62t-54 -31t-54 31zM500 369v-176q0 -193 -222 -193h-194v35h194q169 0 169 158v176h53z" />
    <glyph glyph-name="UkaliqLetterElreWithDot" unicode="&#xeeb4;" 
d="M132 369v-334h363v-35h-417v369h54zM384 -170q-17 31 0 62q18 31 54 31t54 -31t0 -62t-54 -31t-54 31zM83 704h412v-47h-412v47z" />
    <glyph glyph-name="UkaliqLetterUlguWithDot" unicode="&#xeeb5;" 
d="M132 369v-334h157q158 0 158 158v176h53v-176q0 -193 -211 -193h-211v369h54zM384 -170q-17 31 0 62q18 31 54 31t54 -31t0 -62t-54 -31t-54 31zM83 704h412v-47h-412v47z" />
    <glyph glyph-name="UkaliqLetterIljiWithDot" unicode="&#xeeb6;" 
d="M495 668h-195q-168 0 -168 -316v-317h363v-35h-417v352q0 352 222 352h195v-36zM384 -170q-17 31 0 62q18 31 54 31t54 -31t0 -62t-54 -31t-54 31z" />
    <glyph glyph-name="UkaliqLetterOloWithDot" unicode="&#xeeb7;" 
d="M495 668h-195q-168 0 -168 -316v-317h157q158 0 158 158v176h53v-176q0 -193 -211 -193h-211v352q0 352 222 352h195v-36zM384 -170q-17 31 0 62q18 31 54 31t54 -31t0 -62t-54 -31t-54 31z" />
    <glyph glyph-name="UkaliqDegreeWithDot" unicode="&#xeeb8;" 
d="M83 47h412v-47h-412v47zM84 704q416 0 416 -370h-53q0 334 -363 334v36zM384 -170q-17 31 0 62q18 31 54 31t54 -31t0 -62t-54 -31t-54 31z" />
    <glyph glyph-name="UkaliqLetterHbatWithDot" unicode="&#xeeb9;" 
d="M84 704q416 0 416 -464q0 -240 -222 -240h-194v35h194q169 0 169 205q0 428 -363 428v36zM384 -170q-17 31 0 62q18 31 54 31t54 -31t0 -62t-54 -31t-54 31z" />
    <glyph glyph-name="UkaliqLetterAnqaWithDot" unicode="&#xeeba;" 
d="M83 47h412v-47h-412v47zM78 334v176q0 194 150 194q272 0 272 -370h-53q0 334 -219 334q-96 0 -96 -158v-176h-54zM384 -170q-17 31 0 62q18 31 54 31t54 -31t0 -62t-54 -31t-54 31z" />
    <glyph glyph-name="UkaliqLetterAmaWithDot" unicode="&#xeebb;" 
d="M78 334v176q0 194 150 194q272 0 272 -464q0 -240 -222 -240h-194v35h194q169 0 169 205q0 428 -219 428q-96 0 -96 -158v-176h-54zM384 -170q-17 31 0 62q18 31 54 31t54 -31t0 -62t-54 -31t-54 31z" />
    <glyph glyph-name="UkaliqLetterEnreWithDot" unicode="&#xeebc;" 
d="M84 704q416 0 416 -370h-53q0 334 -363 334v36zM132 369v-334h363v-35h-417v369h54zM384 -170q-17 31 0 62q18 31 54 31t54 -31t0 -62t-54 -31t-54 31z" />
    <glyph glyph-name="UkaliqLetterUnguWithDot" unicode="&#xeebd;" 
d="M84 704q416 0 416 -464q0 -240 -211 -240h-211v369h54v-334h157q158 0 158 205q0 428 -363 428v36zM384 -170q-17 31 0 62q18 31 54 31t54 -31t0 -62t-54 -31t-54 31z" />
    <glyph glyph-name="UkaliqLetterInjiWithDot" unicode="&#xeebe;" 
d="M447 334q0 334 -219 334q-96 0 -96 -316v-317h363v-35h-417v352q0 352 150 352q272 0 272 -370h-53zM384 -170q-17 31 0 62q18 31 54 31t54 -31t0 -62t-54 -31t-54 31z" />
    <glyph glyph-name="UkaliqLetterOnoWithDot" unicode="&#xeebf;" 
d="M384 -170q-17 31 0 62q18 31 54 31t54 -31t0 -62t-54 -31t-54 31zM132 352v-317h157q158 0 158 205q0 428 -219 428q-96 0 -96 -316zM78 352q0 352 150 352q272 0 272 -464q0 -240 -211 -240h-211v352z" />
    <glyph glyph-name="UkaliqDashWithDot" unicode="&#xeec0;" 
d="M83 375h412v-47h-412v47zM384 -170q-17 31 0 62q18 31 54 31t54 -31t0 -62t-54 -31t-54 31z" />
    <glyph glyph-name="UkaliqLetterAWithDot" unicode="&#xeec1;" 
d="M84 369h194q222 0 222 -193v-176h-53v176q0 158 -169 158h-194v35zM396 -170q-18 31 0 62t54 31t53 -31q18 -31 0 -62q-17 -31 -53 -31t-54 31z" />
    <glyph glyph-name="UkaliqMinusWithDot" unicode="&#xeec2;" 
d="M132 704v-176q0 -159 168 -159h195v-35h-195q-222 0 -222 194v176h54zM384 -170q-17 31 0 62q18 31 54 31t54 -31t0 -62t-54 -31t-54 31z" />
    <glyph glyph-name="UkaliqLetterAwaWithDot" unicode="&#xeec3;" 
d="M396 -170q-18 31 0 62t54 31t53 -31q18 -31 0 -62q-17 -31 -53 -31t-54 31zM132 704v-176q0 -159 157 -159h211v-369h-53v334h-158q-211 0 -211 194v176h54z" />
    <glyph glyph-name="UkaliqLetterErreWithDot" unicode="&#xeec4;" 
d="M495 334h-195q-168 0 -168 -158v-176h-54v176q0 193 222 193h195v-35zM384 -170q-17 31 0 62q18 31 54 31t54 -31t0 -62t-54 -31t-54 31z" />
    <glyph glyph-name="UkaliqAndWithDot" unicode="&#xeec5;" 
d="M78 0v176q0 193 211 193t211 -193v-176h-53v176q0 158 -158 158q-157 0 -157 -158v-176h-54zM396 -170q-18 31 0 62t54 31t53 -31q18 -31 0 -62q-17 -31 -53 -31t-54 31z" />
    <glyph glyph-name="UkaliqLetterIzjiWithDot" unicode="&#xeec6;" 
d="M384 -170q-17 31 0 62q18 31 54 31t54 -31t0 -62t-54 -31t-54 31zM132 704v-264v-71h363v-35h-363v-70v-264h-54v264v176v264h54z" />
    <glyph glyph-name="UkaliqLetterOroWithDot" unicode="&#xeec7;" 
d="M396 -170q-18 31 0 62t54 31t53 -31q18 -31 0 -62q-17 -31 -53 -31t-54 31zM132 704v-264v-71h157q211 0 211 -193v-176h-53v176q0 158 -158 158h-157v-70v-264h-54v264v176v264h54z" />
    <glyph glyph-name="UkaliqNotWithDot" unicode="&#xeec8;" 
d="M500 704v-176q0 -194 -222 -194h-194v35h194q169 0 169 159v176h53zM384 -170q-17 31 0 62q18 31 54 31t54 -31t0 -62t-54 -31t-54 31z" />
    <glyph glyph-name="UkaliqDivisionWithDot" unicode="&#xeec9;" 
d="M500 704v-264v-176v-264h-53v264v70h-363v35h363v71v264h53zM396 -170q-18 31 0 62t54 31t53 -31q18 -31 0 -62q-17 -31 -53 -31t-54 31z" />
    <glyph glyph-name="UkaliqXorWithDot" unicode="&#xeeca;" 
d="M132 704v-176q0 -159 157 -159q158 0 158 159v176h53v-176q0 -194 -211 -194t-211 194v176h54zM384 -170q-17 31 0 62q18 31 54 31t54 -31t0 -62t-54 -31t-54 31z" />
    </font>
</defs>
</svg>
