<?xml version="1.0" standalone="no"?>
<!DOCTYPE svg PUBLIC "-//W3C//DTD SVG 1.1//EN" "http://www.w3.org/Graphics/SVG/1.1/DTD/svg11.dtd" >
<svg xmlns="http://www.w3.org/2000/svg" xmlns:xlink="http://www.w3.org/1999/xlink" version="1.1">
<metadata>
Created by FontForge 20170812 at Mon Jan 23 00:30:10 2023
 By ht,,,
Copyright (C) 2022-2023 Henrik Theiling, License CC-BY-NC4.0
</metadata>
<defs>
<font id="UkaliqSansBoldOblique" horiz-adv-x="578" >
  <font-face 
    font-family="Ukaliq Sans"
    font-weight="600"
    font-style="oblique"
    font-stretch="normal"
    units-per-em="1024"
    panose-1="2 0 7 3 0 0 0 0 0 0"
    ascent="727"
    descent="-297"
    bbox="0 -296 653 946"
    underline-thickness="78"
    underline-position="-171"
    unicode-range="U+000D-F1DFF"
  />
<missing-glyph 
d="M100 94h419l-19 -94h-418zM314 -201q-15 41 17 82q32 42 80 42q47 0 63 -42q16 -41 -17 -82q-32 -42 -79 -42q-48 0 -64 42z" />
    <glyph glyph-name="UkaliqSpace_UkaliqModifierDot" unicode="&#xee00;&#x331;" 
d="M314 -201q-15 41 17 82q32 42 80 42q47 0 63 -42q16 -41 -17 -82q-32 -42 -79 -42q-48 0 -64 42z" />
    <glyph glyph-name="UkaliqNumber_UkaliqModifierDot" unicode="&#xee01;&#x331;" 
d="M590 387l-78 -387h-129l78 387h129zM336 -201q-16 41 17 82q32 42 79 42q48 0 64 -42q15 -41 -17 -82q-32 -42 -80 -42q-47 0 -63 42z" />
    <glyph glyph-name="UkaliqRightSingleQuotationMark_UkaliqModifierDot" unicode="&#xee02;&#x331;" 
d="M334 704l-77 -387h-129l77 387h129zM314 -201q-15 41 17 82q32 42 80 42q47 0 63 -42q16 -41 -17 -82q-32 -42 -79 -42q-48 0 -64 42z" />
    <glyph glyph-name="UkaliqColon_UkaliqModifierDot" unicode="&#xee03;&#x331;" 
d="M590 387l-78 -387h-129l78 387h129zM334 704l-77 -387h-129l77 387h129zM336 -201q-16 41 17 82q32 42 79 42q48 0 64 -42q15 -41 -17 -82q-32 -42 -80 -42q-47 0 -63 42z" />
    <glyph glyph-name="UkaliqFullStop_UkaliqModifierDot" unicode="&#xee04;&#x331;" 
d="M271 387l-77 -387h-129l77 387h129zM314 -201q-15 41 17 82q32 42 80 42q47 0 63 -42q16 -41 -17 -82q-32 -42 -79 -42q-48 0 -64 42z" />
    <glyph glyph-name="UkaliqComma_UkaliqModifierDot" unicode="&#xee05;&#x331;" 
d="M590 387l-78 -387h-129l78 387h129zM271 387l-77 -387h-129l77 387h129zM336 -201q-16 41 17 82q32 42 79 42q48 0 64 -42q15 -41 -17 -82q-32 -42 -80 -42q-47 0 -63 42z" />
    <glyph glyph-name="UkaliqRightParenthesis_UkaliqModifierDot" unicode="&#xee06;&#x331;" 
d="M334 704l-140 -704h-129l140 704h129zM314 -201q-15 41 17 82q32 42 80 42q47 0 63 -42q16 -41 -17 -82q-32 -42 -79 -42q-48 0 -64 42z" />
    <glyph glyph-name="UkaliqExclamationMark_UkaliqModifierDot" unicode="&#xee07;&#x331;" 
d="M334 704l-140 -704h-129l140 704h129zM590 387l-78 -387h-129l78 387h129zM336 -201q-16 41 17 82q32 42 79 42q48 0 64 -42q15 -41 -17 -82q-32 -42 -80 -42q-47 0 -63 42z" />
    <glyph glyph-name="UkaliqLeftSingleQuotationMark_UkaliqModifierDot" unicode="&#xee08;&#x331;" 
d="M653 704l-77 -387h-129l77 387h129zM314 -201q-15 41 17 82q32 42 80 42q47 0 63 -42q16 -41 -17 -82q-32 -42 -79 -42q-48 0 -64 42z" />
    <glyph glyph-name="UkaliqLeftParenthesis_UkaliqModifierDot" unicode="&#xee09;&#x331;" 
d="M653 704l-141 -704h-129l141 704h129zM336 -201q-16 41 17 82q32 42 79 42q48 0 64 -42q15 -41 -17 -82q-32 -42 -80 -42q-47 0 -63 42z" />
    <glyph glyph-name="UkaliqDoubleQuotationMark_UkaliqModifierDot" unicode="&#xee0a;&#x331;" 
d="M334 704l-77 -387h-129l77 387h129zM653 704l-77 -387h-129l77 387h129zM314 -201q-15 41 17 82q32 42 80 42q47 0 63 -42q16 -41 -17 -82q-32 -42 -79 -42q-48 0 -64 42z" />
    <glyph glyph-name="UkaliqReversedQuestionMark_UkaliqModifierDot" unicode="&#xee0b;&#x331;" 
d="M653 704l-141 -704h-129l141 704h129zM334 704l-77 -387h-129l77 387h129zM336 -201q-16 41 17 82q32 42 79 42q48 0 64 -42q15 -41 -17 -82q-32 -42 -80 -42q-47 0 -63 42z" />
    <glyph glyph-name="UkaliqSemicolon_UkaliqModifierDot" unicode="&#xee0c;&#x331;" 
d="M653 704l-77 -387h-129l77 387h129zM271 387l-77 -387h-129l77 387h129zM314 -201q-15 41 17 82q32 42 80 42q47 0 63 -42q16 -41 -17 -82q-32 -42 -79 -42q-48 0 -64 42z" />
    <glyph glyph-name="UkaliqReversedExclamationMark_UkaliqModifierDot" unicode="&#xee0d;&#x331;" 
d="M653 704l-141 -704h-129l141 704h129zM271 387l-77 -387h-129l77 387h129zM336 -201q-16 41 17 82q32 42 79 42q48 0 64 -42q15 -41 -17 -82q-32 -42 -80 -42q-47 0 -63 42z" />
    <glyph glyph-name="UkaliqQuestionMark_UkaliqModifierDot" unicode="&#xee0e;&#x331;" 
d="M334 704l-140 -704h-129l140 704h129zM653 704l-77 -387h-129l77 387h129zM314 -201q-15 41 17 82q32 42 80 42q47 0 63 -42q16 -41 -17 -82q-32 -42 -79 -42q-48 0 -64 42z" />
    <glyph glyph-name="UkaliqEquals_UkaliqModifierDot" unicode="&#xee0f;&#x331;" 
d="M653 704l-141 -704h-129l141 704h129zM334 704l-140 -704h-129l140 704h129zM336 -201q-16 41 17 82q32 42 79 42q48 0 64 -42q15 -41 -17 -82q-32 -42 -80 -42q-47 0 -63 42z" />
    <glyph glyph-name="UkaliqHyphen_UkaliqModifierDot" unicode="&#xee10;&#x331;" 
d="M100 94h419l-19 -94h-418zM314 -201q-15 41 17 82q32 42 80 42q47 0 63 -42q16 -41 -17 -82q-32 -42 -79 -42q-48 0 -64 42z" />
    <glyph glyph-name="UkaliqLetterOzo_UkaliqModifierDot" unicode="&#xee11;&#x331;" 
d="M314 -201q-15 41 17 82q32 42 80 42q47 0 63 -42q16 -41 -17 -82q-32 -42 -79 -42q-48 0 -64 42zM590 387l-36 -176q-42 -211 -291 -211h-185l14 70h185q120 0 148 141l36 176h129z" />
    <glyph glyph-name="UkaliqGreaterThan_UkaliqModifierDot" unicode="&#xee12;&#x331;" 
d="M100 94h419l-19 -94h-418zM334 704l-77 -387h-129l77 387h129zM314 -201q-15 41 17 82q32 42 80 42q47 0 63 -42q16 -41 -17 -82q-32 -42 -79 -42q-48 0 -64 42z" />
    <glyph glyph-name="UkaliqLetterAtlha_UkaliqModifierDot" unicode="&#xee13;&#x331;" 
d="M334 704l-77 -387h-129l77 387h129zM314 -201q-15 41 17 82q32 42 80 42q47 0 63 -42q16 -41 -17 -82q-32 -42 -79 -42q-48 0 -64 42zM590 387l-36 -176q-42 -211 -291 -211h-185l14 70h185q120 0 148 141l36 176h129z" />
    <glyph glyph-name="UkaliqLetterEdzre_UkaliqModifierDot" unicode="&#xee14;&#x331;" 
d="M271 387l-63 -317h305l-14 -70h-434l77 387h129zM314 -201q-15 41 17 82q32 42 80 42q47 0 63 -42q16 -41 -17 -82q-32 -42 -79 -42q-48 0 -64 42z" />
    <glyph glyph-name="UkaliqOr_UkaliqModifierDot" unicode="&#xee15;&#x331;" 
d="M271 387l-63 -317h95q94 0 122 141l36 176h129l-36 -176q-42 -211 -266 -211h-223l77 387h129zM314 -201q-15 41 17 82q32 42 80 42q47 0 63 -42q16 -41 -17 -82q-32 -42 -79 -42q-48 0 -64 42z" />
    <glyph glyph-name="UkaliqLetterIdzji_UkaliqModifierDot" unicode="&#xee16;&#x331;" 
d="M334 704l-126 -634h305l-14 -70h-434l140 704h129zM314 -201q-15 41 17 82q32 42 80 42q47 0 63 -42q16 -41 -17 -82q-32 -42 -79 -42q-48 0 -64 42z" />
    <glyph glyph-name="UkaliqLetterOdzo_UkaliqModifierDot" unicode="&#xee17;&#x331;" 
d="M334 704l-126 -634h95q94 0 122 141l36 176h129l-36 -176q-42 -211 -266 -211h-223l140 704h129zM314 -201q-15 41 17 82q32 42 80 42q47 0 63 -42q16 -41 -17 -82q-32 -42 -79 -42q-48 0 -64 42z" />
    <glyph glyph-name="UkaliqLessThan_UkaliqModifierDot" unicode="&#xee18;&#x331;" 
d="M100 94h419l-19 -94h-418zM653 704l-77 -387h-129l77 387h129zM314 -201q-15 41 17 82q32 42 80 42q47 0 63 -42q16 -41 -17 -82q-32 -42 -79 -42q-48 0 -64 42z" />
    <glyph glyph-name="UkaliqLetterOso_UkaliqModifierDot" unicode="&#xee19;&#x331;" 
d="M653 704l-67 -335q-74 -369 -323 -369h-185l14 70h185q120 0 180 299l67 335h129zM314 -201q-15 41 17 82q32 42 80 42q47 0 63 -42q16 -41 -17 -82q-32 -42 -79 -42q-48 0 -64 42z" />
    <glyph glyph-name="UkaliqMultiplication_UkaliqModifierDot" unicode="&#xee1a;&#x331;" 
d="M100 94h419l-19 -94h-418zM334 704l-77 -387h-129l77 387h129zM653 704l-77 -387h-129l77 387h129zM314 -201q-15 41 17 82q32 42 80 42q47 0 63 -42q16 -41 -17 -82q-32 -42 -79 -42q-48 0 -64 42z" />
    <glyph glyph-name="UkaliqLetterApfa_UkaliqModifierDot" unicode="&#xee1b;&#x331;" 
d="M334 704l-77 -387h-129l77 387h129zM653 704l-67 -335q-74 -369 -323 -369h-185l14 70h185q120 0 180 299l67 335h129zM314 -201q-15 41 17 82q32 42 80 42q47 0 63 -42q16 -41 -17 -82q-32 -42 -79 -42q-48 0 -64 42z" />
    <glyph glyph-name="UkaliqLetterEtsre_UkaliqModifierDot" unicode="&#xee1c;&#x331;" 
d="M271 387l-63 -317h305l-14 -70h-434l77 387h129zM653 704l-77 -387h-129l77 387h129zM314 -201q-15 41 17 82q32 42 80 42q47 0 63 -42q16 -41 -17 -82q-32 -42 -79 -42q-48 0 -64 42z" />
    <glyph glyph-name="UkaliqLetterUkkhu_UkaliqModifierDot" unicode="&#xee1d;&#x331;" 
d="M653 704l-67 -335q-74 -369 -298 -369h-223l77 387h129l-63 -317h95q94 0 154 299l67 335h129zM314 -201q-15 41 17 82q32 42 80 42q47 0 63 -42q16 -41 -17 -82q-32 -42 -79 -42q-48 0 -64 42z" />
    <glyph glyph-name="UkaliqLetterItsji_UkaliqModifierDot" unicode="&#xee1e;&#x331;" 
d="M334 704l-126 -634h305l-14 -70h-434l140 704h129zM653 704l-77 -387h-129l77 387h129zM314 -201q-15 41 17 82q32 42 80 42q47 0 63 -42q16 -41 -17 -82q-32 -42 -79 -42q-48 0 -64 42z" />
    <glyph glyph-name="UkaliqLetterOtso_UkaliqModifierDot" unicode="&#xee1f;&#x331;" 
d="M334 704l-126 -634h95q94 0 154 299l67 335h129l-67 -335q-74 -369 -298 -369h-223l140 704h129zM314 -201q-15 41 17 82q32 42 80 42q47 0 63 -42q16 -41 -17 -82q-32 -42 -79 -42q-48 0 -64 42z" />
    <glyph glyph-name="UkaliqRange_UkaliqModifierDot" unicode="&#xee20;&#x331;" 
d="M314 -201q-15 41 17 82q32 42 80 42q47 0 63 -42q16 -41 -17 -82q-32 -42 -79 -42q-48 0 -64 42zM222 704h419l-19 -94h-418z" />
    <glyph glyph-name="UkaliqLetterEo_UkaliqModifierDot" unicode="&#xee21;&#x331;" 
d="M590 387l-78 -387h-129l78 387h129zM336 -201q-16 41 17 82q32 42 79 42q48 0 64 -42q15 -41 -17 -82q-32 -42 -80 -42q-47 0 -63 42zM222 704h419l-19 -94h-418z" />
    <glyph glyph-name="UkaliqLetterUh_UkaliqModifierDot" unicode="&#xee22;&#x331;" 
d="M626 633h-185q-121 0 -149 -141l-35 -175h-129l35 175q42 212 292 212h185zM314 -201q-15 41 17 82q32 42 80 42q47 0 63 -42q16 -41 -17 -82q-32 -42 -79 -42q-48 0 -64 42z" />
    <glyph glyph-name="UkaliqLetterEu_UkaliqModifierDot" unicode="&#xee23;&#x331;" 
d="M590 387l-78 -387h-129l78 387h129zM626 633h-185q-121 0 -149 -141l-35 -175h-129l35 175q42 212 292 212h185zM336 -201q-16 41 17 82q32 42 79 42q48 0 64 -42q15 -41 -17 -82q-32 -42 -80 -42q-47 0 -63 42z" />
    <glyph glyph-name="UkaliqLetterOe_UkaliqModifierDot" unicode="&#xee24;&#x331;" 
d="M271 387l-77 -387h-129l77 387h129zM314 -201q-15 41 17 82q32 42 80 42q47 0 63 -42q16 -41 -17 -82q-32 -42 -79 -42q-48 0 -64 42zM222 704h419l-19 -94h-418z" />
    <glyph glyph-name="UkaliqLetterOeh_UkaliqModifierDot" unicode="&#xee25;&#x331;" 
d="M590 387l-78 -387h-129l78 387h129zM271 387l-77 -387h-129l77 387h129zM336 -201q-16 41 17 82q32 42 79 42q48 0 64 -42q15 -41 -17 -82q-32 -42 -80 -42q-47 0 -63 42zM222 704h419l-19 -94h-418z" />
    <glyph glyph-name="UkaliqLetterUi_UkaliqModifierDot" unicode="&#xee26;&#x331;" 
d="M626 633h-185q-121 0 -181 -299l-66 -334h-129l67 334q73 370 323 370h185zM314 -201q-15 41 17 82q32 42 80 42q47 0 63 -42q16 -41 -17 -82q-32 -42 -79 -42q-48 0 -64 42z" />
    <glyph glyph-name="UkaliqLetterAh_UkaliqModifierDot" unicode="&#xee27;&#x331;" 
d="M626 633h-185q-121 0 -181 -299l-66 -334h-129l67 334q73 370 323 370h185zM590 387l-78 -387h-129l78 387h129zM336 -201q-16 41 17 82q32 42 79 42q48 0 64 -42q15 -41 -17 -82q-32 -42 -80 -42q-47 0 -63 42z" />
    <glyph glyph-name="UkaliqLetterAe_UkaliqModifierDot" unicode="&#xee28;&#x331;" 
d="M218 704q435 0 358 -387h-129q63 316 -243 316zM314 -201q-15 41 17 82q32 42 80 42q47 0 63 -42q16 -41 -17 -82q-32 -42 -79 -42q-48 0 -64 42z" />
    <glyph glyph-name="UkaliqLetterO_UkaliqModifierDot" unicode="&#xee29;&#x331;" 
d="M218 704q435 0 294 -704h-129q127 633 -179 633zM336 -201q-16 41 17 82q32 42 79 42q48 0 64 -42q15 -41 -17 -82q-32 -42 -80 -42q-47 0 -63 42z" />
    <glyph glyph-name="UkaliqLetterIh_UkaliqModifierDot" unicode="&#xee2a;&#x331;" 
d="M128 317l35 175q42 212 213 212q277 0 200 -387h-129q63 316 -85 316q-42 0 -70 -141l-35 -175h-129zM314 -201q-15 41 17 82q32 42 80 42q47 0 63 -42q16 -41 -17 -82q-32 -42 -79 -42q-48 0 -64 42z" />
    <glyph glyph-name="UkaliqLetterU_UkaliqModifierDot" unicode="&#xee2b;&#x331;" 
d="M128 317l35 175q42 212 213 212q277 0 136 -704h-129q127 633 -21 633q-42 0 -70 -141l-35 -175h-129zM336 -201q-16 41 17 82q32 42 79 42q48 0 64 -42q15 -41 -17 -82q-32 -42 -80 -42q-47 0 -63 42z" />
    <glyph glyph-name="UkaliqLetterE_UkaliqModifierDot" unicode="&#xee2c;&#x331;" 
d="M218 704q435 0 358 -387h-129q63 316 -243 316zM271 387l-77 -387h-129l77 387h129zM314 -201q-15 41 17 82q32 42 80 42q47 0 63 -42q16 -41 -17 -82q-32 -42 -79 -42q-48 0 -64 42z" />
    <glyph glyph-name="UkaliqLetterEh_UkaliqModifierDot" unicode="&#xee2d;&#x331;" 
d="M218 704q435 0 294 -704h-129q127 633 -179 633zM271 387l-77 -387h-129l77 387h129zM336 -201q-16 41 17 82q32 42 79 42q48 0 64 -42q15 -41 -17 -82q-32 -42 -80 -42q-47 0 -63 42z" />
    <glyph glyph-name="UkaliqLetterI_UkaliqModifierDot" unicode="&#xee2e;&#x331;" 
d="M447 317q63 316 -85 316q-42 0 -102 -299l-66 -334h-129l67 334q73 370 244 370q277 0 200 -387h-129zM314 -201q-15 41 17 82q32 42 80 42q47 0 63 -42q16 -41 -17 -82q-32 -42 -79 -42q-48 0 -64 42z" />
    <glyph glyph-name="UkaliqLetterOh_UkaliqModifierDot" unicode="&#xee2f;&#x331;" 
d="M65 0l67 334q73 370 244 370q277 0 136 -704h-129q127 633 -21 633q-42 0 -102 -299l-66 -334h-129zM336 -201q-16 41 17 82q32 42 79 42q48 0 64 -42q15 -41 -17 -82q-32 -42 -80 -42q-47 0 -63 42z" />
    <glyph glyph-name="UkaliqPlus_UkaliqModifierDot" unicode="&#xee30;&#x331;" 
d="M100 94h419l-19 -94h-418zM314 -201q-15 41 17 82q32 42 80 42q47 0 63 -42q16 -41 -17 -82q-32 -42 -79 -42q-48 0 -64 42zM222 704h419l-19 -94h-418z" />
    <glyph glyph-name="UkaliqCurrency_UkaliqModifierDot" unicode="&#xee31;&#x331;" 
d="M314 -201q-15 41 17 82q32 42 80 42q47 0 63 -42q16 -41 -17 -82q-32 -42 -79 -42q-48 0 -64 42zM590 387l-36 -176q-42 -211 -291 -211h-185l14 70h185q120 0 148 141l36 176h129zM222 704h419l-19 -94h-418z" />
    <glyph glyph-name="UkaliqAt_UkaliqModifierDot" unicode="&#xee32;&#x331;" 
d="M100 94h419l-19 -94h-418zM626 633h-185q-121 0 -149 -141l-35 -175h-129l35 175q42 212 292 212h185zM314 -201q-15 41 17 82q32 42 80 42q47 0 63 -42q16 -41 -17 -82q-32 -42 -79 -42q-48 0 -64 42z" />
    <glyph glyph-name="UkaliqLetterAlha_UkaliqModifierDot" unicode="&#xee33;&#x331;" 
d="M626 633h-185q-121 0 -149 -141l-35 -175h-129l35 175q42 212 292 212h185zM314 -201q-15 41 17 82q32 42 80 42q47 0 63 -42q16 -41 -17 -82q-32 -42 -79 -42q-48 0 -64 42zM590 387l-36 -176q-42 -211 -291 -211h-185l14 70h185q120 0 148 141l36 176h129z" />
    <glyph glyph-name="UkaliqLetterElre_UkaliqModifierDot" unicode="&#xee34;&#x331;" 
d="M271 387l-63 -317h305l-14 -70h-434l77 387h129zM314 -201q-15 41 17 82q32 42 80 42q47 0 63 -42q16 -41 -17 -82q-32 -42 -79 -42q-48 0 -64 42zM222 704h419l-19 -94h-418z" />
    <glyph glyph-name="UkaliqLetterUlgu_UkaliqModifierDot" unicode="&#xee35;&#x331;" 
d="M271 387l-63 -317h95q94 0 122 141l36 176h129l-36 -176q-42 -211 -266 -211h-223l77 387h129zM314 -201q-15 41 17 82q32 42 80 42q47 0 63 -42q16 -41 -17 -82q-32 -42 -79 -42q-48 0 -64 42zM222 704h419l-19 -94h-418z" />
    <glyph glyph-name="UkaliqLetterIlji_UkaliqModifierDot" unicode="&#xee36;&#x331;" 
d="M626 633h-185q-121 0 -177 -281l-56 -282h305l-14 -70h-434l70 352q70 352 320 352h185zM314 -201q-15 41 17 82q32 42 80 42q47 0 63 -42q16 -41 -17 -82q-32 -42 -79 -42q-48 0 -64 42z" />
    <glyph glyph-name="UkaliqLetterOlo_UkaliqModifierDot" unicode="&#xee37;&#x331;" 
d="M626 633h-185q-121 0 -177 -281l-56 -282h95q94 0 122 141l36 176h129l-36 -176q-42 -211 -266 -211h-223l70 352q70 352 320 352h185zM314 -201q-15 41 17 82q32 42 80 42q47 0 63 -42q16 -41 -17 -82q-32 -42 -79 -42q-48 0 -64 42z" />
    <glyph glyph-name="UkaliqDegree_UkaliqModifierDot" unicode="&#xee38;&#x331;" 
d="M100 94h419l-19 -94h-418zM218 704q435 0 358 -387h-129q63 316 -243 316zM314 -201q-15 41 17 82q32 42 80 42q47 0 63 -42q16 -41 -17 -82q-32 -42 -79 -42q-48 0 -64 42z" />
    <glyph glyph-name="UkaliqLetterHbat_UkaliqModifierDot" unicode="&#xee39;&#x331;" 
d="M218 704q435 0 343 -458q-49 -246 -298 -246h-185l14 70h185q120 0 155 176q78 387 -228 387zM314 -201q-15 41 17 82q32 42 80 42q47 0 63 -42q16 -41 -17 -82q-32 -42 -79 -42q-48 0 -64 42z" />
    <glyph glyph-name="UkaliqLetterAnqa_UkaliqModifierDot" unicode="&#xee3a;&#x331;" 
d="M100 94h419l-19 -94h-418zM128 317l35 175q42 212 213 212q277 0 200 -387h-129q63 316 -85 316q-42 0 -70 -141l-35 -175h-129zM314 -201q-15 41 17 82q32 42 80 42q47 0 63 -42q16 -41 -17 -82q-32 -42 -79 -42q-48 0 -64 42z" />
    <glyph glyph-name="UkaliqLetterAma_UkaliqModifierDot" unicode="&#xee3b;&#x331;" 
d="M128 317l35 175q42 212 213 212q277 0 185 -458q-49 -246 -298 -246h-185l14 70h185q120 0 155 176q78 387 -70 387q-42 0 -70 -141l-35 -175h-129zM314 -201q-15 41 17 82q32 42 80 42q47 0 63 -42q16 -41 -17 -82q-32 -42 -79 -42q-48 0 -64 42z" />
    <glyph glyph-name="UkaliqLetterEnre_UkaliqModifierDot" unicode="&#xee3c;&#x331;" 
d="M218 704q435 0 358 -387h-129q63 316 -243 316zM271 387l-63 -317h305l-14 -70h-434l77 387h129zM314 -201q-15 41 17 82q32 42 80 42q47 0 63 -42q16 -41 -17 -82q-32 -42 -79 -42q-48 0 -64 42z" />
    <glyph glyph-name="UkaliqLetterUngu_UkaliqModifierDot" unicode="&#xee3d;&#x331;" 
d="M218 704q435 0 343 -458q-49 -246 -273 -246h-223l77 387h129l-63 -317h95q94 0 129 176q78 387 -228 387zM314 -201q-15 41 17 82q32 42 80 42q47 0 63 -42q16 -41 -17 -82q-32 -42 -79 -42q-48 0 -64 42z" />
    <glyph glyph-name="UkaliqLetterInji_UkaliqModifierDot" unicode="&#xee3e;&#x331;" 
d="M447 317q63 316 -85 316q-42 0 -98 -281l-56 -282h305l-14 -70h-434l70 352q70 352 241 352q277 0 200 -387h-129zM314 -201q-15 41 17 82q32 42 80 42q47 0 63 -42q16 -41 -17 -82q-32 -42 -79 -42q-48 0 -64 42z" />
    <glyph glyph-name="UkaliqLetterOno_UkaliqModifierDot" unicode="&#xee3f;&#x331;" 
d="M314 -201q-15 41 17 82q32 42 80 42q47 0 63 -42q16 -41 -17 -82q-32 -42 -79 -42q-48 0 -64 42zM264 352l-56 -282h95q94 0 129 176q78 387 -70 387q-42 0 -98 -281zM135 352q70 352 241 352q277 0 185 -458q-49 -246 -273 -246h-223z" />
    <glyph glyph-name="UkaliqDash_UkaliqModifierDot" unicode="&#xee40;&#x331;" 
d="M161 399h419l-19 -94h-418zM314 -201q-15 41 17 82q32 42 80 42q47 0 63 -42q16 -41 -17 -82q-32 -42 -79 -42q-48 0 -64 42z" />
    <glyph glyph-name="UkaliqLetterA_UkaliqModifierDot" unicode="&#xee41;&#x331;" 
d="M155 387h185q250 0 207 -211l-35 -176h-129l35 176q29 141 -92 141h-185zM336 -201q-16 41 17 82q32 42 79 42q48 0 64 -42q15 -41 -17 -82q-32 -42 -80 -42q-47 0 -63 42z" />
    <glyph glyph-name="UkaliqMinus_UkaliqModifierDot" unicode="&#xee42;&#x331;" 
d="M334 704l-35 -176q-28 -141 93 -141h185l-14 -70h-185q-250 0 -208 211l35 176h129zM314 -201q-15 41 17 82q32 42 80 42q47 0 63 -42q16 -41 -17 -82q-32 -42 -79 -42q-48 0 -64 42z" />
    <glyph glyph-name="UkaliqLetterAwa_UkaliqModifierDot" unicode="&#xee43;&#x331;" 
d="M336 -201q-16 41 17 82q32 42 79 42q48 0 64 -42q15 -41 -17 -82q-32 -42 -80 -42q-47 0 -63 42zM334 704l-35 -176q-28 -141 67 -141h224l-78 -387h-129l64 317h-95q-224 0 -182 211l35 176h129z" />
    <glyph glyph-name="UkaliqLetterErre_UkaliqModifierDot" unicode="&#xee44;&#x331;" 
d="M563 317h-185q-121 0 -149 -141l-35 -176h-129l35 176q42 211 292 211h185zM314 -201q-15 41 17 82q32 42 80 42q47 0 63 -42q16 -41 -17 -82q-32 -42 -79 -42q-48 0 -64 42z" />
    <glyph glyph-name="UkaliqAnd_UkaliqModifierDot" unicode="&#xee45;&#x331;" 
d="M65 0l35 176q42 211 266 211t181 -211l-35 -176h-129l35 176q29 141 -66 141t-123 -141l-35 -176h-129zM336 -201q-16 41 17 82q32 42 79 42q48 0 64 -42q15 -41 -17 -82q-32 -42 -80 -42q-47 0 -63 42z" />
    <glyph glyph-name="UkaliqLetterIzji_UkaliqModifierDot" unicode="&#xee46;&#x331;" 
d="M314 -201q-15 41 17 82q32 42 80 42q47 0 63 -42q16 -41 -17 -82q-32 -42 -79 -42q-48 0 -64 42zM334 704l-52 -264l-11 -53h306l-14 -70h-306l-11 -53l-52 -264h-129l52 264l36 176l52 264h129z" />
    <glyph glyph-name="UkaliqLetterOro_UkaliqModifierDot" unicode="&#xee47;&#x331;" 
d="M336 -201q-16 41 17 82q32 42 79 42q48 0 64 -42q15 -41 -17 -82q-32 -42 -80 -42q-47 0 -63 42zM334 704l-52 -264l-11 -53h95q224 0 181 -211l-35 -176h-129l35 176q29 141 -66 141h-95l-11 -53l-52 -264h-129l52 264l36 176l52 264h129z" />
    <glyph glyph-name="UkaliqNot_UkaliqModifierDot" unicode="&#xee48;&#x331;" 
d="M653 704l-35 -176q-42 -211 -292 -211h-185l14 70h185q121 0 149 141l35 176h129zM314 -201q-15 41 17 82q32 42 80 42q47 0 63 -42q16 -41 -17 -82q-32 -42 -79 -42q-48 0 -64 42z" />
    <glyph glyph-name="UkaliqDivision_UkaliqModifierDot" unicode="&#xee49;&#x331;" 
d="M653 704l-53 -264l-35 -176l-53 -264h-129l53 264l11 53h-306l14 70h305l11 53l53 264h129zM336 -201q-16 41 17 82q32 42 79 42q48 0 64 -42q15 -41 -17 -82q-32 -42 -80 -42q-47 0 -63 42z" />
    <glyph glyph-name="UkaliqXor_UkaliqModifierDot" unicode="&#xee4a;&#x331;" 
d="M334 704l-35 -176q-28 -141 67 -141t123 141l35 176h129l-35 -176q-42 -211 -266 -211t-182 211l35 176h129zM314 -201q-15 41 17 82q32 42 80 42q47 0 63 -42q16 -41 -17 -82q-32 -42 -79 -42q-48 0 -64 42z" />
    <glyph glyph-name="uniEE4B_UkaliqModifierDot" unicode="&#xee4b;&#x331;" 
d="M336 -201q-16 41 17 82q32 42 79 42q48 0 64 -42q15 -41 -17 -82q-32 -42 -80 -42q-47 0 -63 42zM334 704l-35 -176q-28 -141 67 -141h94l11 53l53 264h129l-53 -264l-35 -176l-53 -264h-129l53 264l11 53h-95q-224 0 -182 211l35 176h129z" />
    <glyph glyph-name="UkaliqLetterIji_UkaliqModifierDot" unicode="&#xee4c;&#x331;" 
d="M653 704l-35 -176q-42 -211 -266 -211h-95l-63 -317h-129l77 387h224q95 0 123 141l35 176h129zM314 -201q-15 41 17 82q32 42 80 42q47 0 63 -42q16 -41 -17 -82q-32 -42 -79 -42q-48 0 -64 42z" />
    <glyph glyph-name="UkaliqLetterTkot_UkaliqModifierDot" unicode="&#xee4d;&#x331;" 
d="M653 704l-53 -264l-35 -176l-53 -264h-129l53 264l11 53h-95q-95 0 -123 -141l-35 -176h-129l35 176q42 211 266 211h94l11 53l53 264h129zM336 -201q-16 41 17 82q32 42 79 42q48 0 64 -42q15 -41 -17 -82q-32 -42 -80 -42q-47 0 -63 42z" />
    <glyph glyph-name="UkaliqLetterIsji_UkaliqModifierDot" unicode="&#xee4e;&#x331;" 
d="M314 -201q-15 41 17 82q32 42 80 42q47 0 63 -42q16 -41 -17 -82q-32 -42 -79 -42q-48 0 -64 42zM653 704l-35 -176q-42 -211 -266 -211h-95l-11 -53l-52 -264h-129l52 264l36 176l52 264h129l-52 -264l-11 -53h95q95 0 123 141l35 176h129z" />
    <glyph glyph-name="UkaliqLetterOrro_UkaliqModifierDot" unicode="&#xee4f;&#x331;" 
d="M336 -201q-16 41 17 82q32 42 79 42q48 0 64 -42q15 -41 -17 -82q-32 -42 -80 -42q-47 0 -63 42zM653 704l-53 -264l-35 -176l-53 -264h-129l53 264l11 53h-190l-11 -53l-52 -264h-129l52 264l36 176l52 264h129l-52 -264l-11 -53h189l11 53l53 264h129z" />
    <glyph glyph-name="UkaliqDigitZero_UkaliqModifierDot" unicode="&#xee50;&#x331;" 
d="M100 94h419l-19 -94h-418zM161 399h419l-19 -94h-418zM314 -201q-15 41 17 82q32 42 80 42q47 0 63 -42q16 -41 -17 -82q-32 -42 -79 -42q-48 0 -64 42z" />
    <glyph glyph-name="UkaliqDigitOne_UkaliqModifierDot" unicode="&#xee51;&#x331;" 
d="M155 387h185q250 0 211 -194q-39 -193 -288 -193h-185l14 70h185q120 0 145 123q25 124 -96 124h-185zM314 -201q-15 41 17 82q32 42 80 42q47 0 63 -42q16 -41 -17 -82q-32 -42 -79 -42q-48 0 -64 42z" />
    <glyph glyph-name="UkaliqDigitTwo_UkaliqModifierDot" unicode="&#xee52;&#x331;" 
d="M334 704l-35 -176q-28 -141 93 -141h185l-14 -70h-185q-250 0 -208 211l35 176h129zM100 94h419l-19 -94h-418zM314 -201q-15 41 17 82q32 42 80 42q47 0 63 -42q16 -41 -17 -82q-32 -42 -79 -42q-48 0 -64 42z" />
    <glyph glyph-name="UkaliqDigitThree_UkaliqModifierDot" unicode="&#xee53;&#x331;" 
d="M314 -201q-15 41 17 82q32 42 80 42q47 0 63 -42q16 -41 -17 -82q-32 -42 -79 -42q-48 0 -64 42zM334 704l-35 -176q-28 -141 67 -141h224l-39 -194q-39 -193 -288 -193h-185l14 70h185q120 0 145 123l25 124h-95q-224 0 -182 211l35 176h129z" />
    <glyph glyph-name="UkaliqDigitFour_UkaliqModifierDot" unicode="&#xee54;&#x331;" 
d="M563 317h-185q-121 0 -146 -124l-24 -123h305l-14 -70h-434l38 193q39 194 289 194h185zM314 -201q-15 41 17 82q32 42 80 42q47 0 63 -42q16 -41 -17 -82q-32 -42 -79 -42q-48 0 -64 42z" />
    <glyph glyph-name="UkaliqDigitFive_UkaliqModifierDot" unicode="&#xee55;&#x331;" 
d="M314 -201q-15 41 17 82q32 42 80 42q47 0 63 -42q16 -41 -17 -82q-32 -42 -79 -42q-48 0 -64 42zM232 193l-24 -123h95q94 0 119 123q25 124 -70 124t-120 -124zM103 193q39 194 263 194t185 -194q-39 -193 -263 -193h-223z" />
    <glyph glyph-name="UkaliqDigitSix_UkaliqModifierDot" unicode="&#xee56;&#x331;" 
d="M314 -201q-15 41 17 82q32 42 80 42q47 0 63 -42q16 -41 -17 -82q-32 -42 -79 -42q-48 0 -64 42zM334 704l-52 -264l-11 -53h306l-14 -70h-306l-9 -44l-40 -203h305l-14 -70h-434l54 273l34 167l52 264h129z" />
    <glyph glyph-name="UkaliqDigitSeven_UkaliqModifierDot" unicode="&#xee57;&#x331;" 
d="M314 -201q-15 41 17 82q32 42 80 42q47 0 63 -42q16 -41 -17 -82q-32 -42 -79 -42q-48 0 -64 42zM334 704l-52 -264l-11 -53h95q224 0 185 -194q-39 -193 -263 -193h-223l54 273l34 167l52 264h129zM257 317l-9 -44l-40 -203h95q94 0 119 123q25 124 -70 124h-95z" />
    <glyph glyph-name="UkaliqDigitEight_UkaliqModifierDot" unicode="&#xee58;&#x331;" 
d="M100 94h419l-19 -94h-418zM653 704l-35 -176q-42 -211 -292 -211h-185l14 70h185q121 0 149 141l35 176h129zM314 -201q-15 41 17 82q32 42 80 42q47 0 63 -42q16 -41 -17 -82q-32 -42 -79 -42q-48 0 -64 42z" />
    <glyph glyph-name="UkaliqDigitNine_UkaliqModifierDot" unicode="&#xee59;&#x331;" 
d="M653 704l-53 -264l-33 -167l-16 -80q-39 -193 -288 -193h-185l14 70h185q120 0 145 123l16 80l9 44h-306l14 70h306l10 53l53 264h129zM314 -201q-15 41 17 82q32 42 80 42q47 0 63 -42q16 -41 -17 -82q-32 -42 -79 -42q-48 0 -64 42z" />
    <glyph glyph-name="UkaliqDigitTen_UkaliqModifierDot" unicode="&#xee5a;&#x331;" 
d="M334 704l-35 -176q-28 -141 67 -141t123 141l35 176h129l-35 -176q-42 -211 -266 -211t-182 211l35 176h129zM100 94h419l-19 -94h-418zM314 -201q-15 41 17 82q32 42 80 42q47 0 63 -42q16 -41 -17 -82q-32 -42 -79 -42q-48 0 -64 42z" />
    <glyph glyph-name="UkaliqDigitEleven_UkaliqModifierDot" unicode="&#xee5b;&#x331;" 
d="M314 -201q-15 41 17 82q32 42 80 42q47 0 63 -42q16 -41 -17 -82q-32 -42 -79 -42q-48 0 -64 42zM334 704l-35 -176q-28 -141 67 -141h95l10 53l53 264h129l-53 -264l-33 -167l-16 -80q-39 -193 -288 -193h-185l14 70h185q120 0 145 123l16 80l9 44h-95q-224 0 -182 211
l35 176h129z" />
    <glyph glyph-name="UkaliqDigitTwelve_UkaliqModifierDot" unicode="&#xee5c;&#x331;" 
d="M653 704l-35 -176q-42 -211 -266 -211h-95l-49 -247h305l-14 -70h-434l77 387h224q95 0 123 141l35 176h129zM314 -201q-15 41 17 82q32 42 80 42q47 0 63 -42q16 -41 -17 -82q-32 -42 -79 -42q-48 0 -64 42z" />
    <glyph glyph-name="UkaliqDigitThirteen_UkaliqModifierDot" unicode="&#xee5d;&#x331;" 
d="M653 704l-53 -264l-33 -167l-16 -80q-39 -193 -263 -193h-223l38 193q39 194 263 194h95l10 53l53 264h129zM314 -201q-15 41 17 82q32 42 80 42q47 0 63 -42q16 -41 -17 -82q-32 -42 -79 -42q-48 0 -64 42zM447 317h-95q-95 0 -120 -124l-24 -123h95q94 0 119 123l16 80
z" />
    <glyph glyph-name="UkaliqDigitFourteen_UkaliqModifierDot" unicode="&#xee5e;&#x331;" 
d="M314 -201q-15 41 17 82q32 42 80 42q47 0 63 -42q16 -41 -17 -82q-32 -42 -79 -42q-48 0 -64 42zM653 704l-35 -176q-42 -211 -266 -211h-95l-9 -44l-40 -203h305l-14 -70h-434l54 273l34 167l52 264h129l-52 -264l-11 -53h95q95 0 123 141l35 176h129z" />
    <glyph glyph-name="UkaliqDigitFifteen_UkaliqModifierDot" unicode="&#xee5f;&#x331;" 
d="M314 -201q-15 41 17 82q32 42 80 42q47 0 63 -42q16 -41 -17 -82q-32 -42 -79 -42q-48 0 -64 42zM334 704l-52 -264l-11 -53h190l10 53l53 264h129l-53 -264l-33 -167l-16 -80q-39 -193 -263 -193h-223l54 273l34 167l52 264h129zM447 317h-190l-9 -44l-40 -203h95
q94 0 119 123l16 80z" />
    <glyph glyph-name="UkaliqLetterSchwa_UkaliqModifierDot" unicode="&#xee60;&#x331;" 
d="M161 399h419l-19 -94h-418zM314 -201q-15 41 17 82q32 42 80 42q47 0 63 -42q16 -41 -17 -82q-32 -42 -79 -42q-48 0 -64 42zM222 704h419l-19 -94h-418z" />
    <glyph glyph-name="UkaliqLetterOhgo_UkaliqModifierDot" unicode="&#xee61;&#x331;" 
d="M155 387h185q250 0 207 -211l-35 -176h-129l35 176q29 141 -92 141h-185zM336 -201q-16 41 17 82q32 42 79 42q48 0 64 -42q15 -41 -17 -82q-32 -42 -80 -42q-47 0 -63 42zM222 704h419l-19 -94h-418z" />
    <glyph glyph-name="UkaliqLetterArha_UkaliqModifierDot" unicode="&#xee62;&#x331;" 
d="M626 633h-185q-121 0 -145 -123q-25 -123 96 -123h185l-14 -70h-185q-250 0 -211 193q38 194 288 194h185zM314 -201q-15 41 17 82q32 42 80 42q47 0 63 -42q16 -41 -17 -82q-32 -42 -79 -42q-48 0 -64 42z" />
    <glyph glyph-name="UkaliqLetterAva_UkaliqModifierDot" unicode="&#xee63;&#x331;" 
d="M336 -201q-16 41 17 82q32 42 79 42q48 0 64 -42q15 -41 -17 -82q-32 -42 -80 -42q-47 0 -63 42zM626 633h-185q-121 0 -145 -123q-25 -123 70 -123h224l-78 -387h-129l64 317h-95q-224 0 -185 193q38 194 288 194h185z" />
    <glyph glyph-name="UkaliqLetterEzre_UkaliqModifierDot" unicode="&#xee64;&#x331;" 
d="M563 317h-185q-121 0 -149 -141l-35 -176h-129l35 176q42 211 292 211h185zM314 -201q-15 41 17 82q32 42 80 42q47 0 63 -42q16 -41 -17 -82q-32 -42 -79 -42q-48 0 -64 42zM222 704h419l-19 -94h-418z" />
    <glyph glyph-name="UkaliqLetterUghu_UkaliqModifierDot" unicode="&#xee65;&#x331;" 
d="M65 0l35 176q42 211 266 211t181 -211l-35 -176h-129l35 176q29 141 -66 141t-123 -141l-35 -176h-129zM336 -201q-16 41 17 82q32 42 79 42q48 0 64 -42q15 -41 -17 -82q-32 -42 -80 -42q-47 0 -63 42zM222 704h419l-19 -94h-418z" />
    <glyph glyph-name="UkaliqLetterIjji_UkaliqModifierDot" unicode="&#xee66;&#x331;" 
d="M314 -201q-15 41 17 82q32 42 80 42q47 0 63 -42q16 -41 -17 -82q-32 -42 -79 -42q-48 0 -64 42zM626 633h-185q-121 0 -145 -123l-16 -79l-9 -44h306l-14 -70h-306l-11 -53l-52 -264h-129l52 264l34 167l16 79q38 194 288 194h185z" />
    <glyph glyph-name="UkaliqLetterOdho_UkaliqModifierDot" unicode="&#xee67;&#x331;" 
d="M336 -201q-16 41 17 82q32 42 79 42q48 0 64 -42q15 -41 -17 -82q-32 -42 -80 -42q-47 0 -63 42zM626 633h-185q-121 0 -145 -123l-16 -79l-9 -44h95q224 0 181 -211l-35 -176h-129l35 176q29 141 -66 141h-95l-11 -53l-52 -264h-129l52 264l34 167l16 79q38 194 288 194
h185z" />
    <glyph glyph-name="UkaliqLetterOhho_UkaliqModifierDot" unicode="&#xee68;&#x331;" 
d="M218 704q435 0 386 -247q-28 -140 -278 -140h-185l14 70h185q121 0 135 70q35 176 -271 176zM314 -201q-15 41 17 82q32 42 80 42q47 0 63 -42q16 -41 -17 -82q-32 -42 -79 -42q-48 0 -64 42z" />
    <glyph glyph-name="UkaliqLetterAha_UkaliqModifierDot" unicode="&#xee69;&#x331;" 
d="M218 704q435 0 377 -289l-30 -151l-53 -264h-129l53 264l11 53h-306l14 70h305l6 28q44 218 -262 218zM336 -201q-16 41 17 82q32 42 79 42q48 0 64 -42q15 -41 -17 -82q-32 -42 -80 -42q-47 0 -63 42z" />
    <glyph glyph-name="UkaliqLetterAqha_UkaliqModifierDot" unicode="&#xee6a;&#x331;" 
d="M314 -201q-15 41 17 82q32 42 80 42q47 0 63 -42q16 -41 -17 -82q-32 -42 -79 -42q-48 0 -64 42zM296 510q-25 -123 70 -123t109 70q35 176 -113 176q-42 0 -66 -123zM167 510q38 194 209 194q277 0 228 -247q-28 -140 -252 -140t-185 193z" />
    <glyph glyph-name="UkaliqLetterAfa_UkaliqModifierDot" unicode="&#xee6b;&#x331;" 
d="M336 -201q-16 41 17 82q32 42 79 42q48 0 64 -42q15 -41 -17 -82q-32 -42 -80 -42q-47 0 -63 42zM460 387l6 28q44 218 -104 218q-42 0 -66 -123q-25 -123 70 -123h94zM447 317h-95q-224 0 -185 193q38 194 209 194q277 0 219 -289l-30 -151l-53 -264h-129l53 264z" />
    <glyph glyph-name="UkaliqLetterEsre_UkaliqModifierDot" unicode="&#xee6c;&#x331;" 
d="M218 704q435 0 386 -247q-28 -140 -252 -140h-95l-63 -317h-129l77 387h224q95 0 109 70q35 176 -271 176zM314 -201q-15 41 17 82q32 42 80 42q47 0 63 -42q16 -41 -17 -82q-32 -42 -79 -42q-48 0 -64 42z" />
    <glyph glyph-name="UkaliqLetterUkhu_UkaliqModifierDot" unicode="&#xee6d;&#x331;" 
d="M218 704q435 0 377 -289l-30 -151l-53 -264h-129l53 264l11 53h-95q-95 0 -123 -141l-35 -176h-129l35 176q42 211 266 211h94l6 28q44 218 -262 218zM336 -201q-16 41 17 82q32 42 79 42q48 0 64 -42q15 -41 -17 -82q-32 -42 -80 -42q-47 0 -63 42z" />
    <glyph glyph-name="UkaliqLetterIcji_UkaliqModifierDot" unicode="&#xee6e;&#x331;" 
d="M314 -201q-15 41 17 82q32 42 80 42q47 0 63 -42q16 -41 -17 -82q-32 -42 -79 -42q-48 0 -64 42zM257 317l-11 -53l-52 -264h-129l52 264l34 167l16 79q38 194 209 194q277 0 228 -247q-28 -140 -252 -140h-95zM271 387h95q95 0 109 70q35 176 -113 176q-42 0 -66 -123
l-16 -79z" />
    <glyph glyph-name="UkaliqLetterOtho_UkaliqModifierDot" unicode="&#xee6f;&#x331;" 
d="M336 -201q-16 41 17 82q32 42 79 42q48 0 64 -42q15 -41 -17 -82q-32 -42 -80 -42q-47 0 -63 42zM65 0l52 264l34 167l16 79q38 194 209 194q277 0 219 -289l-30 -151l-53 -264h-129l53 264l11 53h-190l-11 -53l-52 -264h-129zM271 387h189l6 28q44 218 -104 218
q-42 0 -66 -123l-16 -79z" />
    <glyph glyph-name="UkaliqIterationMark_UkaliqModifierDot" unicode="&#xee70;&#x331;" 
d="M100 94h419l-19 -94h-418zM161 399h419l-19 -94h-418zM314 -201q-15 41 17 82q32 42 80 42q47 0 63 -42q16 -41 -17 -82q-32 -42 -79 -42q-48 0 -64 42zM222 704h419l-19 -94h-418z" />
    <glyph glyph-name="UkaliqPercent_UkaliqModifierDot" unicode="&#xee71;&#x331;" 
d="M155 387h185q250 0 211 -194q-39 -193 -288 -193h-185l14 70h185q120 0 145 123q25 124 -96 124h-185zM314 -201q-15 41 17 82q32 42 80 42q47 0 63 -42q16 -41 -17 -82q-32 -42 -79 -42q-48 0 -64 42zM222 704h419l-19 -94h-418z" />
    <glyph glyph-name="UkaliqLetterAgqa_UkaliqModifierDot" unicode="&#xee72;&#x331;" 
d="M626 633h-185q-121 0 -145 -123q-25 -123 96 -123h185l-14 -70h-185q-250 0 -211 193q38 194 288 194h185zM100 94h419l-19 -94h-418zM314 -201q-15 41 17 82q32 42 80 42q47 0 63 -42q16 -41 -17 -82q-32 -42 -79 -42q-48 0 -64 42z" />
    <glyph glyph-name="UkaliqLetterAba_UkaliqModifierDot" unicode="&#xee73;&#x331;" 
d="M314 -201q-15 41 17 82q32 42 80 42q47 0 63 -42q16 -41 -17 -82q-32 -42 -79 -42q-48 0 -64 42zM581 633h-163q-98 0 -122 -123q-25 -123 70 -123h224l-39 -194q-39 -193 -279 -193h-175l14 70h175q111 0 136 123l25 124h-95q-224 0 -185 193q38 194 265 194h163z" />
    <glyph glyph-name="UkaliqLetterEdre_UkaliqModifierDot" unicode="&#xee74;&#x331;" 
d="M563 317h-185q-121 0 -146 -124l-24 -123h305l-14 -70h-434l38 193q39 194 289 194h185zM314 -201q-15 41 17 82q32 42 80 42q47 0 63 -42q16 -41 -17 -82q-32 -42 -79 -42q-48 0 -64 42zM222 704h419l-19 -94h-418z" />
    <glyph glyph-name="UkaliqLetterUgu_UkaliqModifierDot" unicode="&#xee75;&#x331;" 
d="M314 -201q-15 41 17 82q32 42 80 42q47 0 63 -42q16 -41 -17 -82q-32 -42 -79 -42q-48 0 -64 42zM222 704h419l-19 -94h-418zM232 193l-24 -123h95q94 0 119 123q25 124 -70 124t-120 -124zM103 193q39 194 263 194t185 -194q-39 -193 -263 -193h-223z" />
    <glyph glyph-name="UkaliqLetterIgji_UkaliqModifierDot" unicode="&#xee76;&#x331;" 
d="M314 -201q-15 41 17 82q32 42 80 42q47 0 63 -42q16 -41 -17 -82q-32 -42 -79 -42q-48 0 -64 42zM626 633h-185q-121 0 -145 -123l-16 -79l-9 -44h306l-14 -70h-306l-9 -44l-40 -203h305l-14 -70h-434l54 273l32 158l16 79q38 194 288 194h185z" />
    <glyph glyph-name="UkaliqLetterOdo_UkaliqModifierDot" unicode="&#xee77;&#x331;" 
d="M314 -201q-15 41 17 82q32 42 80 42q47 0 63 -42q16 -41 -17 -82q-32 -42 -79 -42q-48 0 -64 42zM581 633h-163q-98 0 -122 -123l-16 -79l-9 -44h95q224 0 185 -194q-39 -193 -263 -193h-223l54 273l32 158l16 79q38 194 265 194h163zM257 317l-9 -44l-40 -203h95
q94 0 119 123q25 124 -70 124h-95z" />
    <glyph glyph-name="UkaliqLetterOhhko_UkaliqModifierDot" unicode="&#xee78;&#x331;" 
d="M100 94h419l-19 -94h-418zM218 704q435 0 386 -247q-28 -140 -278 -140h-185l14 70h185q121 0 135 70q35 176 -271 176zM314 -201q-15 41 17 82q32 42 80 42q47 0 63 -42q16 -41 -17 -82q-32 -42 -79 -42q-48 0 -64 42z" />
    <glyph glyph-name="UkaliqLetterAhka_UkaliqModifierDot" unicode="&#xee79;&#x331;" 
d="M218 704q435 0 377 -289l-28 -142l-16 -80q-39 -193 -288 -193h-185l14 70h185q120 0 145 123l16 80l9 44h-306l14 70h305l6 28q44 218 -262 218zM314 -201q-15 41 17 82q32 42 80 42q47 0 63 -42q16 -41 -17 -82q-32 -42 -79 -42q-48 0 -64 42z" />
    <glyph glyph-name="UkaliqLetterAqa_UkaliqModifierDot" unicode="&#xee7a;&#x331;" 
d="M100 94h419l-19 -94h-418zM314 -201q-15 41 17 82q32 42 80 42q47 0 63 -42q16 -41 -17 -82q-32 -42 -79 -42q-48 0 -64 42zM296 510q-25 -123 70 -123t109 70q35 176 -113 176q-42 0 -66 -123zM167 510q38 194 209 194q277 0 228 -247q-28 -140 -252 -140t-185 193z" />
    <glyph glyph-name="UkaliqLetterApa_UkaliqModifierDot" unicode="&#xee7b;&#x331;" 
d="M314 -201q-15 41 17 82q32 42 80 42q47 0 63 -42q16 -41 -17 -82q-32 -42 -79 -42q-48 0 -64 42zM460 387l6 28q44 218 -104 218q-42 0 -66 -123q-25 -123 70 -123h94zM447 317h-95q-224 0 -185 193q38 194 209 194q277 0 219 -289l-28 -142l-16 -80q-39 -193 -279 -193
h-175l14 70h175q111 0 136 123l16 80z" />
    <glyph glyph-name="UkaliqLetterEtre_UkaliqModifierDot" unicode="&#xee7c;&#x331;" 
d="M263 704q390 0 341 -247q-28 -140 -252 -140h-95l-49 -247h286l-14 -70h-415l77 387h224q95 0 109 70q35 176 -226 176zM314 -201q-15 41 17 82q32 42 80 42q47 0 63 -42q16 -41 -17 -82q-32 -42 -79 -42q-48 0 -64 42z" />
    <glyph glyph-name="UkaliqLetterUku_UkaliqModifierDot" unicode="&#xee7d;&#x331;" 
d="M263 704q390 0 332 -289l-28 -142l-16 -80q-39 -193 -263 -193h-223l38 193q39 194 263 194h94l6 28q44 218 -217 218zM314 -201q-15 41 17 82q32 42 80 42q47 0 63 -42q16 -41 -17 -82q-32 -42 -79 -42q-48 0 -64 42zM447 317h-95q-95 0 -120 -124l-24 -123h95
q94 0 119 123l16 80z" />
    <glyph glyph-name="UkaliqLetterIci_UkaliqModifierDot" unicode="&#xee7e;&#x331;" 
d="M314 -201q-15 41 17 82q32 42 80 42q47 0 63 -42q16 -41 -17 -82q-32 -42 -79 -42q-48 0 -64 42zM257 317l-9 -44l-40 -203h286l-14 -70h-415l54 273l32 158l16 79q38 194 209 194q277 0 228 -247q-28 -140 -252 -140h-95zM271 387h95q95 0 109 70q35 176 -113 176
q-42 0 -66 -123l-16 -79z" />
    <glyph glyph-name="UkaliqLetterOto_UkaliqModifierDot" unicode="&#xee7f;&#x331;" 
d="M314 -201q-15 41 17 82q32 42 80 42q47 0 63 -42q16 -41 -17 -82q-32 -42 -79 -42q-48 0 -64 42zM460 387l6 28q44 218 -104 218q-42 0 -66 -123l-16 -79l-9 -44h189zM447 317h-190l-9 -44l-40 -203h95q94 0 119 123l16 80zM167 510q38 194 209 194q277 0 219 -289
l-28 -142l-16 -80q-39 -193 -263 -193h-223l54 273l32 158z" />
    <glyph glyph-name="UkaliqPatternBlank_UkaliqModifierDot" unicode="&#xf1d00;&#x331;" 
d="M314 -201q-15 41 17 82q32 42 80 42q47 0 63 -42q16 -41 -17 -82q-32 -42 -79 -42q-48 0 -64 42z" />
    <glyph glyph-name="UkaliqPatternSegmentsC_UkaliqModifierDot" unicode="&#xf1d01;&#x331;" 
d="M590 387l-78 -387h-129l78 387h129zM336 -201q-16 41 17 82q32 42 79 42q48 0 64 -42q15 -41 -17 -82q-32 -42 -80 -42q-47 0 -63 42z" />
    <glyph glyph-name="UkaliqPatternSegmentsF_UkaliqModifierDot" unicode="&#xf1d02;&#x331;" 
d="M334 704l-77 -387h-129l77 387h129zM314 -201q-15 41 17 82q32 42 80 42q47 0 63 -42q16 -41 -17 -82q-32 -42 -79 -42q-48 0 -64 42z" />
    <glyph glyph-name="UkaliqPatternSegmentsCf_UkaliqModifierDot" unicode="&#xf1d03;&#x331;" 
d="M590 387l-78 -387h-129l78 387h129zM334 704l-77 -387h-129l77 387h129zM336 -201q-16 41 17 82q32 42 79 42q48 0 64 -42q15 -41 -17 -82q-32 -42 -80 -42q-47 0 -63 42z" />
    <glyph glyph-name="UkaliqPatternSegmentsE_UkaliqModifierDot" unicode="&#xf1d04;&#x331;" 
d="M271 387l-77 -387h-129l77 387h129zM314 -201q-15 41 17 82q32 42 80 42q47 0 63 -42q16 -41 -17 -82q-32 -42 -79 -42q-48 0 -64 42z" />
    <glyph glyph-name="UkaliqPatternSegmentsCe_UkaliqModifierDot" unicode="&#xf1d05;&#x331;" 
d="M590 387l-78 -387h-129l78 387h129zM271 387l-77 -387h-129l77 387h129zM336 -201q-16 41 17 82q32 42 79 42q48 0 64 -42q15 -41 -17 -82q-32 -42 -80 -42q-47 0 -63 42z" />
    <glyph glyph-name="UkaliqPatternSegmentsEf_UkaliqModifierDot" unicode="&#xf1d06;&#x331;" 
d="M334 704l-140 -704h-129l140 704h129zM314 -201q-15 41 17 82q32 42 80 42q47 0 63 -42q16 -41 -17 -82q-32 -42 -79 -42q-48 0 -64 42z" />
    <glyph glyph-name="UkaliqPatternSegmentsCef_UkaliqModifierDot" unicode="&#xf1d07;&#x331;" 
d="M334 704l-140 -704h-129l140 704h129zM590 387l-78 -387h-129l78 387h129zM336 -201q-16 41 17 82q32 42 79 42q48 0 64 -42q15 -41 -17 -82q-32 -42 -80 -42q-47 0 -63 42z" />
    <glyph glyph-name="UkaliqPatternSegmentsB_UkaliqModifierDot" unicode="&#xf1d08;&#x331;" 
d="M653 704l-77 -387h-129l77 387h129zM314 -201q-15 41 17 82q32 42 80 42q47 0 63 -42q16 -41 -17 -82q-32 -42 -79 -42q-48 0 -64 42z" />
    <glyph glyph-name="UkaliqPatternSegmentsBc_UkaliqModifierDot" unicode="&#xf1d09;&#x331;" 
d="M653 704l-141 -704h-129l141 704h129zM336 -201q-16 41 17 82q32 42 79 42q48 0 64 -42q15 -41 -17 -82q-32 -42 -80 -42q-47 0 -63 42z" />
    <glyph glyph-name="UkaliqPatternSegmentsBf_UkaliqModifierDot" unicode="&#xf1d0a;&#x331;" 
d="M334 704l-77 -387h-129l77 387h129zM653 704l-77 -387h-129l77 387h129zM314 -201q-15 41 17 82q32 42 80 42q47 0 63 -42q16 -41 -17 -82q-32 -42 -79 -42q-48 0 -64 42z" />
    <glyph glyph-name="UkaliqPatternSegmentsBcf_UkaliqModifierDot" unicode="&#xf1d0b;&#x331;" 
d="M653 704l-141 -704h-129l141 704h129zM334 704l-77 -387h-129l77 387h129zM336 -201q-16 41 17 82q32 42 79 42q48 0 64 -42q15 -41 -17 -82q-32 -42 -80 -42q-47 0 -63 42z" />
    <glyph glyph-name="UkaliqPatternSegmentsBe_UkaliqModifierDot" unicode="&#xf1d0c;&#x331;" 
d="M653 704l-77 -387h-129l77 387h129zM271 387l-77 -387h-129l77 387h129zM314 -201q-15 41 17 82q32 42 80 42q47 0 63 -42q16 -41 -17 -82q-32 -42 -79 -42q-48 0 -64 42z" />
    <glyph glyph-name="UkaliqPatternSegmentsBce_UkaliqModifierDot" unicode="&#xf1d0d;&#x331;" 
d="M653 704l-141 -704h-129l141 704h129zM271 387l-77 -387h-129l77 387h129zM336 -201q-16 41 17 82q32 42 79 42q48 0 64 -42q15 -41 -17 -82q-32 -42 -80 -42q-47 0 -63 42z" />
    <glyph glyph-name="UkaliqPatternSegmentsBef_UkaliqModifierDot" unicode="&#xf1d0e;&#x331;" 
d="M334 704l-140 -704h-129l140 704h129zM653 704l-77 -387h-129l77 387h129zM314 -201q-15 41 17 82q32 42 80 42q47 0 63 -42q16 -41 -17 -82q-32 -42 -79 -42q-48 0 -64 42z" />
    <glyph glyph-name="UkaliqPatternSegmentsBcef_UkaliqModifierDot" unicode="&#xf1d0f;&#x331;" 
d="M653 704l-141 -704h-129l141 704h129zM334 704l-140 -704h-129l140 704h129zM336 -201q-16 41 17 82q32 42 79 42q48 0 64 -42q15 -41 -17 -82q-32 -42 -80 -42q-47 0 -63 42z" />
    <glyph glyph-name="UkaliqPatternSegmentsD_UkaliqModifierDot" unicode="&#xf1d10;&#x331;" 
d="M100 94h419l-19 -94h-418zM314 -201q-15 41 17 82q32 42 80 42q47 0 63 -42q16 -41 -17 -82q-32 -42 -79 -42q-48 0 -64 42z" />
    <glyph glyph-name="UkaliqPatternSegmentsCd_UkaliqModifierDot" unicode="&#xf1d11;&#x331;" 
d="M314 -201q-15 41 17 82q32 42 80 42q47 0 63 -42q16 -41 -17 -82q-32 -42 -79 -42q-48 0 -64 42zM590 387l-36 -176q-42 -211 -291 -211h-185l14 70h185q120 0 148 141l36 176h129z" />
    <glyph glyph-name="UkaliqPatternSegmentsDf_UkaliqModifierDot" unicode="&#xf1d12;&#x331;" 
d="M100 94h419l-19 -94h-418zM334 704l-77 -387h-129l77 387h129zM314 -201q-15 41 17 82q32 42 80 42q47 0 63 -42q16 -41 -17 -82q-32 -42 -79 -42q-48 0 -64 42z" />
    <glyph glyph-name="UkaliqPatternSegmentsCdf_UkaliqModifierDot" unicode="&#xf1d13;&#x331;" 
d="M334 704l-77 -387h-129l77 387h129zM314 -201q-15 41 17 82q32 42 80 42q47 0 63 -42q16 -41 -17 -82q-32 -42 -79 -42q-48 0 -64 42zM590 387l-36 -176q-42 -211 -291 -211h-185l14 70h185q120 0 148 141l36 176h129z" />
    <glyph glyph-name="UkaliqPatternSegmentsDe_UkaliqModifierDot" unicode="&#xf1d14;&#x331;" 
d="M271 387l-63 -317h305l-14 -70h-434l77 387h129zM314 -201q-15 41 17 82q32 42 80 42q47 0 63 -42q16 -41 -17 -82q-32 -42 -79 -42q-48 0 -64 42z" />
    <glyph glyph-name="UkaliqPatternSegmentsCde_UkaliqModifierDot" unicode="&#xf1d15;&#x331;" 
d="M271 387l-63 -317h95q94 0 122 141l36 176h129l-36 -176q-42 -211 -266 -211h-223l77 387h129zM314 -201q-15 41 17 82q32 42 80 42q47 0 63 -42q16 -41 -17 -82q-32 -42 -79 -42q-48 0 -64 42z" />
    <glyph glyph-name="UkaliqPatternSegmentsDef_UkaliqModifierDot" unicode="&#xf1d16;&#x331;" 
d="M334 704l-126 -634h305l-14 -70h-434l140 704h129zM314 -201q-15 41 17 82q32 42 80 42q47 0 63 -42q16 -41 -17 -82q-32 -42 -79 -42q-48 0 -64 42z" />
    <glyph glyph-name="UkaliqPatternSegmentsCdef_UkaliqModifierDot" unicode="&#xf1d17;&#x331;" 
d="M334 704l-126 -634h95q94 0 122 141l36 176h129l-36 -176q-42 -211 -266 -211h-223l140 704h129zM314 -201q-15 41 17 82q32 42 80 42q47 0 63 -42q16 -41 -17 -82q-32 -42 -79 -42q-48 0 -64 42z" />
    <glyph glyph-name="UkaliqPatternSegmentsBd_UkaliqModifierDot" unicode="&#xf1d18;&#x331;" 
d="M100 94h419l-19 -94h-418zM653 704l-77 -387h-129l77 387h129zM314 -201q-15 41 17 82q32 42 80 42q47 0 63 -42q16 -41 -17 -82q-32 -42 -79 -42q-48 0 -64 42z" />
    <glyph glyph-name="UkaliqPatternSegmentsBcd_UkaliqModifierDot" unicode="&#xf1d19;&#x331;" 
d="M653 704l-67 -335q-74 -369 -323 -369h-185l14 70h185q120 0 180 299l67 335h129zM314 -201q-15 41 17 82q32 42 80 42q47 0 63 -42q16 -41 -17 -82q-32 -42 -79 -42q-48 0 -64 42z" />
    <glyph glyph-name="UkaliqPatternSegmentsBdf_UkaliqModifierDot" unicode="&#xf1d1a;&#x331;" 
d="M100 94h419l-19 -94h-418zM334 704l-77 -387h-129l77 387h129zM653 704l-77 -387h-129l77 387h129zM314 -201q-15 41 17 82q32 42 80 42q47 0 63 -42q16 -41 -17 -82q-32 -42 -79 -42q-48 0 -64 42z" />
    <glyph glyph-name="UkaliqPatternSegmentsBcdf_UkaliqModifierDot" unicode="&#xf1d1b;&#x331;" 
d="M334 704l-77 -387h-129l77 387h129zM653 704l-67 -335q-74 -369 -323 -369h-185l14 70h185q120 0 180 299l67 335h129zM314 -201q-15 41 17 82q32 42 80 42q47 0 63 -42q16 -41 -17 -82q-32 -42 -79 -42q-48 0 -64 42z" />
    <glyph glyph-name="UkaliqPatternSegmentsBde_UkaliqModifierDot" unicode="&#xf1d1c;&#x331;" 
d="M271 387l-63 -317h305l-14 -70h-434l77 387h129zM653 704l-77 -387h-129l77 387h129zM314 -201q-15 41 17 82q32 42 80 42q47 0 63 -42q16 -41 -17 -82q-32 -42 -79 -42q-48 0 -64 42z" />
    <glyph glyph-name="UkaliqPatternSegmentsBcde_UkaliqModifierDot" unicode="&#xf1d1d;&#x331;" 
d="M653 704l-67 -335q-74 -369 -298 -369h-223l77 387h129l-63 -317h95q94 0 154 299l67 335h129zM314 -201q-15 41 17 82q32 42 80 42q47 0 63 -42q16 -41 -17 -82q-32 -42 -79 -42q-48 0 -64 42z" />
    <glyph glyph-name="UkaliqPatternSegmentsBdef_UkaliqModifierDot" unicode="&#xf1d1e;&#x331;" 
d="M334 704l-126 -634h305l-14 -70h-434l140 704h129zM653 704l-77 -387h-129l77 387h129zM314 -201q-15 41 17 82q32 42 80 42q47 0 63 -42q16 -41 -17 -82q-32 -42 -79 -42q-48 0 -64 42z" />
    <glyph glyph-name="UkaliqPatternSegmentsBcdef_UkaliqModifierDot" unicode="&#xf1d1f;&#x331;" 
d="M334 704l-126 -634h95q94 0 154 299l67 335h129l-67 -335q-74 -369 -298 -369h-223l140 704h129zM314 -201q-15 41 17 82q32 42 80 42q47 0 63 -42q16 -41 -17 -82q-32 -42 -79 -42q-48 0 -64 42z" />
    <glyph glyph-name="UkaliqPatternSegmentsA_UkaliqModifierDot" unicode="&#xf1d20;&#x331;" 
d="M314 -201q-15 41 17 82q32 42 80 42q47 0 63 -42q16 -41 -17 -82q-32 -42 -79 -42q-48 0 -64 42zM222 704h419l-19 -94h-418z" />
    <glyph glyph-name="UkaliqPatternSegmentsAc_UkaliqModifierDot" unicode="&#xf1d21;&#x331;" 
d="M590 387l-78 -387h-129l78 387h129zM336 -201q-16 41 17 82q32 42 79 42q48 0 64 -42q15 -41 -17 -82q-32 -42 -80 -42q-47 0 -63 42zM222 704h419l-19 -94h-418z" />
    <glyph glyph-name="UkaliqPatternSegmentsAf_UkaliqModifierDot" unicode="&#xf1d22;&#x331;" 
d="M626 633h-185q-121 0 -149 -141l-35 -175h-129l35 175q42 212 292 212h185zM314 -201q-15 41 17 82q32 42 80 42q47 0 63 -42q16 -41 -17 -82q-32 -42 -79 -42q-48 0 -64 42z" />
    <glyph glyph-name="UkaliqPatternSegmentsAcf_UkaliqModifierDot" unicode="&#xf1d23;&#x331;" 
d="M590 387l-78 -387h-129l78 387h129zM626 633h-185q-121 0 -149 -141l-35 -175h-129l35 175q42 212 292 212h185zM336 -201q-16 41 17 82q32 42 79 42q48 0 64 -42q15 -41 -17 -82q-32 -42 -80 -42q-47 0 -63 42z" />
    <glyph glyph-name="UkaliqPatternSegmentsAe_UkaliqModifierDot" unicode="&#xf1d24;&#x331;" 
d="M271 387l-77 -387h-129l77 387h129zM314 -201q-15 41 17 82q32 42 80 42q47 0 63 -42q16 -41 -17 -82q-32 -42 -79 -42q-48 0 -64 42zM222 704h419l-19 -94h-418z" />
    <glyph glyph-name="UkaliqPatternSegmentsAce_UkaliqModifierDot" unicode="&#xf1d25;&#x331;" 
d="M590 387l-78 -387h-129l78 387h129zM271 387l-77 -387h-129l77 387h129zM336 -201q-16 41 17 82q32 42 79 42q48 0 64 -42q15 -41 -17 -82q-32 -42 -80 -42q-47 0 -63 42zM222 704h419l-19 -94h-418z" />
    <glyph glyph-name="UkaliqPatternSegmentsAef_UkaliqModifierDot" unicode="&#xf1d26;&#x331;" 
d="M626 633h-185q-121 0 -181 -299l-66 -334h-129l67 334q73 370 323 370h185zM314 -201q-15 41 17 82q32 42 80 42q47 0 63 -42q16 -41 -17 -82q-32 -42 -79 -42q-48 0 -64 42z" />
    <glyph glyph-name="UkaliqPatternSegmentsAcef_UkaliqModifierDot" unicode="&#xf1d27;&#x331;" 
d="M626 633h-185q-121 0 -181 -299l-66 -334h-129l67 334q73 370 323 370h185zM590 387l-78 -387h-129l78 387h129zM336 -201q-16 41 17 82q32 42 79 42q48 0 64 -42q15 -41 -17 -82q-32 -42 -80 -42q-47 0 -63 42z" />
    <glyph glyph-name="UkaliqPatternSegmentsAb_UkaliqModifierDot" unicode="&#xf1d28;&#x331;" 
d="M218 704q435 0 358 -387h-129q63 316 -243 316zM314 -201q-15 41 17 82q32 42 80 42q47 0 63 -42q16 -41 -17 -82q-32 -42 -79 -42q-48 0 -64 42z" />
    <glyph glyph-name="UkaliqPatternSegmentsAbc_UkaliqModifierDot" unicode="&#xf1d29;&#x331;" 
d="M218 704q435 0 294 -704h-129q127 633 -179 633zM336 -201q-16 41 17 82q32 42 79 42q48 0 64 -42q15 -41 -17 -82q-32 -42 -80 -42q-47 0 -63 42z" />
    <glyph glyph-name="UkaliqPatternSegmentsAbf_UkaliqModifierDot" unicode="&#xf1d2a;&#x331;" 
d="M128 317l35 175q42 212 213 212q277 0 200 -387h-129q63 316 -85 316q-42 0 -70 -141l-35 -175h-129zM314 -201q-15 41 17 82q32 42 80 42q47 0 63 -42q16 -41 -17 -82q-32 -42 -79 -42q-48 0 -64 42z" />
    <glyph glyph-name="UkaliqPatternSegmentsAbcf_UkaliqModifierDot" unicode="&#xf1d2b;&#x331;" 
d="M128 317l35 175q42 212 213 212q277 0 136 -704h-129q127 633 -21 633q-42 0 -70 -141l-35 -175h-129zM336 -201q-16 41 17 82q32 42 79 42q48 0 64 -42q15 -41 -17 -82q-32 -42 -80 -42q-47 0 -63 42z" />
    <glyph glyph-name="UkaliqPatternSegmentsAbe_UkaliqModifierDot" unicode="&#xf1d2c;&#x331;" 
d="M218 704q435 0 358 -387h-129q63 316 -243 316zM271 387l-77 -387h-129l77 387h129zM314 -201q-15 41 17 82q32 42 80 42q47 0 63 -42q16 -41 -17 -82q-32 -42 -79 -42q-48 0 -64 42z" />
    <glyph glyph-name="UkaliqPatternSegmentsAbce_UkaliqModifierDot" unicode="&#xf1d2d;&#x331;" 
d="M218 704q435 0 294 -704h-129q127 633 -179 633zM271 387l-77 -387h-129l77 387h129zM336 -201q-16 41 17 82q32 42 79 42q48 0 64 -42q15 -41 -17 -82q-32 -42 -80 -42q-47 0 -63 42z" />
    <glyph glyph-name="UkaliqPatternSegmentsAbef_UkaliqModifierDot" unicode="&#xf1d2e;&#x331;" 
d="M447 317q63 316 -85 316q-42 0 -102 -299l-66 -334h-129l67 334q73 370 244 370q277 0 200 -387h-129zM314 -201q-15 41 17 82q32 42 80 42q47 0 63 -42q16 -41 -17 -82q-32 -42 -79 -42q-48 0 -64 42z" />
    <glyph glyph-name="UkaliqPatternSegmentsAbcef_UkaliqModifierDot" unicode="&#xf1d2f;&#x331;" 
d="M65 0l67 334q73 370 244 370q277 0 136 -704h-129q127 633 -21 633q-42 0 -102 -299l-66 -334h-129zM336 -201q-16 41 17 82q32 42 79 42q48 0 64 -42q15 -41 -17 -82q-32 -42 -80 -42q-47 0 -63 42z" />
    <glyph glyph-name="UkaliqPatternSegmentsAd_UkaliqModifierDot" unicode="&#xf1d30;&#x331;" 
d="M100 94h419l-19 -94h-418zM314 -201q-15 41 17 82q32 42 80 42q47 0 63 -42q16 -41 -17 -82q-32 -42 -79 -42q-48 0 -64 42zM222 704h419l-19 -94h-418z" />
    <glyph glyph-name="UkaliqPatternSegmentsAcd_UkaliqModifierDot" unicode="&#xf1d31;&#x331;" 
d="M314 -201q-15 41 17 82q32 42 80 42q47 0 63 -42q16 -41 -17 -82q-32 -42 -79 -42q-48 0 -64 42zM590 387l-36 -176q-42 -211 -291 -211h-185l14 70h185q120 0 148 141l36 176h129zM222 704h419l-19 -94h-418z" />
    <glyph glyph-name="UkaliqPatternSegmentsAdf_UkaliqModifierDot" unicode="&#xf1d32;&#x331;" 
d="M100 94h419l-19 -94h-418zM626 633h-185q-121 0 -149 -141l-35 -175h-129l35 175q42 212 292 212h185zM314 -201q-15 41 17 82q32 42 80 42q47 0 63 -42q16 -41 -17 -82q-32 -42 -79 -42q-48 0 -64 42z" />
    <glyph glyph-name="UkaliqPatternSegmentsAcdf_UkaliqModifierDot" unicode="&#xf1d33;&#x331;" 
d="M626 633h-185q-121 0 -149 -141l-35 -175h-129l35 175q42 212 292 212h185zM314 -201q-15 41 17 82q32 42 80 42q47 0 63 -42q16 -41 -17 -82q-32 -42 -79 -42q-48 0 -64 42zM590 387l-36 -176q-42 -211 -291 -211h-185l14 70h185q120 0 148 141l36 176h129z" />
    <glyph glyph-name="UkaliqPatternSegmentsAde_UkaliqModifierDot" unicode="&#xf1d34;&#x331;" 
d="M271 387l-63 -317h305l-14 -70h-434l77 387h129zM314 -201q-15 41 17 82q32 42 80 42q47 0 63 -42q16 -41 -17 -82q-32 -42 -79 -42q-48 0 -64 42zM222 704h419l-19 -94h-418z" />
    <glyph glyph-name="UkaliqPatternSegmentsAcde_UkaliqModifierDot" unicode="&#xf1d35;&#x331;" 
d="M271 387l-63 -317h95q94 0 122 141l36 176h129l-36 -176q-42 -211 -266 -211h-223l77 387h129zM314 -201q-15 41 17 82q32 42 80 42q47 0 63 -42q16 -41 -17 -82q-32 -42 -79 -42q-48 0 -64 42zM222 704h419l-19 -94h-418z" />
    <glyph glyph-name="UkaliqPatternSegmentsAdef_UkaliqModifierDot" unicode="&#xf1d36;&#x331;" 
d="M626 633h-185q-121 0 -177 -281l-56 -282h305l-14 -70h-434l70 352q70 352 320 352h185zM314 -201q-15 41 17 82q32 42 80 42q47 0 63 -42q16 -41 -17 -82q-32 -42 -79 -42q-48 0 -64 42z" />
    <glyph glyph-name="UkaliqPatternSegmentsAcdef_UkaliqModifierDot" unicode="&#xf1d37;&#x331;" 
d="M626 633h-185q-121 0 -177 -281l-56 -282h95q94 0 122 141l36 176h129l-36 -176q-42 -211 -266 -211h-223l70 352q70 352 320 352h185zM314 -201q-15 41 17 82q32 42 80 42q47 0 63 -42q16 -41 -17 -82q-32 -42 -79 -42q-48 0 -64 42z" />
    <glyph glyph-name="UkaliqPatternSegmentsAbd_UkaliqModifierDot" unicode="&#xf1d38;&#x331;" 
d="M100 94h419l-19 -94h-418zM218 704q435 0 358 -387h-129q63 316 -243 316zM314 -201q-15 41 17 82q32 42 80 42q47 0 63 -42q16 -41 -17 -82q-32 -42 -79 -42q-48 0 -64 42z" />
    <glyph glyph-name="UkaliqPatternSegmentsAbcd_UkaliqModifierDot" unicode="&#xf1d39;&#x331;" 
d="M218 704q435 0 343 -458q-49 -246 -298 -246h-185l14 70h185q120 0 155 176q78 387 -228 387zM314 -201q-15 41 17 82q32 42 80 42q47 0 63 -42q16 -41 -17 -82q-32 -42 -79 -42q-48 0 -64 42z" />
    <glyph glyph-name="UkaliqPatternSegmentsAbdf_UkaliqModifierDot" unicode="&#xf1d3a;&#x331;" 
d="M100 94h419l-19 -94h-418zM128 317l35 175q42 212 213 212q277 0 200 -387h-129q63 316 -85 316q-42 0 -70 -141l-35 -175h-129zM314 -201q-15 41 17 82q32 42 80 42q47 0 63 -42q16 -41 -17 -82q-32 -42 -79 -42q-48 0 -64 42z" />
    <glyph glyph-name="UkaliqPatternSegmentsAbcdf_UkaliqModifierDot" unicode="&#xf1d3b;&#x331;" 
d="M128 317l35 175q42 212 213 212q277 0 185 -458q-49 -246 -298 -246h-185l14 70h185q120 0 155 176q78 387 -70 387q-42 0 -70 -141l-35 -175h-129zM314 -201q-15 41 17 82q32 42 80 42q47 0 63 -42q16 -41 -17 -82q-32 -42 -79 -42q-48 0 -64 42z" />
    <glyph glyph-name="UkaliqPatternSegmentsAbde_UkaliqModifierDot" unicode="&#xf1d3c;&#x331;" 
d="M218 704q435 0 358 -387h-129q63 316 -243 316zM271 387l-63 -317h305l-14 -70h-434l77 387h129zM314 -201q-15 41 17 82q32 42 80 42q47 0 63 -42q16 -41 -17 -82q-32 -42 -79 -42q-48 0 -64 42z" />
    <glyph glyph-name="UkaliqPatternSegmentsAbcde_UkaliqModifierDot" unicode="&#xf1d3d;&#x331;" 
d="M218 704q435 0 343 -458q-49 -246 -273 -246h-223l77 387h129l-63 -317h95q94 0 129 176q78 387 -228 387zM314 -201q-15 41 17 82q32 42 80 42q47 0 63 -42q16 -41 -17 -82q-32 -42 -79 -42q-48 0 -64 42z" />
    <glyph glyph-name="UkaliqPatternSegmentsAbdef_UkaliqModifierDot" unicode="&#xf1d3e;&#x331;" 
d="M447 317q63 316 -85 316q-42 0 -98 -281l-56 -282h305l-14 -70h-434l70 352q70 352 241 352q277 0 200 -387h-129zM314 -201q-15 41 17 82q32 42 80 42q47 0 63 -42q16 -41 -17 -82q-32 -42 -79 -42q-48 0 -64 42z" />
    <glyph glyph-name="UkaliqPatternSegmentsAbcdef_UkaliqModifierDot" unicode="&#xf1d3f;&#x331;" 
d="M314 -201q-15 41 17 82q32 42 80 42q47 0 63 -42q16 -41 -17 -82q-32 -42 -79 -42q-48 0 -64 42zM264 352l-56 -282h95q94 0 129 176q78 387 -70 387q-42 0 -98 -281zM135 352q70 352 241 352q277 0 185 -458q-49 -246 -273 -246h-223z" />
    <glyph glyph-name="UkaliqPatternSegmentsG_UkaliqModifierDot" unicode="&#xf1d40;&#x331;" 
d="M161 399h419l-19 -94h-418zM314 -201q-15 41 17 82q32 42 80 42q47 0 63 -42q16 -41 -17 -82q-32 -42 -79 -42q-48 0 -64 42z" />
    <glyph glyph-name="UkaliqPatternSegmentsCg_UkaliqModifierDot" unicode="&#xf1d41;&#x331;" 
d="M155 387h185q250 0 207 -211l-35 -176h-129l35 176q29 141 -92 141h-185zM336 -201q-16 41 17 82q32 42 79 42q48 0 64 -42q15 -41 -17 -82q-32 -42 -80 -42q-47 0 -63 42z" />
    <glyph glyph-name="UkaliqPatternSegmentsFg_UkaliqModifierDot" unicode="&#xf1d42;&#x331;" 
d="M334 704l-35 -176q-28 -141 93 -141h185l-14 -70h-185q-250 0 -208 211l35 176h129zM314 -201q-15 41 17 82q32 42 80 42q47 0 63 -42q16 -41 -17 -82q-32 -42 -79 -42q-48 0 -64 42z" />
    <glyph glyph-name="UkaliqPatternSegmentsCfg_UkaliqModifierDot" unicode="&#xf1d43;&#x331;" 
d="M336 -201q-16 41 17 82q32 42 79 42q48 0 64 -42q15 -41 -17 -82q-32 -42 -80 -42q-47 0 -63 42zM334 704l-35 -176q-28 -141 67 -141h224l-78 -387h-129l64 317h-95q-224 0 -182 211l35 176h129z" />
    <glyph glyph-name="UkaliqPatternSegmentsEg_UkaliqModifierDot" unicode="&#xf1d44;&#x331;" 
d="M563 317h-185q-121 0 -149 -141l-35 -176h-129l35 176q42 211 292 211h185zM314 -201q-15 41 17 82q32 42 80 42q47 0 63 -42q16 -41 -17 -82q-32 -42 -79 -42q-48 0 -64 42z" />
    <glyph glyph-name="UkaliqPatternSegmentsCeg_UkaliqModifierDot" unicode="&#xf1d45;&#x331;" 
d="M65 0l35 176q42 211 266 211t181 -211l-35 -176h-129l35 176q29 141 -66 141t-123 -141l-35 -176h-129zM336 -201q-16 41 17 82q32 42 79 42q48 0 64 -42q15 -41 -17 -82q-32 -42 -80 -42q-47 0 -63 42z" />
    <glyph glyph-name="UkaliqPatternSegmentsEfg_UkaliqModifierDot" unicode="&#xf1d46;&#x331;" 
d="M314 -201q-15 41 17 82q32 42 80 42q47 0 63 -42q16 -41 -17 -82q-32 -42 -79 -42q-48 0 -64 42zM334 704l-52 -264l-11 -53h306l-14 -70h-306l-11 -53l-52 -264h-129l52 264l36 176l52 264h129z" />
    <glyph glyph-name="UkaliqPatternSegmentsCefg_UkaliqModifierDot" unicode="&#xf1d47;&#x331;" 
d="M336 -201q-16 41 17 82q32 42 79 42q48 0 64 -42q15 -41 -17 -82q-32 -42 -80 -42q-47 0 -63 42zM334 704l-52 -264l-11 -53h95q224 0 181 -211l-35 -176h-129l35 176q29 141 -66 141h-95l-11 -53l-52 -264h-129l52 264l36 176l52 264h129z" />
    <glyph glyph-name="UkaliqPatternSegmentsBg_UkaliqModifierDot" unicode="&#xf1d48;&#x331;" 
d="M653 704l-35 -176q-42 -211 -292 -211h-185l14 70h185q121 0 149 141l35 176h129zM314 -201q-15 41 17 82q32 42 80 42q47 0 63 -42q16 -41 -17 -82q-32 -42 -79 -42q-48 0 -64 42z" />
    <glyph glyph-name="UkaliqPatternSegmentsBcg_UkaliqModifierDot" unicode="&#xf1d49;&#x331;" 
d="M653 704l-53 -264l-35 -176l-53 -264h-129l53 264l11 53h-306l14 70h305l11 53l53 264h129zM336 -201q-16 41 17 82q32 42 79 42q48 0 64 -42q15 -41 -17 -82q-32 -42 -80 -42q-47 0 -63 42z" />
    <glyph glyph-name="UkaliqPatternSegmentsBfg_UkaliqModifierDot" unicode="&#xf1d4a;&#x331;" 
d="M334 704l-35 -176q-28 -141 67 -141t123 141l35 176h129l-35 -176q-42 -211 -266 -211t-182 211l35 176h129zM314 -201q-15 41 17 82q32 42 80 42q47 0 63 -42q16 -41 -17 -82q-32 -42 -79 -42q-48 0 -64 42z" />
    <glyph glyph-name="UkaliqPatternSegmentsBcfg_UkaliqModifierDot" unicode="&#xf1d4b;&#x331;" 
d="M336 -201q-16 41 17 82q32 42 79 42q48 0 64 -42q15 -41 -17 -82q-32 -42 -80 -42q-47 0 -63 42zM334 704l-35 -176q-28 -141 67 -141h94l11 53l53 264h129l-53 -264l-35 -176l-53 -264h-129l53 264l11 53h-95q-224 0 -182 211l35 176h129z" />
    <glyph glyph-name="UkaliqPatternSegmentsBeg_UkaliqModifierDot" unicode="&#xf1d4c;&#x331;" 
d="M653 704l-35 -176q-42 -211 -266 -211h-95l-63 -317h-129l77 387h224q95 0 123 141l35 176h129zM314 -201q-15 41 17 82q32 42 80 42q47 0 63 -42q16 -41 -17 -82q-32 -42 -79 -42q-48 0 -64 42z" />
    <glyph glyph-name="UkaliqPatternSegmentsBceg_UkaliqModifierDot" unicode="&#xf1d4d;&#x331;" 
d="M653 704l-53 -264l-35 -176l-53 -264h-129l53 264l11 53h-95q-95 0 -123 -141l-35 -176h-129l35 176q42 211 266 211h94l11 53l53 264h129zM336 -201q-16 41 17 82q32 42 79 42q48 0 64 -42q15 -41 -17 -82q-32 -42 -80 -42q-47 0 -63 42z" />
    <glyph glyph-name="UkaliqPatternSegmentsBefg_UkaliqModifierDot" unicode="&#xf1d4e;&#x331;" 
d="M314 -201q-15 41 17 82q32 42 80 42q47 0 63 -42q16 -41 -17 -82q-32 -42 -79 -42q-48 0 -64 42zM653 704l-35 -176q-42 -211 -266 -211h-95l-11 -53l-52 -264h-129l52 264l36 176l52 264h129l-52 -264l-11 -53h95q95 0 123 141l35 176h129z" />
    <glyph glyph-name="UkaliqPatternSegmentsBcefg_UkaliqModifierDot" unicode="&#xf1d4f;&#x331;" 
d="M336 -201q-16 41 17 82q32 42 79 42q48 0 64 -42q15 -41 -17 -82q-32 -42 -80 -42q-47 0 -63 42zM653 704l-53 -264l-35 -176l-53 -264h-129l53 264l11 53h-190l-11 -53l-52 -264h-129l52 264l36 176l52 264h129l-52 -264l-11 -53h189l11 53l53 264h129z" />
    <glyph glyph-name="UkaliqPatternSegmentsDg_UkaliqModifierDot" unicode="&#xf1d50;&#x331;" 
d="M100 94h419l-19 -94h-418zM161 399h419l-19 -94h-418zM314 -201q-15 41 17 82q32 42 80 42q47 0 63 -42q16 -41 -17 -82q-32 -42 -79 -42q-48 0 -64 42z" />
    <glyph glyph-name="UkaliqPatternSegmentsCdg_UkaliqModifierDot" unicode="&#xf1d51;&#x331;" 
d="M155 387h185q250 0 211 -194q-39 -193 -288 -193h-185l14 70h185q120 0 145 123q25 124 -96 124h-185zM314 -201q-15 41 17 82q32 42 80 42q47 0 63 -42q16 -41 -17 -82q-32 -42 -79 -42q-48 0 -64 42z" />
    <glyph glyph-name="UkaliqPatternSegmentsDfg_UkaliqModifierDot" unicode="&#xf1d52;&#x331;" 
d="M334 704l-35 -176q-28 -141 93 -141h185l-14 -70h-185q-250 0 -208 211l35 176h129zM100 94h419l-19 -94h-418zM314 -201q-15 41 17 82q32 42 80 42q47 0 63 -42q16 -41 -17 -82q-32 -42 -79 -42q-48 0 -64 42z" />
    <glyph glyph-name="UkaliqPatternSegmentsCdfg_UkaliqModifierDot" unicode="&#xf1d53;&#x331;" 
d="M314 -201q-15 41 17 82q32 42 80 42q47 0 63 -42q16 -41 -17 -82q-32 -42 -79 -42q-48 0 -64 42zM334 704l-35 -176q-28 -141 67 -141h224l-39 -194q-39 -193 -288 -193h-185l14 70h185q120 0 145 123l25 124h-95q-224 0 -182 211l35 176h129z" />
    <glyph glyph-name="UkaliqPatternSegmentsDeg_UkaliqModifierDot" unicode="&#xf1d54;&#x331;" 
d="M563 317h-185q-121 0 -146 -124l-24 -123h305l-14 -70h-434l38 193q39 194 289 194h185zM314 -201q-15 41 17 82q32 42 80 42q47 0 63 -42q16 -41 -17 -82q-32 -42 -79 -42q-48 0 -64 42z" />
    <glyph glyph-name="UkaliqPatternSegmentsCdeg_UkaliqModifierDot" unicode="&#xf1d55;&#x331;" 
d="M314 -201q-15 41 17 82q32 42 80 42q47 0 63 -42q16 -41 -17 -82q-32 -42 -79 -42q-48 0 -64 42zM232 193l-24 -123h95q94 0 119 123q25 124 -70 124t-120 -124zM103 193q39 194 263 194t185 -194q-39 -193 -263 -193h-223z" />
    <glyph glyph-name="UkaliqPatternSegmentsDefg_UkaliqModifierDot" unicode="&#xf1d56;&#x331;" 
d="M314 -201q-15 41 17 82q32 42 80 42q47 0 63 -42q16 -41 -17 -82q-32 -42 -79 -42q-48 0 -64 42zM334 704l-52 -264l-11 -53h306l-14 -70h-306l-9 -44l-40 -203h305l-14 -70h-434l54 273l34 167l52 264h129z" />
    <glyph glyph-name="UkaliqPatternSegmentsCdefg_UkaliqModifierDot" unicode="&#xf1d57;&#x331;" 
d="M314 -201q-15 41 17 82q32 42 80 42q47 0 63 -42q16 -41 -17 -82q-32 -42 -79 -42q-48 0 -64 42zM334 704l-52 -264l-11 -53h95q224 0 185 -194q-39 -193 -263 -193h-223l54 273l34 167l52 264h129zM257 317l-9 -44l-40 -203h95q94 0 119 123q25 124 -70 124h-95z" />
    <glyph glyph-name="UkaliqPatternSegmentsBdg_UkaliqModifierDot" unicode="&#xf1d58;&#x331;" 
d="M100 94h419l-19 -94h-418zM653 704l-35 -176q-42 -211 -292 -211h-185l14 70h185q121 0 149 141l35 176h129zM314 -201q-15 41 17 82q32 42 80 42q47 0 63 -42q16 -41 -17 -82q-32 -42 -79 -42q-48 0 -64 42z" />
    <glyph glyph-name="UkaliqPatternSegmentsBcdg_UkaliqModifierDot" unicode="&#xf1d59;&#x331;" 
d="M653 704l-53 -264l-33 -167l-16 -80q-39 -193 -288 -193h-185l14 70h185q120 0 145 123l16 80l9 44h-306l14 70h306l10 53l53 264h129zM314 -201q-15 41 17 82q32 42 80 42q47 0 63 -42q16 -41 -17 -82q-32 -42 -79 -42q-48 0 -64 42z" />
    <glyph glyph-name="UkaliqPatternSegmentsBdfg_UkaliqModifierDot" unicode="&#xf1d5a;&#x331;" 
d="M334 704l-35 -176q-28 -141 67 -141t123 141l35 176h129l-35 -176q-42 -211 -266 -211t-182 211l35 176h129zM100 94h419l-19 -94h-418zM314 -201q-15 41 17 82q32 42 80 42q47 0 63 -42q16 -41 -17 -82q-32 -42 -79 -42q-48 0 -64 42z" />
    <glyph glyph-name="UkaliqPatternSegmentsBcdfg_UkaliqModifierDot" unicode="&#xf1d5b;&#x331;" 
d="M314 -201q-15 41 17 82q32 42 80 42q47 0 63 -42q16 -41 -17 -82q-32 -42 -79 -42q-48 0 -64 42zM334 704l-35 -176q-28 -141 67 -141h95l10 53l53 264h129l-53 -264l-33 -167l-16 -80q-39 -193 -288 -193h-185l14 70h185q120 0 145 123l16 80l9 44h-95q-224 0 -182 211
l35 176h129z" />
    <glyph glyph-name="UkaliqPatternSegmentsBdeg_UkaliqModifierDot" unicode="&#xf1d5c;&#x331;" 
d="M653 704l-35 -176q-42 -211 -266 -211h-95l-49 -247h305l-14 -70h-434l77 387h224q95 0 123 141l35 176h129zM314 -201q-15 41 17 82q32 42 80 42q47 0 63 -42q16 -41 -17 -82q-32 -42 -79 -42q-48 0 -64 42z" />
    <glyph glyph-name="UkaliqPatternSegmentsBcdeg_UkaliqModifierDot" unicode="&#xf1d5d;&#x331;" 
d="M653 704l-53 -264l-33 -167l-16 -80q-39 -193 -263 -193h-223l38 193q39 194 263 194h95l10 53l53 264h129zM314 -201q-15 41 17 82q32 42 80 42q47 0 63 -42q16 -41 -17 -82q-32 -42 -79 -42q-48 0 -64 42zM447 317h-95q-95 0 -120 -124l-24 -123h95q94 0 119 123l16 80
z" />
    <glyph glyph-name="UkaliqPatternSegmentsBdefg_UkaliqModifierDot" unicode="&#xf1d5e;&#x331;" 
d="M314 -201q-15 41 17 82q32 42 80 42q47 0 63 -42q16 -41 -17 -82q-32 -42 -79 -42q-48 0 -64 42zM653 704l-35 -176q-42 -211 -266 -211h-95l-9 -44l-40 -203h305l-14 -70h-434l54 273l34 167l52 264h129l-52 -264l-11 -53h95q95 0 123 141l35 176h129z" />
    <glyph glyph-name="UkaliqPatternSegmentsBcdefg_UkaliqModifierDot" unicode="&#xf1d5f;&#x331;" 
d="M314 -201q-15 41 17 82q32 42 80 42q47 0 63 -42q16 -41 -17 -82q-32 -42 -79 -42q-48 0 -64 42zM334 704l-52 -264l-11 -53h190l10 53l53 264h129l-53 -264l-33 -167l-16 -80q-39 -193 -263 -193h-223l54 273l34 167l52 264h129zM447 317h-190l-9 -44l-40 -203h95
q94 0 119 123l16 80z" />
    <glyph glyph-name="UkaliqPatternSegmentsAg_UkaliqModifierDot" unicode="&#xf1d60;&#x331;" 
d="M161 399h419l-19 -94h-418zM314 -201q-15 41 17 82q32 42 80 42q47 0 63 -42q16 -41 -17 -82q-32 -42 -79 -42q-48 0 -64 42zM222 704h419l-19 -94h-418z" />
    <glyph glyph-name="UkaliqPatternSegmentsAcg_UkaliqModifierDot" unicode="&#xf1d61;&#x331;" 
d="M155 387h185q250 0 207 -211l-35 -176h-129l35 176q29 141 -92 141h-185zM336 -201q-16 41 17 82q32 42 79 42q48 0 64 -42q15 -41 -17 -82q-32 -42 -80 -42q-47 0 -63 42zM222 704h419l-19 -94h-418z" />
    <glyph glyph-name="UkaliqPatternSegmentsAfg_UkaliqModifierDot" unicode="&#xf1d62;&#x331;" 
d="M626 633h-185q-121 0 -145 -123q-25 -123 96 -123h185l-14 -70h-185q-250 0 -211 193q38 194 288 194h185zM314 -201q-15 41 17 82q32 42 80 42q47 0 63 -42q16 -41 -17 -82q-32 -42 -79 -42q-48 0 -64 42z" />
    <glyph glyph-name="UkaliqPatternSegmentsAcfg_UkaliqModifierDot" unicode="&#xf1d63;&#x331;" 
d="M336 -201q-16 41 17 82q32 42 79 42q48 0 64 -42q15 -41 -17 -82q-32 -42 -80 -42q-47 0 -63 42zM626 633h-185q-121 0 -145 -123q-25 -123 70 -123h224l-78 -387h-129l64 317h-95q-224 0 -185 193q38 194 288 194h185z" />
    <glyph glyph-name="UkaliqPatternSegmentsAeg_UkaliqModifierDot" unicode="&#xf1d64;&#x331;" 
d="M563 317h-185q-121 0 -149 -141l-35 -176h-129l35 176q42 211 292 211h185zM314 -201q-15 41 17 82q32 42 80 42q47 0 63 -42q16 -41 -17 -82q-32 -42 -79 -42q-48 0 -64 42zM222 704h419l-19 -94h-418z" />
    <glyph glyph-name="UkaliqPatternSegmentsAceg_UkaliqModifierDot" unicode="&#xf1d65;&#x331;" 
d="M65 0l35 176q42 211 266 211t181 -211l-35 -176h-129l35 176q29 141 -66 141t-123 -141l-35 -176h-129zM336 -201q-16 41 17 82q32 42 79 42q48 0 64 -42q15 -41 -17 -82q-32 -42 -80 -42q-47 0 -63 42zM222 704h419l-19 -94h-418z" />
    <glyph glyph-name="UkaliqPatternSegmentsAefg_UkaliqModifierDot" unicode="&#xf1d66;&#x331;" 
d="M314 -201q-15 41 17 82q32 42 80 42q47 0 63 -42q16 -41 -17 -82q-32 -42 -79 -42q-48 0 -64 42zM626 633h-185q-121 0 -145 -123l-16 -79l-9 -44h306l-14 -70h-306l-11 -53l-52 -264h-129l52 264l34 167l16 79q38 194 288 194h185z" />
    <glyph glyph-name="UkaliqPatternSegmentsAcefg_UkaliqModifierDot" unicode="&#xf1d67;&#x331;" 
d="M336 -201q-16 41 17 82q32 42 79 42q48 0 64 -42q15 -41 -17 -82q-32 -42 -80 -42q-47 0 -63 42zM626 633h-185q-121 0 -145 -123l-16 -79l-9 -44h95q224 0 181 -211l-35 -176h-129l35 176q29 141 -66 141h-95l-11 -53l-52 -264h-129l52 264l34 167l16 79q38 194 288 194
h185z" />
    <glyph glyph-name="UkaliqPatternSegmentsAbg_UkaliqModifierDot" unicode="&#xf1d68;&#x331;" 
d="M218 704q435 0 386 -247q-28 -140 -278 -140h-185l14 70h185q121 0 135 70q35 176 -271 176zM314 -201q-15 41 17 82q32 42 80 42q47 0 63 -42q16 -41 -17 -82q-32 -42 -79 -42q-48 0 -64 42z" />
    <glyph glyph-name="UkaliqPatternSegmentsAbcg_UkaliqModifierDot" unicode="&#xf1d69;&#x331;" 
d="M218 704q435 0 377 -289l-30 -151l-53 -264h-129l53 264l11 53h-306l14 70h305l6 28q44 218 -262 218zM336 -201q-16 41 17 82q32 42 79 42q48 0 64 -42q15 -41 -17 -82q-32 -42 -80 -42q-47 0 -63 42z" />
    <glyph glyph-name="UkaliqPatternSegmentsAbfg_UkaliqModifierDot" unicode="&#xf1d6a;&#x331;" 
d="M314 -201q-15 41 17 82q32 42 80 42q47 0 63 -42q16 -41 -17 -82q-32 -42 -79 -42q-48 0 -64 42zM296 510q-25 -123 70 -123t109 70q35 176 -113 176q-42 0 -66 -123zM167 510q38 194 209 194q277 0 228 -247q-28 -140 -252 -140t-185 193z" />
    <glyph glyph-name="UkaliqPatternSegmentsAbcfg_UkaliqModifierDot" unicode="&#xf1d6b;&#x331;" 
d="M336 -201q-16 41 17 82q32 42 79 42q48 0 64 -42q15 -41 -17 -82q-32 -42 -80 -42q-47 0 -63 42zM460 387l6 28q44 218 -104 218q-42 0 -66 -123q-25 -123 70 -123h94zM447 317h-95q-224 0 -185 193q38 194 209 194q277 0 219 -289l-30 -151l-53 -264h-129l53 264z" />
    <glyph glyph-name="UkaliqPatternSegmentsAbeg_UkaliqModifierDot" unicode="&#xf1d6c;&#x331;" 
d="M218 704q435 0 386 -247q-28 -140 -252 -140h-95l-63 -317h-129l77 387h224q95 0 109 70q35 176 -271 176zM314 -201q-15 41 17 82q32 42 80 42q47 0 63 -42q16 -41 -17 -82q-32 -42 -79 -42q-48 0 -64 42z" />
    <glyph glyph-name="UkaliqPatternSegmentsAbceg_UkaliqModifierDot" unicode="&#xf1d6d;&#x331;" 
d="M218 704q435 0 377 -289l-30 -151l-53 -264h-129l53 264l11 53h-95q-95 0 -123 -141l-35 -176h-129l35 176q42 211 266 211h94l6 28q44 218 -262 218zM336 -201q-16 41 17 82q32 42 79 42q48 0 64 -42q15 -41 -17 -82q-32 -42 -80 -42q-47 0 -63 42z" />
    <glyph glyph-name="UkaliqPatternSegmentsAbefg_UkaliqModifierDot" unicode="&#xf1d6e;&#x331;" 
d="M314 -201q-15 41 17 82q32 42 80 42q47 0 63 -42q16 -41 -17 -82q-32 -42 -79 -42q-48 0 -64 42zM257 317l-11 -53l-52 -264h-129l52 264l34 167l16 79q38 194 209 194q277 0 228 -247q-28 -140 -252 -140h-95zM271 387h95q95 0 109 70q35 176 -113 176q-42 0 -66 -123
l-16 -79z" />
    <glyph glyph-name="UkaliqPatternSegmentsAbcefg_UkaliqModifierDot" unicode="&#xf1d6f;&#x331;" 
d="M336 -201q-16 41 17 82q32 42 79 42q48 0 64 -42q15 -41 -17 -82q-32 -42 -80 -42q-47 0 -63 42zM65 0l52 264l34 167l16 79q38 194 209 194q277 0 219 -289l-30 -151l-53 -264h-129l53 264l11 53h-190l-11 -53l-52 -264h-129zM271 387h189l6 28q44 218 -104 218
q-42 0 -66 -123l-16 -79z" />
    <glyph glyph-name="UkaliqPatternSegmentsAdg_UkaliqModifierDot" unicode="&#xf1d70;&#x331;" 
d="M100 94h419l-19 -94h-418zM161 399h419l-19 -94h-418zM314 -201q-15 41 17 82q32 42 80 42q47 0 63 -42q16 -41 -17 -82q-32 -42 -79 -42q-48 0 -64 42zM222 704h419l-19 -94h-418z" />
    <glyph glyph-name="UkaliqPatternSegmentsAcdg_UkaliqModifierDot" unicode="&#xf1d71;&#x331;" 
d="M155 387h185q250 0 211 -194q-39 -193 -288 -193h-185l14 70h185q120 0 145 123q25 124 -96 124h-185zM314 -201q-15 41 17 82q32 42 80 42q47 0 63 -42q16 -41 -17 -82q-32 -42 -79 -42q-48 0 -64 42zM222 704h419l-19 -94h-418z" />
    <glyph glyph-name="UkaliqPatternSegmentsAdfg_UkaliqModifierDot" unicode="&#xf1d72;&#x331;" 
d="M626 633h-185q-121 0 -145 -123q-25 -123 96 -123h185l-14 -70h-185q-250 0 -211 193q38 194 288 194h185zM100 94h419l-19 -94h-418zM314 -201q-15 41 17 82q32 42 80 42q47 0 63 -42q16 -41 -17 -82q-32 -42 -79 -42q-48 0 -64 42z" />
    <glyph glyph-name="UkaliqPatternSegmentsAcdfg_UkaliqModifierDot" unicode="&#xf1d73;&#x331;" 
d="M314 -201q-15 41 17 82q32 42 80 42q47 0 63 -42q16 -41 -17 -82q-32 -42 -79 -42q-48 0 -64 42zM581 633h-163q-98 0 -122 -123q-25 -123 70 -123h224l-39 -194q-39 -193 -279 -193h-175l14 70h175q111 0 136 123l25 124h-95q-224 0 -185 193q38 194 265 194h163z" />
    <glyph glyph-name="UkaliqPatternSegmentsAdeg_UkaliqModifierDot" unicode="&#xf1d74;&#x331;" 
d="M563 317h-185q-121 0 -146 -124l-24 -123h305l-14 -70h-434l38 193q39 194 289 194h185zM314 -201q-15 41 17 82q32 42 80 42q47 0 63 -42q16 -41 -17 -82q-32 -42 -79 -42q-48 0 -64 42zM222 704h419l-19 -94h-418z" />
    <glyph glyph-name="UkaliqPatternSegmentsAcdeg_UkaliqModifierDot" unicode="&#xf1d75;&#x331;" 
d="M314 -201q-15 41 17 82q32 42 80 42q47 0 63 -42q16 -41 -17 -82q-32 -42 -79 -42q-48 0 -64 42zM222 704h419l-19 -94h-418zM232 193l-24 -123h95q94 0 119 123q25 124 -70 124t-120 -124zM103 193q39 194 263 194t185 -194q-39 -193 -263 -193h-223z" />
    <glyph glyph-name="UkaliqPatternSegmentsAdefg_UkaliqModifierDot" unicode="&#xf1d76;&#x331;" 
d="M314 -201q-15 41 17 82q32 42 80 42q47 0 63 -42q16 -41 -17 -82q-32 -42 -79 -42q-48 0 -64 42zM626 633h-185q-121 0 -145 -123l-16 -79l-9 -44h306l-14 -70h-306l-9 -44l-40 -203h305l-14 -70h-434l54 273l32 158l16 79q38 194 288 194h185z" />
    <glyph glyph-name="UkaliqPatternSegmentsAcdefg_UkaliqModifierDot" unicode="&#xf1d77;&#x331;" 
d="M314 -201q-15 41 17 82q32 42 80 42q47 0 63 -42q16 -41 -17 -82q-32 -42 -79 -42q-48 0 -64 42zM581 633h-163q-98 0 -122 -123l-16 -79l-9 -44h95q224 0 185 -194q-39 -193 -263 -193h-223l54 273l32 158l16 79q38 194 265 194h163zM257 317l-9 -44l-40 -203h95
q94 0 119 123q25 124 -70 124h-95z" />
    <glyph glyph-name="UkaliqPatternSegmentsAbdg_UkaliqModifierDot" unicode="&#xf1d78;&#x331;" 
d="M100 94h419l-19 -94h-418zM218 704q435 0 386 -247q-28 -140 -278 -140h-185l14 70h185q121 0 135 70q35 176 -271 176zM314 -201q-15 41 17 82q32 42 80 42q47 0 63 -42q16 -41 -17 -82q-32 -42 -79 -42q-48 0 -64 42z" />
    <glyph glyph-name="UkaliqPatternSegmentsAbcdg_UkaliqModifierDot" unicode="&#xf1d79;&#x331;" 
d="M218 704q435 0 377 -289l-28 -142l-16 -80q-39 -193 -288 -193h-185l14 70h185q120 0 145 123l16 80l9 44h-306l14 70h305l6 28q44 218 -262 218zM314 -201q-15 41 17 82q32 42 80 42q47 0 63 -42q16 -41 -17 -82q-32 -42 -79 -42q-48 0 -64 42z" />
    <glyph glyph-name="UkaliqPatternSegmentsAbdfg_UkaliqModifierDot" unicode="&#xf1d7a;&#x331;" 
d="M100 94h419l-19 -94h-418zM314 -201q-15 41 17 82q32 42 80 42q47 0 63 -42q16 -41 -17 -82q-32 -42 -79 -42q-48 0 -64 42zM296 510q-25 -123 70 -123t109 70q35 176 -113 176q-42 0 -66 -123zM167 510q38 194 209 194q277 0 228 -247q-28 -140 -252 -140t-185 193z" />
    <glyph glyph-name="UkaliqPatternSegmentsAbcdfg_UkaliqModifierDot" unicode="&#xf1d7b;&#x331;" 
d="M314 -201q-15 41 17 82q32 42 80 42q47 0 63 -42q16 -41 -17 -82q-32 -42 -79 -42q-48 0 -64 42zM460 387l6 28q44 218 -104 218q-42 0 -66 -123q-25 -123 70 -123h94zM447 317h-95q-224 0 -185 193q38 194 209 194q277 0 219 -289l-28 -142l-16 -80q-39 -193 -279 -193
h-175l14 70h175q111 0 136 123l16 80z" />
    <glyph glyph-name="UkaliqPatternSegmentsAbdeg_UkaliqModifierDot" unicode="&#xf1d7c;&#x331;" 
d="M263 704q390 0 341 -247q-28 -140 -252 -140h-95l-49 -247h286l-14 -70h-415l77 387h224q95 0 109 70q35 176 -226 176zM314 -201q-15 41 17 82q32 42 80 42q47 0 63 -42q16 -41 -17 -82q-32 -42 -79 -42q-48 0 -64 42z" />
    <glyph glyph-name="UkaliqPatternSegmentsAbcdeg_UkaliqModifierDot" unicode="&#xf1d7d;&#x331;" 
d="M263 704q390 0 332 -289l-28 -142l-16 -80q-39 -193 -263 -193h-223l38 193q39 194 263 194h94l6 28q44 218 -217 218zM314 -201q-15 41 17 82q32 42 80 42q47 0 63 -42q16 -41 -17 -82q-32 -42 -79 -42q-48 0 -64 42zM447 317h-95q-95 0 -120 -124l-24 -123h95
q94 0 119 123l16 80z" />
    <glyph glyph-name="UkaliqPatternSegmentsAbdefg_UkaliqModifierDot" unicode="&#xf1d7e;&#x331;" 
d="M314 -201q-15 41 17 82q32 42 80 42q47 0 63 -42q16 -41 -17 -82q-32 -42 -79 -42q-48 0 -64 42zM257 317l-9 -44l-40 -203h286l-14 -70h-415l54 273l32 158l16 79q38 194 209 194q277 0 228 -247q-28 -140 -252 -140h-95zM271 387h95q95 0 109 70q35 176 -113 176
q-42 0 -66 -123l-16 -79z" />
    <glyph glyph-name="UkaliqPatternSegmentsAbcdefg_UkaliqModifierDot" unicode="&#xf1d7f;&#x331;" 
d="M314 -201q-15 41 17 82q32 42 80 42q47 0 63 -42q16 -41 -17 -82q-32 -42 -79 -42q-48 0 -64 42zM460 387l6 28q44 218 -104 218q-42 0 -66 -123l-16 -79l-9 -44h189zM447 317h-190l-9 -44l-40 -203h95q94 0 119 123l16 80zM167 510q38 194 209 194q277 0 219 -289
l-28 -142l-16 -80q-39 -193 -263 -193h-223l54 273l32 158z" />
    <glyph glyph-name=".notdef" 
d="M100 94h419l-19 -94h-418zM314 -201q-15 41 17 82q32 42 80 42q47 0 63 -42q16 -41 -17 -82q-32 -42 -79 -42q-48 0 -64 42z" />
    <glyph glyph-name="NULL" horiz-adv-x="0" 
 />
    <glyph glyph-name="uni000D" unicode="&#xd;" horiz-adv-x="0" 
 />
    <glyph glyph-name="uni200D" unicode="&#x200d;" horiz-adv-x="0" 
 />
    <glyph glyph-name="uni200B" unicode="&#x200b;" horiz-adv-x="0" 
 />
    <glyph glyph-name="uni200C" unicode="&#x200c;" horiz-adv-x="0" 
 />
    <glyph glyph-name="uniFEFF" unicode="&#xfeff;" horiz-adv-x="0" 
 />
    <glyph glyph-name="space" unicode=" " 
 />
    <glyph glyph-name="uni00A0" unicode="&#xa0;" 
 />
    <glyph glyph-name="UkaliqModifierDot" unicode="&#x331;" 
d="M314 -201q-15 41 17 82q32 42 80 42q47 0 63 -42q16 -41 -17 -82q-32 -42 -79 -42q-48 0 -64 42z" />
    <glyph glyph-name="uni2002" unicode="&#x2002;" 
 />
    <glyph glyph-name="uni2007" unicode="&#x2007;" 
 />
    <glyph glyph-name="uni2B1B" unicode="&#x2b1b;" 
d="M0 946h578v-1242h-578v1242z" />
    <glyph glyph-name="UkaliqSpace" unicode="&#xee00;" 
 />
    <glyph glyph-name="UkaliqNumber" unicode="&#xee01;" 
d="M590 387l-78 -387h-129l78 387h129z" />
    <glyph glyph-name="UkaliqRightSingleQuotationMark" unicode="&#xee02;" 
d="M334 704l-77 -387h-129l77 387h129z" />
    <glyph glyph-name="UkaliqColon" unicode="&#xee03;" 
d="M590 387l-78 -387h-129l78 387h129zM334 704l-77 -387h-129l77 387h129z" />
    <glyph glyph-name="UkaliqFullStop" unicode="&#xee04;" 
d="M271 387l-77 -387h-129l77 387h129z" />
    <glyph glyph-name="UkaliqComma" unicode="&#xee05;" 
d="M590 387l-78 -387h-129l78 387h129zM271 387l-77 -387h-129l77 387h129z" />
    <glyph glyph-name="UkaliqRightParenthesis" unicode="&#xee06;" 
d="M334 704l-140 -704h-129l140 704h129z" />
    <glyph glyph-name="UkaliqExclamationMark" unicode="&#xee07;" 
d="M334 704l-140 -704h-129l140 704h129zM590 387l-78 -387h-129l78 387h129z" />
    <glyph glyph-name="UkaliqLeftSingleQuotationMark" unicode="&#xee08;" 
d="M653 704l-77 -387h-129l77 387h129z" />
    <glyph glyph-name="UkaliqLeftParenthesis" unicode="&#xee09;" 
d="M653 704l-141 -704h-129l141 704h129z" />
    <glyph glyph-name="UkaliqDoubleQuotationMark" unicode="&#xee0a;" 
d="M334 704l-77 -387h-129l77 387h129zM653 704l-77 -387h-129l77 387h129z" />
    <glyph glyph-name="UkaliqReversedQuestionMark" unicode="&#xee0b;" 
d="M653 704l-141 -704h-129l141 704h129zM334 704l-77 -387h-129l77 387h129z" />
    <glyph glyph-name="UkaliqSemicolon" unicode="&#xee0c;" 
d="M653 704l-77 -387h-129l77 387h129zM271 387l-77 -387h-129l77 387h129z" />
    <glyph glyph-name="UkaliqReversedExclamationMark" unicode="&#xee0d;" 
d="M653 704l-141 -704h-129l141 704h129zM271 387l-77 -387h-129l77 387h129z" />
    <glyph glyph-name="UkaliqQuestionMark" unicode="&#xee0e;" 
d="M334 704l-140 -704h-129l140 704h129zM653 704l-77 -387h-129l77 387h129z" />
    <glyph glyph-name="UkaliqEquals" unicode="&#xee0f;" 
d="M653 704l-141 -704h-129l141 704h129zM334 704l-140 -704h-129l140 704h129z" />
    <glyph glyph-name="UkaliqHyphen" unicode="&#xee10;" 
d="M100 94h419l-19 -94h-418z" />
    <glyph glyph-name="UkaliqLetterOzo" unicode="&#xee11;" 
d="M590 387l-36 -176q-42 -211 -291 -211h-185l14 70h185q120 0 148 141l36 176h129z" />
    <glyph glyph-name="UkaliqGreaterThan" unicode="&#xee12;" 
d="M100 94h419l-19 -94h-418zM334 704l-77 -387h-129l77 387h129z" />
    <glyph glyph-name="UkaliqLetterAtlha" unicode="&#xee13;" 
d="M334 704l-77 -387h-129l77 387h129zM590 387l-36 -176q-42 -211 -291 -211h-185l14 70h185q120 0 148 141l36 176h129z" />
    <glyph glyph-name="UkaliqLetterEdzre" unicode="&#xee14;" 
d="M271 387l-63 -317h305l-14 -70h-434l77 387h129z" />
    <glyph glyph-name="UkaliqOr" unicode="&#xee15;" 
d="M271 387l-63 -317h95q94 0 122 141l36 176h129l-36 -176q-42 -211 -266 -211h-223l77 387h129z" />
    <glyph glyph-name="UkaliqLetterIdzji" unicode="&#xee16;" 
d="M334 704l-126 -634h305l-14 -70h-434l140 704h129z" />
    <glyph glyph-name="UkaliqLetterOdzo" unicode="&#xee17;" 
d="M334 704l-126 -634h95q94 0 122 141l36 176h129l-36 -176q-42 -211 -266 -211h-223l140 704h129z" />
    <glyph glyph-name="UkaliqLessThan" unicode="&#xee18;" 
d="M100 94h419l-19 -94h-418zM653 704l-77 -387h-129l77 387h129z" />
    <glyph glyph-name="UkaliqLetterOso" unicode="&#xee19;" 
d="M653 704l-67 -335q-74 -369 -323 -369h-185l14 70h185q120 0 180 299l67 335h129z" />
    <glyph glyph-name="UkaliqMultiplication" unicode="&#xee1a;" 
d="M100 94h419l-19 -94h-418zM334 704l-77 -387h-129l77 387h129zM653 704l-77 -387h-129l77 387h129z" />
    <glyph glyph-name="UkaliqLetterApfa" unicode="&#xee1b;" 
d="M334 704l-77 -387h-129l77 387h129zM653 704l-67 -335q-74 -369 -323 -369h-185l14 70h185q120 0 180 299l67 335h129z" />
    <glyph glyph-name="UkaliqLetterEtsre" unicode="&#xee1c;" 
d="M271 387l-63 -317h305l-14 -70h-434l77 387h129zM653 704l-77 -387h-129l77 387h129z" />
    <glyph glyph-name="UkaliqLetterUkkhu" unicode="&#xee1d;" 
d="M653 704l-67 -335q-74 -369 -298 -369h-223l77 387h129l-63 -317h95q94 0 154 299l67 335h129z" />
    <glyph glyph-name="UkaliqLetterItsji" unicode="&#xee1e;" 
d="M334 704l-126 -634h305l-14 -70h-434l140 704h129zM653 704l-77 -387h-129l77 387h129z" />
    <glyph glyph-name="UkaliqLetterOtso" unicode="&#xee1f;" 
d="M334 704l-126 -634h95q94 0 154 299l67 335h129l-67 -335q-74 -369 -298 -369h-223l140 704h129z" />
    <glyph glyph-name="UkaliqRange" unicode="&#xee20;" 
d="M222 704h419l-19 -94h-418z" />
    <glyph glyph-name="UkaliqLetterEo" unicode="&#xee21;" 
d="M590 387l-78 -387h-129l78 387h129zM222 704h419l-19 -94h-418z" />
    <glyph glyph-name="UkaliqLetterUh" unicode="&#xee22;" 
d="M626 633h-185q-121 0 -149 -141l-35 -175h-129l35 175q42 212 292 212h185z" />
    <glyph glyph-name="UkaliqLetterEu" unicode="&#xee23;" 
d="M590 387l-78 -387h-129l78 387h129zM626 633h-185q-121 0 -149 -141l-35 -175h-129l35 175q42 212 292 212h185z" />
    <glyph glyph-name="UkaliqLetterOe" unicode="&#xee24;" 
d="M271 387l-77 -387h-129l77 387h129zM222 704h419l-19 -94h-418z" />
    <glyph glyph-name="UkaliqLetterOeh" unicode="&#xee25;" 
d="M590 387l-78 -387h-129l78 387h129zM271 387l-77 -387h-129l77 387h129zM222 704h419l-19 -94h-418z" />
    <glyph glyph-name="UkaliqLetterUi" unicode="&#xee26;" 
d="M626 633h-185q-121 0 -181 -299l-66 -334h-129l67 334q73 370 323 370h185z" />
    <glyph glyph-name="UkaliqLetterAh" unicode="&#xee27;" 
d="M626 633h-185q-121 0 -181 -299l-66 -334h-129l67 334q73 370 323 370h185zM590 387l-78 -387h-129l78 387h129z" />
    <glyph glyph-name="UkaliqLetterAe" unicode="&#xee28;" 
d="M218 704q435 0 358 -387h-129q63 316 -243 316z" />
    <glyph glyph-name="UkaliqLetterO" unicode="&#xee29;" 
d="M218 704q435 0 294 -704h-129q127 633 -179 633z" />
    <glyph glyph-name="UkaliqLetterIh" unicode="&#xee2a;" 
d="M128 317l35 175q42 212 213 212q277 0 200 -387h-129q63 316 -85 316q-42 0 -70 -141l-35 -175h-129z" />
    <glyph glyph-name="UkaliqLetterU" unicode="&#xee2b;" 
d="M128 317l35 175q42 212 213 212q277 0 136 -704h-129q127 633 -21 633q-42 0 -70 -141l-35 -175h-129z" />
    <glyph glyph-name="UkaliqLetterE" unicode="&#xee2c;" 
d="M218 704q435 0 358 -387h-129q63 316 -243 316zM271 387l-77 -387h-129l77 387h129z" />
    <glyph glyph-name="UkaliqLetterEh" unicode="&#xee2d;" 
d="M218 704q435 0 294 -704h-129q127 633 -179 633zM271 387l-77 -387h-129l77 387h129z" />
    <glyph glyph-name="UkaliqLetterI" unicode="&#xee2e;" 
d="M447 317q63 316 -85 316q-42 0 -102 -299l-66 -334h-129l67 334q73 370 244 370q277 0 200 -387h-129z" />
    <glyph glyph-name="UkaliqLetterOh" unicode="&#xee2f;" 
d="M65 0l67 334q73 370 244 370q277 0 136 -704h-129q127 633 -21 633q-42 0 -102 -299l-66 -334h-129z" />
    <glyph glyph-name="UkaliqPlus" unicode="&#xee30;" 
d="M100 94h419l-19 -94h-418zM222 704h419l-19 -94h-418z" />
    <glyph glyph-name="UkaliqCurrency" unicode="&#xee31;" 
d="M590 387l-36 -176q-42 -211 -291 -211h-185l14 70h185q120 0 148 141l36 176h129zM222 704h419l-19 -94h-418z" />
    <glyph glyph-name="UkaliqAt" unicode="&#xee32;" 
d="M100 94h419l-19 -94h-418zM626 633h-185q-121 0 -149 -141l-35 -175h-129l35 175q42 212 292 212h185z" />
    <glyph glyph-name="UkaliqLetterAlha" unicode="&#xee33;" 
d="M626 633h-185q-121 0 -149 -141l-35 -175h-129l35 175q42 212 292 212h185zM590 387l-36 -176q-42 -211 -291 -211h-185l14 70h185q120 0 148 141l36 176h129z" />
    <glyph glyph-name="UkaliqLetterElre" unicode="&#xee34;" 
d="M271 387l-63 -317h305l-14 -70h-434l77 387h129zM222 704h419l-19 -94h-418z" />
    <glyph glyph-name="UkaliqLetterUlgu" unicode="&#xee35;" 
d="M271 387l-63 -317h95q94 0 122 141l36 176h129l-36 -176q-42 -211 -266 -211h-223l77 387h129zM222 704h419l-19 -94h-418z" />
    <glyph glyph-name="UkaliqLetterIlji" unicode="&#xee36;" 
d="M626 633h-185q-121 0 -177 -281l-56 -282h305l-14 -70h-434l70 352q70 352 320 352h185z" />
    <glyph glyph-name="UkaliqLetterOlo" unicode="&#xee37;" 
d="M626 633h-185q-121 0 -177 -281l-56 -282h95q94 0 122 141l36 176h129l-36 -176q-42 -211 -266 -211h-223l70 352q70 352 320 352h185z" />
    <glyph glyph-name="UkaliqDegree" unicode="&#xee38;" 
d="M100 94h419l-19 -94h-418zM218 704q435 0 358 -387h-129q63 316 -243 316z" />
    <glyph glyph-name="UkaliqLetterHbat" unicode="&#xee39;" 
d="M218 704q435 0 343 -458q-49 -246 -298 -246h-185l14 70h185q120 0 155 176q78 387 -228 387z" />
    <glyph glyph-name="UkaliqLetterAnqa" unicode="&#xee3a;" 
d="M100 94h419l-19 -94h-418zM128 317l35 175q42 212 213 212q277 0 200 -387h-129q63 316 -85 316q-42 0 -70 -141l-35 -175h-129z" />
    <glyph glyph-name="UkaliqLetterAma" unicode="&#xee3b;" 
d="M128 317l35 175q42 212 213 212q277 0 185 -458q-49 -246 -298 -246h-185l14 70h185q120 0 155 176q78 387 -70 387q-42 0 -70 -141l-35 -175h-129z" />
    <glyph glyph-name="UkaliqLetterEnre" unicode="&#xee3c;" 
d="M218 704q435 0 358 -387h-129q63 316 -243 316zM271 387l-63 -317h305l-14 -70h-434l77 387h129z" />
    <glyph glyph-name="UkaliqLetterUngu" unicode="&#xee3d;" 
d="M218 704q435 0 343 -458q-49 -246 -273 -246h-223l77 387h129l-63 -317h95q94 0 129 176q78 387 -228 387z" />
    <glyph glyph-name="UkaliqLetterInji" unicode="&#xee3e;" 
d="M447 317q63 316 -85 316q-42 0 -98 -281l-56 -282h305l-14 -70h-434l70 352q70 352 241 352q277 0 200 -387h-129z" />
    <glyph glyph-name="UkaliqLetterOno" unicode="&#xee3f;" 
d="M264 352l-56 -282h95q94 0 129 176q78 387 -70 387q-42 0 -98 -281zM135 352q70 352 241 352q277 0 185 -458q-49 -246 -273 -246h-223z" />
    <glyph glyph-name="UkaliqDash" unicode="&#xee40;" 
d="M161 399h419l-19 -94h-418z" />
    <glyph glyph-name="UkaliqLetterA" unicode="&#xee41;" 
d="M155 387h185q250 0 207 -211l-35 -176h-129l35 176q29 141 -92 141h-185z" />
    <glyph glyph-name="UkaliqMinus" unicode="&#xee42;" 
d="M334 704l-35 -176q-28 -141 93 -141h185l-14 -70h-185q-250 0 -208 211l35 176h129z" />
    <glyph glyph-name="UkaliqLetterAwa" unicode="&#xee43;" 
d="M334 704l-35 -176q-28 -141 67 -141h224l-78 -387h-129l64 317h-95q-224 0 -182 211l35 176h129z" />
    <glyph glyph-name="UkaliqLetterErre" unicode="&#xee44;" 
d="M563 317h-185q-121 0 -149 -141l-35 -176h-129l35 176q42 211 292 211h185z" />
    <glyph glyph-name="UkaliqAnd" unicode="&#xee45;" 
d="M65 0l35 176q42 211 266 211t181 -211l-35 -176h-129l35 176q29 141 -66 141t-123 -141l-35 -176h-129z" />
    <glyph glyph-name="UkaliqLetterIzji" unicode="&#xee46;" 
d="M334 704l-52 -264l-11 -53h306l-14 -70h-306l-11 -53l-52 -264h-129l52 264l36 176l52 264h129z" />
    <glyph glyph-name="UkaliqLetterOro" unicode="&#xee47;" 
d="M334 704l-52 -264l-11 -53h95q224 0 181 -211l-35 -176h-129l35 176q29 141 -66 141h-95l-11 -53l-52 -264h-129l52 264l36 176l52 264h129z" />
    <glyph glyph-name="UkaliqNot" unicode="&#xee48;" 
d="M653 704l-35 -176q-42 -211 -292 -211h-185l14 70h185q121 0 149 141l35 176h129z" />
    <glyph glyph-name="UkaliqDivision" unicode="&#xee49;" 
d="M653 704l-53 -264l-35 -176l-53 -264h-129l53 264l11 53h-306l14 70h305l11 53l53 264h129z" />
    <glyph glyph-name="UkaliqXor" unicode="&#xee4a;" 
d="M334 704l-35 -176q-28 -141 67 -141t123 141l35 176h129l-35 -176q-42 -211 -266 -211t-182 211l35 176h129z" />
    <glyph glyph-name="uniEE4B" unicode="&#xee4b;" 
d="M334 704l-35 -176q-28 -141 67 -141h94l11 53l53 264h129l-53 -264l-35 -176l-53 -264h-129l53 264l11 53h-95q-224 0 -182 211l35 176h129z" />
    <glyph glyph-name="UkaliqLetterIji" unicode="&#xee4c;" 
d="M653 704l-35 -176q-42 -211 -266 -211h-95l-63 -317h-129l77 387h224q95 0 123 141l35 176h129z" />
    <glyph glyph-name="UkaliqLetterTkot" unicode="&#xee4d;" 
d="M653 704l-53 -264l-35 -176l-53 -264h-129l53 264l11 53h-95q-95 0 -123 -141l-35 -176h-129l35 176q42 211 266 211h94l11 53l53 264h129z" />
    <glyph glyph-name="UkaliqLetterIsji" unicode="&#xee4e;" 
d="M653 704l-35 -176q-42 -211 -266 -211h-95l-11 -53l-52 -264h-129l52 264l36 176l52 264h129l-52 -264l-11 -53h95q95 0 123 141l35 176h129z" />
    <glyph glyph-name="UkaliqLetterOrro" unicode="&#xee4f;" 
d="M653 704l-53 -264l-35 -176l-53 -264h-129l53 264l11 53h-190l-11 -53l-52 -264h-129l52 264l36 176l52 264h129l-52 -264l-11 -53h189l11 53l53 264h129z" />
    <glyph glyph-name="UkaliqDigitZero" unicode="&#xee50;" 
d="M100 94h419l-19 -94h-418zM161 399h419l-19 -94h-418z" />
    <glyph glyph-name="UkaliqDigitOne" unicode="&#xee51;" 
d="M155 387h185q250 0 211 -194q-39 -193 -288 -193h-185l14 70h185q120 0 145 123q25 124 -96 124h-185z" />
    <glyph glyph-name="UkaliqDigitTwo" unicode="&#xee52;" 
d="M334 704l-35 -176q-28 -141 93 -141h185l-14 -70h-185q-250 0 -208 211l35 176h129zM100 94h419l-19 -94h-418z" />
    <glyph glyph-name="UkaliqDigitThree" unicode="&#xee53;" 
d="M334 704l-35 -176q-28 -141 67 -141h224l-39 -194q-39 -193 -288 -193h-185l14 70h185q120 0 145 123l25 124h-95q-224 0 -182 211l35 176h129z" />
    <glyph glyph-name="UkaliqDigitFour" unicode="&#xee54;" 
d="M563 317h-185q-121 0 -146 -124l-24 -123h305l-14 -70h-434l38 193q39 194 289 194h185z" />
    <glyph glyph-name="UkaliqDigitFive" unicode="&#xee55;" 
d="M232 193l-24 -123h95q94 0 119 123q25 124 -70 124t-120 -124zM103 193q39 194 263 194t185 -194q-39 -193 -263 -193h-223z" />
    <glyph glyph-name="UkaliqDigitSix" unicode="&#xee56;" 
d="M334 704l-52 -264l-11 -53h306l-14 -70h-306l-9 -44l-40 -203h305l-14 -70h-434l54 273l34 167l52 264h129z" />
    <glyph glyph-name="UkaliqDigitSeven" unicode="&#xee57;" 
d="M334 704l-52 -264l-11 -53h95q224 0 185 -194q-39 -193 -263 -193h-223l54 273l34 167l52 264h129zM257 317l-9 -44l-40 -203h95q94 0 119 123q25 124 -70 124h-95z" />
    <glyph glyph-name="UkaliqDigitEight" unicode="&#xee58;" 
d="M100 94h419l-19 -94h-418zM653 704l-35 -176q-42 -211 -292 -211h-185l14 70h185q121 0 149 141l35 176h129z" />
    <glyph glyph-name="UkaliqDigitNine" unicode="&#xee59;" 
d="M653 704l-53 -264l-33 -167l-16 -80q-39 -193 -288 -193h-185l14 70h185q120 0 145 123l16 80l9 44h-306l14 70h306l10 53l53 264h129z" />
    <glyph glyph-name="UkaliqDigitTen" unicode="&#xee5a;" 
d="M334 704l-35 -176q-28 -141 67 -141t123 141l35 176h129l-35 -176q-42 -211 -266 -211t-182 211l35 176h129zM100 94h419l-19 -94h-418z" />
    <glyph glyph-name="UkaliqDigitEleven" unicode="&#xee5b;" 
d="M334 704l-35 -176q-28 -141 67 -141h95l10 53l53 264h129l-53 -264l-33 -167l-16 -80q-39 -193 -288 -193h-185l14 70h185q120 0 145 123l16 80l9 44h-95q-224 0 -182 211l35 176h129z" />
    <glyph glyph-name="UkaliqDigitTwelve" unicode="&#xee5c;" 
d="M653 704l-35 -176q-42 -211 -266 -211h-95l-49 -247h305l-14 -70h-434l77 387h224q95 0 123 141l35 176h129z" />
    <glyph glyph-name="UkaliqDigitThirteen" unicode="&#xee5d;" 
d="M653 704l-53 -264l-33 -167l-16 -80q-39 -193 -263 -193h-223l38 193q39 194 263 194h95l10 53l53 264h129zM447 317h-95q-95 0 -120 -124l-24 -123h95q94 0 119 123l16 80z" />
    <glyph glyph-name="UkaliqDigitFourteen" unicode="&#xee5e;" 
d="M653 704l-35 -176q-42 -211 -266 -211h-95l-9 -44l-40 -203h305l-14 -70h-434l54 273l34 167l52 264h129l-52 -264l-11 -53h95q95 0 123 141l35 176h129z" />
    <glyph glyph-name="UkaliqDigitFifteen" unicode="&#xee5f;" 
d="M334 704l-52 -264l-11 -53h190l10 53l53 264h129l-53 -264l-33 -167l-16 -80q-39 -193 -263 -193h-223l54 273l34 167l52 264h129zM447 317h-190l-9 -44l-40 -203h95q94 0 119 123l16 80z" />
    <glyph glyph-name="UkaliqLetterSchwa" unicode="&#xee60;" 
d="M161 399h419l-19 -94h-418zM222 704h419l-19 -94h-418z" />
    <glyph glyph-name="UkaliqLetterOhgo" unicode="&#xee61;" 
d="M155 387h185q250 0 207 -211l-35 -176h-129l35 176q29 141 -92 141h-185zM222 704h419l-19 -94h-418z" />
    <glyph glyph-name="UkaliqLetterArha" unicode="&#xee62;" 
d="M626 633h-185q-121 0 -145 -123q-25 -123 96 -123h185l-14 -70h-185q-250 0 -211 193q38 194 288 194h185z" />
    <glyph glyph-name="UkaliqLetterAva" unicode="&#xee63;" 
d="M626 633h-185q-121 0 -145 -123q-25 -123 70 -123h224l-78 -387h-129l64 317h-95q-224 0 -185 193q38 194 288 194h185z" />
    <glyph glyph-name="UkaliqLetterEzre" unicode="&#xee64;" 
d="M563 317h-185q-121 0 -149 -141l-35 -176h-129l35 176q42 211 292 211h185zM222 704h419l-19 -94h-418z" />
    <glyph glyph-name="UkaliqLetterUghu" unicode="&#xee65;" 
d="M65 0l35 176q42 211 266 211t181 -211l-35 -176h-129l35 176q29 141 -66 141t-123 -141l-35 -176h-129zM222 704h419l-19 -94h-418z" />
    <glyph glyph-name="UkaliqLetterIjji" unicode="&#xee66;" 
d="M626 633h-185q-121 0 -145 -123l-16 -79l-9 -44h306l-14 -70h-306l-11 -53l-52 -264h-129l52 264l34 167l16 79q38 194 288 194h185z" />
    <glyph glyph-name="UkaliqLetterOdho" unicode="&#xee67;" 
d="M626 633h-185q-121 0 -145 -123l-16 -79l-9 -44h95q224 0 181 -211l-35 -176h-129l35 176q29 141 -66 141h-95l-11 -53l-52 -264h-129l52 264l34 167l16 79q38 194 288 194h185z" />
    <glyph glyph-name="UkaliqLetterOhho" unicode="&#xee68;" 
d="M218 704q435 0 386 -247q-28 -140 -278 -140h-185l14 70h185q121 0 135 70q35 176 -271 176z" />
    <glyph glyph-name="UkaliqLetterAha" unicode="&#xee69;" 
d="M218 704q435 0 377 -289l-30 -151l-53 -264h-129l53 264l11 53h-306l14 70h305l6 28q44 218 -262 218z" />
    <glyph glyph-name="UkaliqLetterAqha" unicode="&#xee6a;" 
d="M296 510q-25 -123 70 -123t109 70q35 176 -113 176q-42 0 -66 -123zM167 510q38 194 209 194q277 0 228 -247q-28 -140 -252 -140t-185 193z" />
    <glyph glyph-name="UkaliqLetterAfa" unicode="&#xee6b;" 
d="M460 387l6 28q44 218 -104 218q-42 0 -66 -123q-25 -123 70 -123h94zM447 317h-95q-224 0 -185 193q38 194 209 194q277 0 219 -289l-30 -151l-53 -264h-129l53 264z" />
    <glyph glyph-name="UkaliqLetterEsre" unicode="&#xee6c;" 
d="M218 704q435 0 386 -247q-28 -140 -252 -140h-95l-63 -317h-129l77 387h224q95 0 109 70q35 176 -271 176z" />
    <glyph glyph-name="UkaliqLetterUkhu" unicode="&#xee6d;" 
d="M218 704q435 0 377 -289l-30 -151l-53 -264h-129l53 264l11 53h-95q-95 0 -123 -141l-35 -176h-129l35 176q42 211 266 211h94l6 28q44 218 -262 218z" />
    <glyph glyph-name="UkaliqLetterIcji" unicode="&#xee6e;" 
d="M257 317l-11 -53l-52 -264h-129l52 264l34 167l16 79q38 194 209 194q277 0 228 -247q-28 -140 -252 -140h-95zM271 387h95q95 0 109 70q35 176 -113 176q-42 0 -66 -123l-16 -79z" />
    <glyph glyph-name="UkaliqLetterOtho" unicode="&#xee6f;" 
d="M65 0l52 264l34 167l16 79q38 194 209 194q277 0 219 -289l-30 -151l-53 -264h-129l53 264l11 53h-190l-11 -53l-52 -264h-129zM271 387h189l6 28q44 218 -104 218q-42 0 -66 -123l-16 -79z" />
    <glyph glyph-name="UkaliqIterationMark" unicode="&#xee70;" 
d="M100 94h419l-19 -94h-418zM161 399h419l-19 -94h-418zM222 704h419l-19 -94h-418z" />
    <glyph glyph-name="UkaliqPercent" unicode="&#xee71;" 
d="M155 387h185q250 0 211 -194q-39 -193 -288 -193h-185l14 70h185q120 0 145 123q25 124 -96 124h-185zM222 704h419l-19 -94h-418z" />
    <glyph glyph-name="UkaliqLetterAgqa" unicode="&#xee72;" 
d="M626 633h-185q-121 0 -145 -123q-25 -123 96 -123h185l-14 -70h-185q-250 0 -211 193q38 194 288 194h185zM100 94h419l-19 -94h-418z" />
    <glyph glyph-name="UkaliqLetterAba" unicode="&#xee73;" 
d="M581 633h-163q-98 0 -122 -123q-25 -123 70 -123h224l-39 -194q-39 -193 -279 -193h-175l14 70h175q111 0 136 123l25 124h-95q-224 0 -185 193q38 194 265 194h163z" />
    <glyph glyph-name="UkaliqLetterEdre" unicode="&#xee74;" 
d="M563 317h-185q-121 0 -146 -124l-24 -123h305l-14 -70h-434l38 193q39 194 289 194h185zM222 704h419l-19 -94h-418z" />
    <glyph glyph-name="UkaliqLetterUgu" unicode="&#xee75;" 
d="M222 704h419l-19 -94h-418zM232 193l-24 -123h95q94 0 119 123q25 124 -70 124t-120 -124zM103 193q39 194 263 194t185 -194q-39 -193 -263 -193h-223z" />
    <glyph glyph-name="UkaliqLetterIgji" unicode="&#xee76;" 
d="M626 633h-185q-121 0 -145 -123l-16 -79l-9 -44h306l-14 -70h-306l-9 -44l-40 -203h305l-14 -70h-434l54 273l32 158l16 79q38 194 288 194h185z" />
    <glyph glyph-name="UkaliqLetterOdo" unicode="&#xee77;" 
d="M581 633h-163q-98 0 -122 -123l-16 -79l-9 -44h95q224 0 185 -194q-39 -193 -263 -193h-223l54 273l32 158l16 79q38 194 265 194h163zM257 317l-9 -44l-40 -203h95q94 0 119 123q25 124 -70 124h-95z" />
    <glyph glyph-name="UkaliqLetterOhhko" unicode="&#xee78;" 
d="M100 94h419l-19 -94h-418zM218 704q435 0 386 -247q-28 -140 -278 -140h-185l14 70h185q121 0 135 70q35 176 -271 176z" />
    <glyph glyph-name="UkaliqLetterAhka" unicode="&#xee79;" 
d="M218 704q435 0 377 -289l-28 -142l-16 -80q-39 -193 -288 -193h-185l14 70h185q120 0 145 123l16 80l9 44h-306l14 70h305l6 28q44 218 -262 218z" />
    <glyph glyph-name="UkaliqLetterAqa" unicode="&#xee7a;" 
d="M100 94h419l-19 -94h-418zM296 510q-25 -123 70 -123t109 70q35 176 -113 176q-42 0 -66 -123zM167 510q38 194 209 194q277 0 228 -247q-28 -140 -252 -140t-185 193z" />
    <glyph glyph-name="UkaliqLetterApa" unicode="&#xee7b;" 
d="M460 387l6 28q44 218 -104 218q-42 0 -66 -123q-25 -123 70 -123h94zM447 317h-95q-224 0 -185 193q38 194 209 194q277 0 219 -289l-28 -142l-16 -80q-39 -193 -279 -193h-175l14 70h175q111 0 136 123l16 80z" />
    <glyph glyph-name="UkaliqLetterEtre" unicode="&#xee7c;" 
d="M263 704q390 0 341 -247q-28 -140 -252 -140h-95l-49 -247h286l-14 -70h-415l77 387h224q95 0 109 70q35 176 -226 176z" />
    <glyph glyph-name="UkaliqLetterUku" unicode="&#xee7d;" 
d="M263 704q390 0 332 -289l-28 -142l-16 -80q-39 -193 -263 -193h-223l38 193q39 194 263 194h94l6 28q44 218 -217 218zM447 317h-95q-95 0 -120 -124l-24 -123h95q94 0 119 123l16 80z" />
    <glyph glyph-name="UkaliqLetterIci" unicode="&#xee7e;" 
d="M257 317l-9 -44l-40 -203h286l-14 -70h-415l54 273l32 158l16 79q38 194 209 194q277 0 228 -247q-28 -140 -252 -140h-95zM271 387h95q95 0 109 70q35 176 -113 176q-42 0 -66 -123l-16 -79z" />
    <glyph glyph-name="UkaliqLetterOto" unicode="&#xee7f;" 
d="M460 387l6 28q44 218 -104 218q-42 0 -66 -123l-16 -79l-9 -44h189zM447 317h-190l-9 -44l-40 -203h95q94 0 119 123l16 80zM167 510q38 194 209 194q277 0 219 -289l-28 -142l-16 -80q-39 -193 -263 -193h-223l54 273l32 158z" />
    <glyph glyph-name="UkaliqDot" unicode="&#xee80;" 
d="M314 -201q-15 41 17 82q32 42 80 42q47 0 63 -42q16 -41 -17 -82q-32 -42 -79 -42q-48 0 -64 42z" />
    <glyph glyph-name="UkaliqNumberWithDot" unicode="&#xee81;" 
d="M590 387l-78 -387h-129l78 387h129zM336 -201q-16 41 17 82q32 42 79 42q48 0 64 -42q15 -41 -17 -82q-32 -42 -80 -42q-47 0 -63 42z" />
    <glyph glyph-name="UkaliqRightSingleQuotationMarkWithDot" unicode="&#xee82;" 
d="M334 704l-77 -387h-129l77 387h129zM314 -201q-15 41 17 82q32 42 80 42q47 0 63 -42q16 -41 -17 -82q-32 -42 -79 -42q-48 0 -64 42z" />
    <glyph glyph-name="UkaliqColonWithDot" unicode="&#xee83;" 
d="M590 387l-78 -387h-129l78 387h129zM334 704l-77 -387h-129l77 387h129zM336 -201q-16 41 17 82q32 42 79 42q48 0 64 -42q15 -41 -17 -82q-32 -42 -80 -42q-47 0 -63 42z" />
    <glyph glyph-name="UkaliqFullStopWithDot" unicode="&#xee84;" 
d="M271 387l-77 -387h-129l77 387h129zM314 -201q-15 41 17 82q32 42 80 42q47 0 63 -42q16 -41 -17 -82q-32 -42 -79 -42q-48 0 -64 42z" />
    <glyph glyph-name="UkaliqCommaWithDot" unicode="&#xee85;" 
d="M590 387l-78 -387h-129l78 387h129zM271 387l-77 -387h-129l77 387h129zM336 -201q-16 41 17 82q32 42 79 42q48 0 64 -42q15 -41 -17 -82q-32 -42 -80 -42q-47 0 -63 42z" />
    <glyph glyph-name="UkaliqRightParenthesisWithDot" unicode="&#xee86;" 
d="M334 704l-140 -704h-129l140 704h129zM314 -201q-15 41 17 82q32 42 80 42q47 0 63 -42q16 -41 -17 -82q-32 -42 -79 -42q-48 0 -64 42z" />
    <glyph glyph-name="UkaliqExclamationMarkWithDot" unicode="&#xee87;" 
d="M334 704l-140 -704h-129l140 704h129zM590 387l-78 -387h-129l78 387h129zM336 -201q-16 41 17 82q32 42 79 42q48 0 64 -42q15 -41 -17 -82q-32 -42 -80 -42q-47 0 -63 42z" />
    <glyph glyph-name="UkaliqLeftSingleQuotationMarkWithDot" unicode="&#xee88;" 
d="M653 704l-77 -387h-129l77 387h129zM314 -201q-15 41 17 82q32 42 80 42q47 0 63 -42q16 -41 -17 -82q-32 -42 -79 -42q-48 0 -64 42z" />
    <glyph glyph-name="UkaliqLeftParenthesisWithDot" unicode="&#xee89;" 
d="M653 704l-141 -704h-129l141 704h129zM336 -201q-16 41 17 82q32 42 79 42q48 0 64 -42q15 -41 -17 -82q-32 -42 -80 -42q-47 0 -63 42z" />
    <glyph glyph-name="UkaliqDoubleQuotationMarkWithDot" unicode="&#xee8a;" 
d="M334 704l-77 -387h-129l77 387h129zM653 704l-77 -387h-129l77 387h129zM314 -201q-15 41 17 82q32 42 80 42q47 0 63 -42q16 -41 -17 -82q-32 -42 -79 -42q-48 0 -64 42z" />
    <glyph glyph-name="UkaliqReversedQuestionMarkWithDot" unicode="&#xee8b;" 
d="M653 704l-141 -704h-129l141 704h129zM334 704l-77 -387h-129l77 387h129zM336 -201q-16 41 17 82q32 42 79 42q48 0 64 -42q15 -41 -17 -82q-32 -42 -80 -42q-47 0 -63 42z" />
    </font>
</defs>
</svg>
