<?xml version="1.0" standalone="no"?>
<!DOCTYPE svg PUBLIC "-//W3C//DTD SVG 1.1//EN" "http://www.w3.org/Graphics/SVG/1.1/DTD/svg11.dtd" >
<svg xmlns="http://www.w3.org/2000/svg" xmlns:xlink="http://www.w3.org/1999/xlink" version="1.1">
<metadata>
Created by FontForge 20170812 at Mon Jan 23 00:30:10 2023
 By ht,,,
Copyright (C) 2022-2023 Henrik Theiling, License CC-BY-NC4.0
</metadata>
<defs>
<font id="UkaliqSansBlackOblique" horiz-adv-x="578" >
  <font-face 
    font-family="Ukaliq Sans"
    font-weight="900"
    font-style="oblique"
    font-stretch="normal"
    units-per-em="1024"
    panose-1="2 0 10 3 0 0 0 0 0 0"
    ascent="727"
    descent="-297"
    bbox="0 -296 671 946"
    underline-thickness="78"
    underline-position="-171"
    unicode-range="U+000D-F1DFF"
  />
<missing-glyph 
d="M101 125h436l-25 -125h-436zM268 -237q-20 53 21 107q41 53 103 53q61 0 81 -53q20 -54 -21 -107t-103 -53q-61 0 -81 53z" />
    <glyph glyph-name="UkaliqSpace_UkaliqModifierDot" unicode="&#xee00;&#x331;" 
d="M268 -237q-20 53 21 107q41 53 103 53q61 0 81 -53q20 -54 -21 -107t-103 -53q-61 0 -81 53z" />
    <glyph glyph-name="UkaliqNumber_UkaliqModifierDot" unicode="&#xee01;&#x331;" 
d="M610 399l-79 -399h-194l80 399h193zM297 -237q-20 53 21 107q42 53 103 53t82 -53q20 -54 -22 -107q-41 -53 -103 -53q-61 0 -81 53z" />
    <glyph glyph-name="UkaliqRightSingleQuotationMark_UkaliqModifierDot" unicode="&#xee02;&#x331;" 
d="M385 704l-80 -399h-193l80 399h193zM268 -237q-20 53 21 107q41 53 103 53q61 0 81 -53q20 -54 -21 -107t-103 -53q-61 0 -81 53z" />
    <glyph glyph-name="UkaliqColon_UkaliqModifierDot" unicode="&#xee03;&#x331;" 
d="M610 399l-79 -399h-194l80 399h193zM385 704l-80 -399h-193l80 399h193zM297 -237q-20 53 21 107q42 53 103 53t82 -53q20 -54 -22 -107q-41 -53 -103 -53q-61 0 -81 53z" />
    <glyph glyph-name="UkaliqFullStop_UkaliqModifierDot" unicode="&#xee04;&#x331;" 
d="M324 399l-80 -399h-193l80 399h193zM268 -237q-20 53 21 107q41 53 103 53q61 0 81 -53q20 -54 -21 -107t-103 -53q-61 0 -81 53z" />
    <glyph glyph-name="UkaliqComma_UkaliqModifierDot" unicode="&#xee05;&#x331;" 
d="M610 399l-79 -399h-194l80 399h193zM324 399l-80 -399h-193l80 399h193zM297 -237q-20 53 21 107q42 53 103 53t82 -53q20 -54 -22 -107q-41 -53 -103 -53q-61 0 -81 53z" />
    <glyph glyph-name="UkaliqRightParenthesis_UkaliqModifierDot" unicode="&#xee06;&#x331;" 
d="M385 704l-141 -704h-193l141 704h193zM268 -237q-20 53 21 107q41 53 103 53q61 0 81 -53q20 -54 -21 -107t-103 -53q-61 0 -81 53z" />
    <glyph glyph-name="UkaliqExclamationMark_UkaliqModifierDot" unicode="&#xee07;&#x331;" 
d="M385 704l-141 -704h-193l141 704h193zM610 399l-79 -399h-194l80 399h193zM297 -237q-20 53 21 107q42 53 103 53t82 -53q20 -54 -22 -107q-41 -53 -103 -53q-61 0 -81 53z" />
    <glyph glyph-name="UkaliqLeftSingleQuotationMark_UkaliqModifierDot" unicode="&#xee08;&#x331;" 
d="M671 704l-79 -399h-194l80 399h193zM268 -237q-20 53 21 107q41 53 103 53q61 0 81 -53q20 -54 -21 -107t-103 -53q-61 0 -81 53z" />
    <glyph glyph-name="UkaliqLeftParenthesis_UkaliqModifierDot" unicode="&#xee09;&#x331;" 
d="M671 704l-140 -704h-194l141 704h193zM297 -237q-20 53 21 107q42 53 103 53t82 -53q20 -54 -22 -107q-41 -53 -103 -53q-61 0 -81 53z" />
    <glyph glyph-name="UkaliqDoubleQuotationMark_UkaliqModifierDot" unicode="&#xee0a;&#x331;" 
d="M385 704l-80 -399h-193l80 399h193zM671 704l-79 -399h-194l80 399h193zM268 -237q-20 53 21 107q41 53 103 53q61 0 81 -53q20 -54 -21 -107t-103 -53q-61 0 -81 53z" />
    <glyph glyph-name="UkaliqReversedQuestionMark_UkaliqModifierDot" unicode="&#xee0b;&#x331;" 
d="M671 704l-140 -704h-194l141 704h193zM385 704l-80 -399h-193l80 399h193zM297 -237q-20 53 21 107q42 53 103 53t82 -53q20 -54 -22 -107q-41 -53 -103 -53q-61 0 -81 53z" />
    <glyph glyph-name="UkaliqSemicolon_UkaliqModifierDot" unicode="&#xee0c;&#x331;" 
d="M671 704l-79 -399h-194l80 399h193zM324 399l-80 -399h-193l80 399h193zM268 -237q-20 53 21 107q41 53 103 53q61 0 81 -53q20 -54 -21 -107t-103 -53q-61 0 -81 53z" />
    <glyph glyph-name="UkaliqReversedExclamationMark_UkaliqModifierDot" unicode="&#xee0d;&#x331;" 
d="M671 704l-140 -704h-194l141 704h193zM324 399l-80 -399h-193l80 399h193zM297 -237q-20 53 21 107q42 53 103 53t82 -53q20 -54 -22 -107q-41 -53 -103 -53q-61 0 -81 53z" />
    <glyph glyph-name="UkaliqQuestionMark_UkaliqModifierDot" unicode="&#xee0e;&#x331;" 
d="M385 704l-141 -704h-193l141 704h193zM671 704l-79 -399h-194l80 399h193zM268 -237q-20 53 21 107q41 53 103 53q61 0 81 -53q20 -54 -21 -107t-103 -53q-61 0 -81 53z" />
    <glyph glyph-name="UkaliqEquals_UkaliqModifierDot" unicode="&#xee0f;&#x331;" 
d="M671 704l-140 -704h-194l141 704h193zM385 704l-141 -704h-193l141 704h193zM297 -237q-20 53 21 107q42 53 103 53t82 -53q20 -54 -22 -107q-41 -53 -103 -53q-61 0 -81 53z" />
    <glyph glyph-name="UkaliqHyphen_UkaliqModifierDot" unicode="&#xee10;&#x331;" 
d="M101 125h436l-25 -125h-436zM268 -237q-20 53 21 107q41 53 103 53q61 0 81 -53q20 -54 -21 -107t-103 -53q-61 0 -81 53z" />
    <glyph glyph-name="UkaliqLetterOzo_UkaliqModifierDot" unicode="&#xee11;&#x331;" 
d="M268 -237q-20 53 21 107q41 53 103 53q61 0 81 -53q20 -54 -21 -107t-103 -53q-61 0 -81 53zM610 399l-35 -176q-44 -223 -323 -223h-182l19 94h182q85 0 111 129l35 176h193z" />
    <glyph glyph-name="UkaliqGreaterThan_UkaliqModifierDot" unicode="&#xee12;&#x331;" 
d="M101 125h436l-25 -125h-436zM385 704l-80 -399h-193l80 399h193zM268 -237q-20 53 21 107q41 53 103 53q61 0 81 -53q20 -54 -21 -107t-103 -53q-61 0 -81 53z" />
    <glyph glyph-name="UkaliqLetterAtlha_UkaliqModifierDot" unicode="&#xee13;&#x331;" 
d="M385 704l-80 -399h-193l80 399h193zM268 -237q-20 53 21 107q41 53 103 53q61 0 81 -53q20 -54 -21 -107t-103 -53q-61 0 -81 53zM610 399l-35 -176q-44 -223 -323 -223h-182l19 94h182q85 0 111 129l35 176h193z" />
    <glyph glyph-name="UkaliqLetterEdzre_UkaliqModifierDot" unicode="&#xee14;&#x331;" 
d="M324 399l-61 -305h267l-19 -94h-460l80 399h193zM268 -237q-20 53 21 107q41 53 103 53q61 0 81 -53q20 -54 -21 -107t-103 -53q-61 0 -81 53z" />
    <glyph glyph-name="UkaliqOr_UkaliqModifierDot" unicode="&#xee15;&#x331;" 
d="M324 399l-61 -305h47q46 0 72 129l35 176h193l-35 -176q-44 -223 -284 -223h-240l80 399h193zM268 -237q-20 53 21 107q41 53 103 53q61 0 81 -53q20 -54 -21 -107t-103 -53q-61 0 -81 53z" />
    <glyph glyph-name="UkaliqLetterIdzji_UkaliqModifierDot" unicode="&#xee16;&#x331;" 
d="M385 704l-122 -610h267l-19 -94h-460l141 704h193zM268 -237q-20 53 21 107q41 53 103 53q61 0 81 -53q20 -54 -21 -107t-103 -53q-61 0 -81 53z" />
    <glyph glyph-name="UkaliqLetterOdzo_UkaliqModifierDot" unicode="&#xee17;&#x331;" 
d="M385 704l-122 -610h47q46 0 72 129l35 176h193l-35 -176q-44 -223 -284 -223h-240l141 704h193zM268 -237q-20 53 21 107q41 53 103 53q61 0 81 -53q20 -54 -21 -107t-103 -53q-61 0 -81 53z" />
    <glyph glyph-name="UkaliqLessThan_UkaliqModifierDot" unicode="&#xee18;&#x331;" 
d="M101 125h436l-25 -125h-436zM671 704l-79 -399h-194l80 399h193zM268 -237q-20 53 21 107q41 53 103 53q61 0 81 -53q20 -54 -21 -107t-103 -53q-61 0 -81 53z" />
    <glyph glyph-name="UkaliqLetterOso_UkaliqModifierDot" unicode="&#xee19;&#x331;" 
d="M671 704l-65 -329q-75 -375 -354 -375h-182l19 94h182q85 0 141 281l66 329h193zM268 -237q-20 53 21 107q41 53 103 53q61 0 81 -53q20 -54 -21 -107t-103 -53q-61 0 -81 53z" />
    <glyph glyph-name="UkaliqMultiplication_UkaliqModifierDot" unicode="&#xee1a;&#x331;" 
d="M101 125h436l-25 -125h-436zM385 704l-80 -399h-193l80 399h193zM671 704l-79 -399h-194l80 399h193zM268 -237q-20 53 21 107q41 53 103 53q61 0 81 -53q20 -54 -21 -107t-103 -53q-61 0 -81 53z" />
    <glyph glyph-name="UkaliqLetterApfa_UkaliqModifierDot" unicode="&#xee1b;&#x331;" 
d="M385 704l-80 -399h-193l80 399h193zM671 704l-65 -329q-75 -375 -354 -375h-182l19 94h182q85 0 141 281l66 329h193zM268 -237q-20 53 21 107q41 53 103 53q61 0 81 -53q20 -54 -21 -107t-103 -53q-61 0 -81 53z" />
    <glyph glyph-name="UkaliqLetterEtsre_UkaliqModifierDot" unicode="&#xee1c;&#x331;" 
d="M324 399l-61 -305h267l-19 -94h-460l80 399h193zM671 704l-79 -399h-194l80 399h193zM268 -237q-20 53 21 107q41 53 103 53q61 0 81 -53q20 -54 -21 -107t-103 -53q-61 0 -81 53z" />
    <glyph glyph-name="UkaliqLetterUkkhu_UkaliqModifierDot" unicode="&#xee1d;&#x331;" 
d="M671 704l-65 -329q-75 -375 -315 -375h-240l80 399h193l-61 -305h47q46 0 102 281l66 329h193zM268 -237q-20 53 21 107q41 53 103 53q61 0 81 -53q20 -54 -21 -107t-103 -53q-61 0 -81 53z" />
    <glyph glyph-name="UkaliqLetterItsji_UkaliqModifierDot" unicode="&#xee1e;&#x331;" 
d="M385 704l-122 -610h267l-19 -94h-460l141 704h193zM671 704l-79 -399h-194l80 399h193zM268 -237q-20 53 21 107q41 53 103 53q61 0 81 -53q20 -54 -21 -107t-103 -53q-61 0 -81 53z" />
    <glyph glyph-name="UkaliqLetterOtso_UkaliqModifierDot" unicode="&#xee1f;&#x331;" 
d="M385 704l-122 -610h47q46 0 102 281l66 329h193l-65 -329q-75 -375 -315 -375h-240l141 704h193zM268 -237q-20 53 21 107q41 53 103 53q61 0 81 -53q20 -54 -21 -107t-103 -53q-61 0 -81 53z" />
    <glyph glyph-name="UkaliqRange_UkaliqModifierDot" unicode="&#xee20;&#x331;" 
d="M268 -237q-20 53 21 107q41 53 103 53q61 0 81 -53q20 -54 -21 -107t-103 -53q-61 0 -81 53zM217 704h436l-26 -126h-435z" />
    <glyph glyph-name="UkaliqLetterEo_UkaliqModifierDot" unicode="&#xee21;&#x331;" 
d="M610 399l-79 -399h-194l80 399h193zM297 -237q-20 53 21 107q42 53 103 53t82 -53q20 -54 -22 -107q-41 -53 -103 -53q-61 0 -81 53zM217 704h436l-26 -126h-435z" />
    <glyph glyph-name="UkaliqLetterUh_UkaliqModifierDot" unicode="&#xee22;&#x331;" 
d="M633 610h-182q-85 0 -110 -129l-36 -176h-193l35 176q45 223 323 223h182zM268 -237q-20 53 21 107q41 53 103 53q61 0 81 -53q20 -54 -21 -107t-103 -53q-61 0 -81 53z" />
    <glyph glyph-name="UkaliqLetterEu_UkaliqModifierDot" unicode="&#xee23;&#x331;" 
d="M610 399l-79 -399h-194l80 399h193zM633 610h-182q-85 0 -110 -129l-36 -176h-193l35 176q45 223 323 223h182zM297 -237q-20 53 21 107q42 53 103 53t82 -53q20 -54 -22 -107q-41 -53 -103 -53q-61 0 -81 53z" />
    <glyph glyph-name="UkaliqLetterOe_UkaliqModifierDot" unicode="&#xee24;&#x331;" 
d="M324 399l-80 -399h-193l80 399h193zM268 -237q-20 53 21 107q41 53 103 53q61 0 81 -53q20 -54 -21 -107t-103 -53q-61 0 -81 53zM217 704h436l-26 -126h-435z" />
    <glyph glyph-name="UkaliqLetterOeh_UkaliqModifierDot" unicode="&#xee25;&#x331;" 
d="M610 399l-79 -399h-194l80 399h193zM324 399l-80 -399h-193l80 399h193zM297 -237q-20 53 21 107q42 53 103 53t82 -53q20 -54 -22 -107q-41 -53 -103 -53q-61 0 -81 53zM217 704h436l-26 -126h-435z" />
    <glyph glyph-name="UkaliqLetterUi_UkaliqModifierDot" unicode="&#xee26;&#x331;" 
d="M633 610h-182q-85 0 -141 -282l-66 -328h-193l66 328q75 376 353 376h182zM268 -237q-20 53 21 107q41 53 103 53q61 0 81 -53q20 -54 -21 -107t-103 -53q-61 0 -81 53z" />
    <glyph glyph-name="UkaliqLetterAh_UkaliqModifierDot" unicode="&#xee27;&#x331;" 
d="M633 610h-182q-85 0 -141 -282l-66 -328h-193l66 328q75 376 353 376h182zM610 399l-79 -399h-194l80 399h193zM297 -237q-20 53 21 107q42 53 103 53t82 -53q20 -54 -22 -107q-41 -53 -103 -53q-61 0 -81 53z" />
    <glyph glyph-name="UkaliqLetterAe_UkaliqModifierDot" unicode="&#xee28;&#x331;" 
d="M211 704q460 0 381 -399h-194q61 305 -206 305zM268 -237q-20 53 21 107q41 53 103 53q61 0 81 -53q20 -54 -21 -107t-103 -53q-61 0 -81 53z" />
    <glyph glyph-name="UkaliqLetterO_UkaliqModifierDot" unicode="&#xee29;&#x331;" 
d="M211 704q460 0 320 -704h-194q122 610 -145 610zM297 -237q-20 53 21 107q42 53 103 53t82 -53q20 -54 -22 -107q-41 -53 -103 -53q-61 0 -81 53z" />
    <glyph glyph-name="UkaliqLetterIh_UkaliqModifierDot" unicode="&#xee2a;&#x331;" 
d="M112 305l35 176q45 223 237 223q287 0 208 -399h-194q61 305 -33 305q1 0 -24 -129l-36 -176h-193zM268 -237q-20 53 21 107q41 53 103 53q61 0 81 -53q20 -54 -21 -107t-103 -53q-61 0 -81 53z" />
    <glyph glyph-name="UkaliqLetterU_UkaliqModifierDot" unicode="&#xee2b;&#x331;" 
d="M112 305l35 176q45 223 237 223q287 0 147 -704h-194q122 610 28 610q1 0 -24 -129l-36 -176h-193zM297 -237q-20 53 21 107q42 53 103 53t82 -53q20 -54 -22 -107q-41 -53 -103 -53q-61 0 -81 53z" />
    <glyph glyph-name="UkaliqLetterE_UkaliqModifierDot" unicode="&#xee2c;&#x331;" 
d="M211 704q460 0 381 -399h-194q61 305 -206 305zM324 399l-80 -399h-193l80 399h193zM268 -237q-20 53 21 107q41 53 103 53q61 0 81 -53q20 -54 -21 -107t-103 -53q-61 0 -81 53z" />
    <glyph glyph-name="UkaliqLetterEh_UkaliqModifierDot" unicode="&#xee2d;&#x331;" 
d="M211 704q460 0 320 -704h-194q122 610 -145 610zM324 399l-80 -399h-193l80 399h193zM297 -237q-20 53 21 107q42 53 103 53t82 -53q20 -54 -22 -107q-41 -53 -103 -53q-61 0 -81 53z" />
    <glyph glyph-name="UkaliqLetterI_UkaliqModifierDot" unicode="&#xee2e;&#x331;" 
d="M398 305q61 305 -33 305q1 0 -55 -282l-66 -328h-193l66 328q75 376 267 376q287 0 208 -399h-194zM268 -237q-20 53 21 107q41 53 103 53q61 0 81 -53q20 -54 -21 -107t-103 -53q-61 0 -81 53z" />
    <glyph glyph-name="UkaliqLetterOh_UkaliqModifierDot" unicode="&#xee2f;&#x331;" 
d="M51 0l66 328q75 376 267 376q287 0 147 -704h-194q122 610 28 610q1 0 -55 -282l-66 -328h-193zM297 -237q-20 53 21 107q42 53 103 53t82 -53q20 -54 -22 -107q-41 -53 -103 -53q-61 0 -81 53z" />
    <glyph glyph-name="UkaliqPlus_UkaliqModifierDot" unicode="&#xee30;&#x331;" 
d="M101 125h436l-25 -125h-436zM268 -237q-20 53 21 107q41 53 103 53q61 0 81 -53q20 -54 -21 -107t-103 -53q-61 0 -81 53zM217 704h436l-26 -126h-435z" />
    <glyph glyph-name="UkaliqCurrency_UkaliqModifierDot" unicode="&#xee31;&#x331;" 
d="M268 -237q-20 53 21 107q41 53 103 53q61 0 81 -53q20 -54 -21 -107t-103 -53q-61 0 -81 53zM610 399l-35 -176q-44 -223 -323 -223h-182l19 94h182q85 0 111 129l35 176h193zM217 704h436l-26 -126h-435z" />
    <glyph glyph-name="UkaliqAt_UkaliqModifierDot" unicode="&#xee32;&#x331;" 
d="M101 125h436l-25 -125h-436zM633 610h-182q-85 0 -110 -129l-36 -176h-193l35 176q45 223 323 223h182zM268 -237q-20 53 21 107q41 53 103 53q61 0 81 -53q20 -54 -21 -107t-103 -53q-61 0 -81 53z" />
    <glyph glyph-name="UkaliqLetterAlha_UkaliqModifierDot" unicode="&#xee33;&#x331;" 
d="M633 610h-182q-85 0 -110 -129l-36 -176h-193l35 176q45 223 323 223h182zM268 -237q-20 53 21 107q41 53 103 53q61 0 81 -53q20 -54 -21 -107t-103 -53q-61 0 -81 53zM610 399l-35 -176q-44 -223 -323 -223h-182l19 94h182q85 0 111 129l35 176h193z" />
    <glyph glyph-name="UkaliqLetterElre_UkaliqModifierDot" unicode="&#xee34;&#x331;" 
d="M324 399l-61 -305h267l-19 -94h-460l80 399h193zM268 -237q-20 53 21 107q41 53 103 53q61 0 81 -53q20 -54 -21 -107t-103 -53q-61 0 -81 53zM217 704h436l-26 -126h-435z" />
    <glyph glyph-name="UkaliqLetterUlgu_UkaliqModifierDot" unicode="&#xee35;&#x331;" 
d="M324 399l-61 -305h47q46 0 72 129l35 176h193l-35 -176q-44 -223 -284 -223h-240l80 399h193zM268 -237q-20 53 21 107q41 53 103 53q61 0 81 -53q20 -54 -21 -107t-103 -53q-61 0 -81 53zM217 704h436l-26 -126h-435z" />
    <glyph glyph-name="UkaliqLetterIlji_UkaliqModifierDot" unicode="&#xee36;&#x331;" 
d="M633 610h-182q-85 0 -136 -258l-52 -258h267l-19 -94h-460l70 352q71 352 349 352h182zM268 -237q-20 53 21 107q41 53 103 53q61 0 81 -53q20 -54 -21 -107t-103 -53q-61 0 -81 53z" />
    <glyph glyph-name="UkaliqLetterOlo_UkaliqModifierDot" unicode="&#xee37;&#x331;" 
d="M633 610h-182q-85 0 -136 -258l-52 -258h47q46 0 72 129l35 176h193l-35 -176q-44 -223 -284 -223h-240l70 352q71 352 349 352h182zM268 -237q-20 53 21 107q41 53 103 53q61 0 81 -53q20 -54 -21 -107t-103 -53q-61 0 -81 53z" />
    <glyph glyph-name="UkaliqDegree_UkaliqModifierDot" unicode="&#xee38;&#x331;" 
d="M101 125h436l-25 -125h-436zM211 704q460 0 381 -399h-194q61 305 -206 305zM268 -237q-20 53 21 107q41 53 103 53q61 0 81 -53q20 -54 -21 -107t-103 -53q-61 0 -81 53z" />
    <glyph glyph-name="UkaliqLetterHbat_UkaliqModifierDot" unicode="&#xee39;&#x331;" 
d="M211 704q460 0 370 -454q-50 -250 -329 -250h-182l19 94h182q85 0 116 156q72 360 -195 360zM268 -237q-20 53 21 107q41 53 103 53q61 0 81 -53q20 -54 -21 -107t-103 -53q-61 0 -81 53z" />
    <glyph glyph-name="UkaliqLetterAnqa_UkaliqModifierDot" unicode="&#xee3a;&#x331;" 
d="M101 125h436l-25 -125h-436zM112 305l35 176q45 223 237 223q287 0 208 -399h-194q61 305 -33 305q1 0 -24 -129l-36 -176h-193zM268 -237q-20 53 21 107q41 53 103 53q61 0 81 -53q20 -54 -21 -107t-103 -53q-61 0 -81 53z" />
    <glyph glyph-name="UkaliqLetterAma_UkaliqModifierDot" unicode="&#xee3b;&#x331;" 
d="M112 305l35 176q45 223 237 223q287 0 197 -454q-50 -250 -329 -250h-182l19 94h182q85 0 116 156q72 360 -22 360q1 0 -24 -129l-36 -176h-193zM268 -237q-20 53 21 107q41 53 103 53q61 0 81 -53q20 -54 -21 -107t-103 -53q-61 0 -81 53z" />
    <glyph glyph-name="UkaliqLetterEnre_UkaliqModifierDot" unicode="&#xee3c;&#x331;" 
d="M211 704q460 0 381 -399h-194q61 305 -206 305zM324 399l-61 -305h267l-19 -94h-460l80 399h193zM268 -237q-20 53 21 107q41 53 103 53q61 0 81 -53q20 -54 -21 -107t-103 -53q-61 0 -81 53z" />
    <glyph glyph-name="UkaliqLetterUngu_UkaliqModifierDot" unicode="&#xee3d;&#x331;" 
d="M211 704q460 0 370 -454q-50 -250 -290 -250h-240l80 399h193l-61 -305h47q46 0 77 156q72 360 -195 360zM268 -237q-20 53 21 107q41 53 103 53q61 0 81 -53q20 -54 -21 -107t-103 -53q-61 0 -81 53z" />
    <glyph glyph-name="UkaliqLetterInji_UkaliqModifierDot" unicode="&#xee3e;&#x331;" 
d="M398 305q61 305 -33 305q1 0 -50 -258l-52 -258h267l-19 -94h-460l70 352q71 352 263 352q287 0 208 -399h-194zM268 -237q-20 53 21 107q41 53 103 53q61 0 81 -53q20 -54 -21 -107t-103 -53q-61 0 -81 53z" />
    <glyph glyph-name="UkaliqLetterOno_UkaliqModifierDot" unicode="&#xee3f;&#x331;" 
d="M268 -237q-20 53 21 107q41 53 103 53q61 0 81 -53q20 -54 -21 -107t-103 -53q-61 0 -81 53zM315 352l-52 -258h47q46 0 77 156q72 360 -22 360q1 0 -50 -258zM121 352q71 352 263 352q287 0 197 -454q-50 -250 -290 -250h-240z" />
    <glyph glyph-name="UkaliqDash_UkaliqModifierDot" unicode="&#xee40;&#x331;" 
d="M159 414h436l-25 -125h-436zM268 -237q-20 53 21 107q41 53 103 53q61 0 81 -53q20 -54 -21 -107t-103 -53q-61 0 -81 53z" />
    <glyph glyph-name="UkaliqLetterA_UkaliqModifierDot" unicode="&#xee41;&#x331;" 
d="M150 399h182q278 0 234 -223l-35 -176h-194l35 176q26 129 -59 129h-182zM297 -237q-20 53 21 107q42 53 103 53t82 -53q20 -54 -22 -107q-41 -53 -103 -53q-61 0 -81 53z" />
    <glyph glyph-name="UkaliqMinus_UkaliqModifierDot" unicode="&#xee42;&#x331;" 
d="M385 704l-35 -176q-26 -129 59 -129h182l-19 -94h-182q-278 0 -234 223l36 176h193zM268 -237q-20 53 21 107q41 53 103 53q61 0 81 -53q20 -54 -21 -107t-103 -53q-61 0 -81 53z" />
    <glyph glyph-name="UkaliqLetterAwa_UkaliqModifierDot" unicode="&#xee43;&#x331;" 
d="M297 -237q-20 53 21 107q42 53 103 53t82 -53q20 -54 -22 -107q-41 -53 -103 -53q-61 0 -81 53zM385 704l-35 -176q-26 -129 21 -129h239l-79 -399h-194l61 305h-46q-240 0 -196 223l36 176h193z" />
    <glyph glyph-name="UkaliqLetterErre_UkaliqModifierDot" unicode="&#xee44;&#x331;" 
d="M572 305h-182q-85 0 -110 -129l-36 -176h-193l35 176q45 223 323 223h182zM268 -237q-20 53 21 107q41 53 103 53q61 0 81 -53q20 -54 -21 -107t-103 -53q-61 0 -81 53z" />
    <glyph glyph-name="UkaliqAnd_UkaliqModifierDot" unicode="&#xee45;&#x331;" 
d="M51 0l35 176q45 223 285 223q239 0 195 -223l-35 -176h-194l35 176q26 129 -20 129q-47 0 -72 -129l-36 -176h-193zM297 -237q-20 53 21 107q42 53 103 53t82 -53q20 -54 -22 -107q-41 -53 -103 -53q-61 0 -81 53z" />
    <glyph glyph-name="UkaliqLetterIzji_UkaliqModifierDot" unicode="&#xee46;&#x331;" 
d="M268 -237q-20 53 21 107q41 53 103 53q61 0 81 -53q20 -54 -21 -107t-103 -53q-61 0 -81 53zM385 704l-53 -264l-8 -41h267l-19 -94h-267l-8 -41l-53 -264h-193l53 264l35 176l53 264h193z" />
    <glyph glyph-name="UkaliqLetterOro_UkaliqModifierDot" unicode="&#xee47;&#x331;" 
d="M297 -237q-20 53 21 107q42 53 103 53t82 -53q20 -54 -22 -107q-41 -53 -103 -53q-61 0 -81 53zM385 704l-53 -264l-8 -41h47q239 0 195 -223l-35 -176h-194l35 176q26 129 -20 129h-47l-8 -41l-53 -264h-193l53 264l35 176l53 264h193z" />
    <glyph glyph-name="UkaliqNot_UkaliqModifierDot" unicode="&#xee48;&#x331;" 
d="M671 704l-35 -176q-44 -223 -323 -223h-182l19 94h182q85 0 111 129l35 176h193zM268 -237q-20 53 21 107q41 53 103 53q61 0 81 -53q20 -54 -21 -107t-103 -53q-61 0 -81 53z" />
    <glyph glyph-name="UkaliqDivision_UkaliqModifierDot" unicode="&#xee49;&#x331;" 
d="M671 704l-52 -264l-36 -176l-52 -264h-194l53 264l8 41h-267l19 94h267l8 41l53 264h193zM297 -237q-20 53 21 107q42 53 103 53t82 -53q20 -54 -22 -107q-41 -53 -103 -53q-61 0 -81 53z" />
    <glyph glyph-name="UkaliqXor_UkaliqModifierDot" unicode="&#xee4a;&#x331;" 
d="M385 704l-35 -176q-26 -129 21 -129q46 0 72 129l35 176h193l-35 -176q-44 -223 -284 -223t-196 223l36 176h193zM268 -237q-20 53 21 107q41 53 103 53q61 0 81 -53q20 -54 -21 -107t-103 -53q-61 0 -81 53z" />
    <glyph glyph-name="uniEE4B_UkaliqModifierDot" unicode="&#xee4b;&#x331;" 
d="M297 -237q-20 53 21 107q42 53 103 53t82 -53q20 -54 -22 -107q-41 -53 -103 -53q-61 0 -81 53zM385 704l-35 -176q-26 -129 21 -129h46l8 41l53 264h193l-52 -264l-36 -176l-52 -264h-194l53 264l8 41h-46q-240 0 -196 223l36 176h193z" />
    <glyph glyph-name="UkaliqLetterIji_UkaliqModifierDot" unicode="&#xee4c;&#x331;" 
d="M671 704l-35 -176q-44 -223 -284 -223h-47l-61 -305h-193l80 399h240q46 0 72 129l35 176h193zM268 -237q-20 53 21 107q41 53 103 53q61 0 81 -53q20 -54 -21 -107t-103 -53q-61 0 -81 53z" />
    <glyph glyph-name="UkaliqLetterTkot_UkaliqModifierDot" unicode="&#xee4d;&#x331;" 
d="M671 704l-52 -264l-36 -176l-52 -264h-194l53 264l8 41h-46q-47 0 -72 -129l-36 -176h-193l35 176q45 223 285 223h46l8 41l53 264h193zM297 -237q-20 53 21 107q42 53 103 53t82 -53q20 -54 -22 -107q-41 -53 -103 -53q-61 0 -81 53z" />
    <glyph glyph-name="UkaliqLetterIsji_UkaliqModifierDot" unicode="&#xee4e;&#x331;" 
d="M268 -237q-20 53 21 107q41 53 103 53q61 0 81 -53q20 -54 -21 -107t-103 -53q-61 0 -81 53zM671 704l-35 -176q-44 -223 -284 -223h-47l-8 -41l-53 -264h-193l53 264l35 176l53 264h193l-53 -264l-8 -41h47q46 0 72 129l35 176h193z" />
    <glyph glyph-name="UkaliqLetterOrro_UkaliqModifierDot" unicode="&#xee4f;&#x331;" 
d="M297 -237q-20 53 21 107q42 53 103 53t82 -53q20 -54 -22 -107q-41 -53 -103 -53q-61 0 -81 53zM671 704l-52 -264l-36 -176l-52 -264h-194l53 264l8 41h-93l-8 -41l-53 -264h-193l53 264l35 176l53 264h193l-53 -264l-8 -41h93l8 41l53 264h193z" />
    <glyph glyph-name="UkaliqDigitZero_UkaliqModifierDot" unicode="&#xee50;&#x331;" 
d="M101 125h436l-25 -125h-436zM159 414h436l-25 -125h-436zM268 -237q-20 53 21 107q41 53 103 53q61 0 81 -53q20 -54 -21 -107t-103 -53q-61 0 -81 53z" />
    <glyph glyph-name="UkaliqDigitOne_UkaliqModifierDot" unicode="&#xee51;&#x331;" 
d="M150 399h182q278 0 239 -200q-40 -199 -319 -199h-182l19 94h182q85 0 106 105q21 106 -64 106h-182zM268 -237q-20 53 21 107q41 53 103 53q61 0 81 -53q20 -54 -21 -107t-103 -53q-61 0 -81 53z" />
    <glyph glyph-name="UkaliqDigitTwo_UkaliqModifierDot" unicode="&#xee52;&#x331;" 
d="M385 704l-35 -176q-26 -129 59 -129h182l-19 -94h-182q-278 0 -234 223l36 176h193zM101 125h436l-25 -125h-436zM268 -237q-20 53 21 107q41 53 103 53q61 0 81 -53q20 -54 -21 -107t-103 -53q-61 0 -81 53z" />
    <glyph glyph-name="UkaliqDigitThree_UkaliqModifierDot" unicode="&#xee53;&#x331;" 
d="M268 -237q-20 53 21 107q41 53 103 53q61 0 81 -53q20 -54 -21 -107t-103 -53q-61 0 -81 53zM385 704l-35 -176q-26 -129 21 -129h239l-39 -200q-40 -199 -319 -199h-182l19 94h182q85 0 106 105l21 106h-46q-240 0 -196 223l36 176h193z" />
    <glyph glyph-name="UkaliqDigitFour_UkaliqModifierDot" unicode="&#xee54;&#x331;" 
d="M572 305h-182q-85 0 -106 -106l-21 -105h267l-19 -94h-460l40 199q40 200 318 200h182zM268 -237q-20 53 21 107q41 53 103 53q61 0 81 -53q20 -54 -21 -107t-103 -53q-61 0 -81 53z" />
    <glyph glyph-name="UkaliqDigitFive_UkaliqModifierDot" unicode="&#xee55;&#x331;" 
d="M268 -237q-20 53 21 107q41 53 103 53q61 0 81 -53q20 -54 -21 -107t-103 -53q-61 0 -81 53zM284 199l-21 -105h47q46 0 67 105q21 106 -25 106q-47 0 -68 -106zM91 199q40 200 280 200q239 0 200 -200q-40 -199 -280 -199h-240z" />
    <glyph glyph-name="UkaliqDigitSix_UkaliqModifierDot" unicode="&#xee56;&#x331;" 
d="M268 -237q-20 53 21 107q41 53 103 53q61 0 81 -53q20 -54 -21 -107t-103 -53q-61 0 -81 53zM385 704l-53 -264l-8 -41h267l-19 -94h-267l-6 -29l-36 -182h267l-19 -94h-460l55 276l33 164l53 264h193z" />
    <glyph glyph-name="UkaliqDigitSeven_UkaliqModifierDot" unicode="&#xee57;&#x331;" 
d="M268 -237q-20 53 21 107q41 53 103 53q61 0 81 -53q20 -54 -21 -107t-103 -53q-61 0 -81 53zM385 704l-53 -264l-8 -41h47q239 0 200 -200q-40 -199 -280 -199h-240l55 276l33 164l53 264h193zM305 305l-6 -29l-36 -182h47q46 0 67 105q21 106 -25 106h-47z" />
    <glyph glyph-name="UkaliqDigitEight_UkaliqModifierDot" unicode="&#xee58;&#x331;" 
d="M101 125h436l-25 -125h-436zM671 704l-35 -176q-44 -223 -323 -223h-182l19 94h182q85 0 111 129l35 176h193zM268 -237q-20 53 21 107q41 53 103 53q61 0 81 -53q20 -54 -21 -107t-103 -53q-61 0 -81 53z" />
    <glyph glyph-name="UkaliqDigitNine_UkaliqModifierDot" unicode="&#xee59;&#x331;" 
d="M671 704l-52 -264l-33 -164l-15 -77q-40 -199 -319 -199h-182l19 94h182q85 0 106 105l15 77l6 29h-267l19 94h267l8 41l53 264h193zM268 -237q-20 53 21 107q41 53 103 53q61 0 81 -53q20 -54 -21 -107t-103 -53q-61 0 -81 53z" />
    <glyph glyph-name="UkaliqDigitTen_UkaliqModifierDot" unicode="&#xee5a;&#x331;" 
d="M385 704l-35 -176q-26 -129 21 -129q46 0 72 129l35 176h193l-35 -176q-44 -223 -284 -223t-196 223l36 176h193zM101 125h436l-25 -125h-436zM268 -237q-20 53 21 107q41 53 103 53q61 0 81 -53q20 -54 -21 -107t-103 -53q-61 0 -81 53z" />
    <glyph glyph-name="UkaliqDigitEleven_UkaliqModifierDot" unicode="&#xee5b;&#x331;" 
d="M268 -237q-20 53 21 107q41 53 103 53q61 0 81 -53q20 -54 -21 -107t-103 -53q-61 0 -81 53zM385 704l-35 -176q-26 -129 21 -129h46l8 41l53 264h193l-52 -264l-33 -164l-15 -77q-40 -199 -319 -199h-182l19 94h182q85 0 106 105l15 77l6 29h-46q-240 0 -196 223l36 176
h193z" />
    <glyph glyph-name="UkaliqDigitTwelve_UkaliqModifierDot" unicode="&#xee5c;&#x331;" 
d="M671 704l-35 -176q-44 -223 -284 -223h-47l-42 -211h267l-19 -94h-460l80 399h240q46 0 72 129l35 176h193zM268 -237q-20 53 21 107q41 53 103 53q61 0 81 -53q20 -54 -21 -107t-103 -53q-61 0 -81 53z" />
    <glyph glyph-name="UkaliqDigitThirteen_UkaliqModifierDot" unicode="&#xee5d;&#x331;" 
d="M671 704l-52 -264l-33 -164l-15 -77q-40 -199 -280 -199h-240l40 199q40 200 280 200h46l8 41l53 264h193zM268 -237q-20 53 21 107q41 53 103 53q61 0 81 -53q20 -54 -21 -107t-103 -53q-61 0 -81 53zM398 305h-46q-47 0 -68 -106l-21 -105h47q46 0 67 105l15 77z" />
    <glyph glyph-name="UkaliqDigitFourteen_UkaliqModifierDot" unicode="&#xee5e;&#x331;" 
d="M268 -237q-20 53 21 107q41 53 103 53q61 0 81 -53q20 -54 -21 -107t-103 -53q-61 0 -81 53zM671 704l-35 -176q-44 -223 -284 -223h-47l-6 -29l-36 -182h267l-19 -94h-460l55 276l33 164l53 264h193l-53 -264l-8 -41h47q46 0 72 129l35 176h193z" />
    <glyph glyph-name="UkaliqDigitFifteen_UkaliqModifierDot" unicode="&#xee5f;&#x331;" 
d="M268 -237q-20 53 21 107q41 53 103 53q61 0 81 -53q20 -54 -21 -107t-103 -53q-61 0 -81 53zM385 704l-53 -264l-8 -41h93l8 41l53 264h193l-52 -264l-33 -164l-15 -77q-40 -199 -280 -199h-240l55 276l33 164l53 264h193zM398 305h-93l-6 -29l-36 -182h47q46 0 67 105
l15 77z" />
    <glyph glyph-name="UkaliqLetterSchwa_UkaliqModifierDot" unicode="&#xee60;&#x331;" 
d="M159 414h436l-25 -125h-436zM268 -237q-20 53 21 107q41 53 103 53q61 0 81 -53q20 -54 -21 -107t-103 -53q-61 0 -81 53zM217 704h436l-26 -126h-435z" />
    <glyph glyph-name="UkaliqLetterOhgo_UkaliqModifierDot" unicode="&#xee61;&#x331;" 
d="M150 399h182q278 0 234 -223l-35 -176h-194l35 176q26 129 -59 129h-182zM297 -237q-20 53 21 107q42 53 103 53t82 -53q20 -54 -22 -107q-41 -53 -103 -53q-61 0 -81 53zM217 704h436l-26 -126h-435z" />
    <glyph glyph-name="UkaliqLetterArha_UkaliqModifierDot" unicode="&#xee62;&#x331;" 
d="M633 610h-182q-85 0 -106 -106q-21 -105 64 -105h182l-19 -94h-182q-278 0 -238 199q40 200 318 200h182zM268 -237q-20 53 21 107q41 53 103 53q61 0 81 -53q20 -54 -21 -107t-103 -53q-61 0 -81 53z" />
    <glyph glyph-name="UkaliqLetterAva_UkaliqModifierDot" unicode="&#xee63;&#x331;" 
d="M297 -237q-20 53 21 107q42 53 103 53t82 -53q20 -54 -22 -107q-41 -53 -103 -53q-61 0 -81 53zM633 610h-182q-85 0 -106 -106q-21 -105 26 -105h239l-79 -399h-194l61 305h-46q-240 0 -200 199q40 200 318 200h182z" />
    <glyph glyph-name="UkaliqLetterEzre_UkaliqModifierDot" unicode="&#xee64;&#x331;" 
d="M572 305h-182q-85 0 -110 -129l-36 -176h-193l35 176q45 223 323 223h182zM268 -237q-20 53 21 107q41 53 103 53q61 0 81 -53q20 -54 -21 -107t-103 -53q-61 0 -81 53zM217 704h436l-26 -126h-435z" />
    <glyph glyph-name="UkaliqLetterUghu_UkaliqModifierDot" unicode="&#xee65;&#x331;" 
d="M51 0l35 176q45 223 285 223q239 0 195 -223l-35 -176h-194l35 176q26 129 -20 129q-47 0 -72 -129l-36 -176h-193zM297 -237q-20 53 21 107q42 53 103 53t82 -53q20 -54 -22 -107q-41 -53 -103 -53q-61 0 -81 53zM217 704h436l-26 -126h-435z" />
    <glyph glyph-name="UkaliqLetterIjji_UkaliqModifierDot" unicode="&#xee66;&#x331;" 
d="M268 -237q-20 53 21 107q41 53 103 53q61 0 81 -53q20 -54 -21 -107t-103 -53q-61 0 -81 53zM633 610h-182q-85 0 -106 -106l-15 -76l-6 -29h267l-19 -94h-267l-8 -41l-53 -264h-193l53 264l33 164l15 76q40 200 318 200h182z" />
    <glyph glyph-name="UkaliqLetterOdho_UkaliqModifierDot" unicode="&#xee67;&#x331;" 
d="M297 -237q-20 53 21 107q42 53 103 53t82 -53q20 -54 -22 -107q-41 -53 -103 -53q-61 0 -81 53zM633 610h-182q-85 0 -106 -106l-15 -76l-6 -29h47q239 0 195 -223l-35 -176h-194l35 176q26 129 -20 129h-47l-8 -41l-53 -264h-193l53 264l33 164l15 76q40 200 318 200
h182z" />
    <glyph glyph-name="UkaliqLetterOhho_UkaliqModifierDot" unicode="&#xee68;&#x331;" 
d="M211 704q460 0 410 -251q-29 -148 -308 -148h-182l19 94h182q85 0 96 54q31 157 -236 157zM268 -237q-20 53 21 107q41 53 103 53q61 0 81 -53q20 -54 -21 -107t-103 -53q-61 0 -81 53z" />
    <glyph glyph-name="UkaliqLetterAha_UkaliqModifierDot" unicode="&#xee69;&#x331;" 
d="M211 704q460 0 402 -291l-30 -149l-52 -264h-194l53 264l8 41h-267l19 94h267l3 14q39 197 -228 197zM297 -237q-20 53 21 107q42 53 103 53t82 -53q20 -54 -22 -107q-41 -53 -103 -53q-61 0 -81 53z" />
    <glyph glyph-name="UkaliqLetterAqha_UkaliqModifierDot" unicode="&#xee6a;&#x331;" 
d="M268 -237q-20 53 21 107q41 53 103 53q61 0 81 -53q20 -54 -21 -107t-103 -53q-61 0 -81 53zM345 504q-21 -105 26 -105q46 0 57 54q31 157 -63 157q1 0 -20 -106zM152 504q40 200 232 200q287 0 237 -251q-29 -148 -269 -148t-200 199z" />
    <glyph glyph-name="UkaliqLetterAfa_UkaliqModifierDot" unicode="&#xee6b;&#x331;" 
d="M297 -237q-20 53 21 107q42 53 103 53t82 -53q20 -54 -22 -107q-41 -53 -103 -53q-61 0 -81 53zM417 399l3 14q39 197 -55 197q1 0 -20 -106q-21 -105 26 -105h46zM398 305h-46q-240 0 -200 199q40 200 232 200q287 0 229 -291l-30 -149l-52 -264h-194l53 264z" />
    <glyph glyph-name="UkaliqLetterEsre_UkaliqModifierDot" unicode="&#xee6c;&#x331;" 
d="M211 704q460 0 410 -251q-29 -148 -269 -148h-47l-61 -305h-193l80 399h240q46 0 57 54q31 157 -236 157zM268 -237q-20 53 21 107q41 53 103 53q61 0 81 -53q20 -54 -21 -107t-103 -53q-61 0 -81 53z" />
    <glyph glyph-name="UkaliqLetterUkhu_UkaliqModifierDot" unicode="&#xee6d;&#x331;" 
d="M211 704q460 0 402 -291l-30 -149l-52 -264h-194l53 264l8 41h-46q-47 0 -72 -129l-36 -176h-193l35 176q45 223 285 223h46l3 14q39 197 -228 197zM297 -237q-20 53 21 107q42 53 103 53t82 -53q20 -54 -22 -107q-41 -53 -103 -53q-61 0 -81 53z" />
    <glyph glyph-name="UkaliqLetterIcji_UkaliqModifierDot" unicode="&#xee6e;&#x331;" 
d="M268 -237q-20 53 21 107q41 53 103 53q61 0 81 -53q20 -54 -21 -107t-103 -53q-61 0 -81 53zM305 305l-8 -41l-53 -264h-193l53 264l33 164l15 76q40 200 232 200q287 0 237 -251q-29 -148 -269 -148h-47zM324 399h47q46 0 57 54q31 157 -63 157q1 0 -20 -106l-15 -76z
" />
    <glyph glyph-name="UkaliqLetterOtho_UkaliqModifierDot" unicode="&#xee6f;&#x331;" 
d="M297 -237q-20 53 21 107q42 53 103 53t82 -53q20 -54 -22 -107q-41 -53 -103 -53q-61 0 -81 53zM51 0l53 264l33 164l15 76q40 200 232 200q287 0 229 -291l-30 -149l-52 -264h-194l53 264l8 41h-93l-8 -41l-53 -264h-193zM324 399h93l3 14q39 197 -55 197q1 0 -20 -106
l-15 -76z" />
    <glyph glyph-name="UkaliqIterationMark_UkaliqModifierDot" unicode="&#xee70;&#x331;" 
d="M101 125h436l-25 -125h-436zM159 414h436l-25 -125h-436zM268 -237q-20 53 21 107q41 53 103 53q61 0 81 -53q20 -54 -21 -107t-103 -53q-61 0 -81 53zM217 704h436l-26 -126h-435z" />
    <glyph glyph-name="UkaliqPercent_UkaliqModifierDot" unicode="&#xee71;&#x331;" 
d="M150 399h182q278 0 239 -200q-40 -199 -319 -199h-182l19 94h182q85 0 106 105q21 106 -64 106h-182zM268 -237q-20 53 21 107q41 53 103 53q61 0 81 -53q20 -54 -21 -107t-103 -53q-61 0 -81 53zM217 704h436l-26 -126h-435z" />
    <glyph glyph-name="UkaliqLetterAgqa_UkaliqModifierDot" unicode="&#xee72;&#x331;" 
d="M633 610h-182q-85 0 -106 -106q-21 -105 64 -105h182l-19 -94h-182q-278 0 -238 199q40 200 318 200h182zM101 125h436l-25 -125h-436zM268 -237q-20 53 21 107q41 53 103 53q61 0 81 -53q20 -54 -21 -107t-103 -53q-61 0 -81 53z" />
    <glyph glyph-name="UkaliqLetterAba_UkaliqModifierDot" unicode="&#xee73;&#x331;" 
d="M268 -237q-20 53 21 107q41 53 103 53q61 0 81 -53q20 -54 -21 -107t-103 -53q-61 0 -81 53zM566 610h-148q-52 0 -73 -106q-21 -105 26 -105h239l-39 -200q-40 -199 -304 -199h-168l19 94h167q71 0 92 105l21 106h-46q-240 0 -200 199q40 200 284 200h148z" />
    <glyph glyph-name="UkaliqLetterEdre_UkaliqModifierDot" unicode="&#xee74;&#x331;" 
d="M572 305h-182q-85 0 -106 -106l-21 -105h267l-19 -94h-460l40 199q40 200 318 200h182zM268 -237q-20 53 21 107q41 53 103 53q61 0 81 -53q20 -54 -21 -107t-103 -53q-61 0 -81 53zM217 704h436l-26 -126h-435z" />
    <glyph glyph-name="UkaliqLetterUgu_UkaliqModifierDot" unicode="&#xee75;&#x331;" 
d="M268 -237q-20 53 21 107q41 53 103 53q61 0 81 -53q20 -54 -21 -107t-103 -53q-61 0 -81 53zM217 704h436l-26 -126h-435zM284 199l-21 -105h47q46 0 67 105q21 106 -25 106q-47 0 -68 -106zM91 199q40 200 280 200q239 0 200 -200q-40 -199 -280 -199h-240z" />
    <glyph glyph-name="UkaliqLetterIgji_UkaliqModifierDot" unicode="&#xee76;&#x331;" 
d="M268 -237q-20 53 21 107q41 53 103 53q61 0 81 -53q20 -54 -21 -107t-103 -53q-61 0 -81 53zM633 610h-182q-85 0 -106 -106l-15 -76l-6 -29h267l-19 -94h-267l-6 -29l-36 -182h267l-19 -94h-460l55 276l31 152l15 76q40 200 318 200h182z" />
    <glyph glyph-name="UkaliqLetterOdo_UkaliqModifierDot" unicode="&#xee77;&#x331;" 
d="M268 -237q-20 53 21 107q41 53 103 53q61 0 81 -53q20 -54 -21 -107t-103 -53q-61 0 -81 53zM566 610h-148q-52 0 -73 -106l-15 -76l-6 -29h47q239 0 200 -200q-40 -199 -280 -199h-240l55 276l31 152l15 76q40 200 284 200h148zM305 305l-6 -29l-36 -182h47q46 0 67 105
q21 106 -25 106h-47z" />
    <glyph glyph-name="UkaliqLetterOhhko_UkaliqModifierDot" unicode="&#xee78;&#x331;" 
d="M101 125h436l-25 -125h-436zM211 704q460 0 410 -251q-29 -148 -308 -148h-182l19 94h182q85 0 96 54q31 157 -236 157zM268 -237q-20 53 21 107q41 53 103 53q61 0 81 -53q20 -54 -21 -107t-103 -53q-61 0 -81 53z" />
    <glyph glyph-name="UkaliqLetterAhka_UkaliqModifierDot" unicode="&#xee79;&#x331;" 
d="M211 704q460 0 402 -291l-27 -137l-15 -77q-40 -199 -319 -199h-182l19 94h182q85 0 106 105l15 77l6 29h-267l19 94h267l3 14q39 197 -228 197zM268 -237q-20 53 21 107q41 53 103 53q61 0 81 -53q20 -54 -21 -107t-103 -53q-61 0 -81 53z" />
    <glyph glyph-name="UkaliqLetterAqa_UkaliqModifierDot" unicode="&#xee7a;&#x331;" 
d="M101 125h436l-25 -125h-436zM268 -237q-20 53 21 107q41 53 103 53q61 0 81 -53q20 -54 -21 -107t-103 -53q-61 0 -81 53zM345 504q-21 -105 26 -105q46 0 57 54q31 157 -63 157q1 0 -20 -106zM152 504q40 200 232 200q287 0 237 -251q-29 -148 -269 -148t-200 199z" />
    <glyph glyph-name="UkaliqLetterApa_UkaliqModifierDot" unicode="&#xee7b;&#x331;" 
d="M268 -237q-20 53 21 107q41 53 103 53q61 0 81 -53q20 -54 -21 -107t-103 -53q-61 0 -81 53zM417 399l3 14q39 197 -55 197q1 0 -20 -106q-21 -105 26 -105h46zM398 305h-46q-240 0 -200 199q40 200 232 200q287 0 229 -291l-27 -137l-15 -77q-40 -199 -304 -199h-168
l19 94h167q71 0 92 105l15 77z" />
    <glyph glyph-name="UkaliqLetterEtre_UkaliqModifierDot" unicode="&#xee7c;&#x331;" 
d="M279 704q392 0 342 -251q-29 -148 -269 -148h-47l-42 -211h238l-19 -94h-431l80 399h240q46 0 57 54q31 157 -168 157zM268 -237q-20 53 21 107q41 53 103 53q61 0 81 -53q20 -54 -21 -107t-103 -53q-61 0 -81 53z" />
    <glyph glyph-name="UkaliqLetterUku_UkaliqModifierDot" unicode="&#xee7d;&#x331;" 
d="M279 704q392 0 334 -291l-27 -137l-15 -77q-40 -199 -280 -199h-240l40 199q40 200 280 200h46l3 14q39 197 -160 197zM268 -237q-20 53 21 107q41 53 103 53q61 0 81 -53q20 -54 -21 -107t-103 -53q-61 0 -81 53zM398 305h-46q-47 0 -68 -106l-21 -105h47q46 0 67 105
l15 77z" />
    <glyph glyph-name="UkaliqLetterIci_UkaliqModifierDot" unicode="&#xee7e;&#x331;" 
d="M268 -237q-20 53 21 107q41 53 103 53q61 0 81 -53q20 -54 -21 -107t-103 -53q-61 0 -81 53zM305 305l-6 -29l-36 -182h238l-19 -94h-431l55 276l31 152l15 76q40 200 232 200q287 0 237 -251q-29 -148 -269 -148h-47zM324 399h47q46 0 57 54q31 157 -63 157
q1 0 -20 -106l-15 -76z" />
    <glyph glyph-name="UkaliqLetterOto_UkaliqModifierDot" unicode="&#xee7f;&#x331;" 
d="M268 -237q-20 53 21 107q41 53 103 53q61 0 81 -53q20 -54 -21 -107t-103 -53q-61 0 -81 53zM417 399l3 14q39 197 -55 197q1 0 -20 -106l-15 -76l-6 -29h93zM398 305h-93l-6 -29l-36 -182h47q46 0 67 105l15 77zM152 504q40 200 232 200q287 0 229 -291l-27 -137
l-15 -77q-40 -199 -280 -199h-240l55 276l31 152z" />
    <glyph glyph-name="UkaliqPatternBlank_UkaliqModifierDot" unicode="&#xf1d00;&#x331;" 
d="M268 -237q-20 53 21 107q41 53 103 53q61 0 81 -53q20 -54 -21 -107t-103 -53q-61 0 -81 53z" />
    <glyph glyph-name="UkaliqPatternSegmentsC_UkaliqModifierDot" unicode="&#xf1d01;&#x331;" 
d="M610 399l-79 -399h-194l80 399h193zM297 -237q-20 53 21 107q42 53 103 53t82 -53q20 -54 -22 -107q-41 -53 -103 -53q-61 0 -81 53z" />
    <glyph glyph-name="UkaliqPatternSegmentsF_UkaliqModifierDot" unicode="&#xf1d02;&#x331;" 
d="M385 704l-80 -399h-193l80 399h193zM268 -237q-20 53 21 107q41 53 103 53q61 0 81 -53q20 -54 -21 -107t-103 -53q-61 0 -81 53z" />
    <glyph glyph-name="UkaliqPatternSegmentsCf_UkaliqModifierDot" unicode="&#xf1d03;&#x331;" 
d="M610 399l-79 -399h-194l80 399h193zM385 704l-80 -399h-193l80 399h193zM297 -237q-20 53 21 107q42 53 103 53t82 -53q20 -54 -22 -107q-41 -53 -103 -53q-61 0 -81 53z" />
    <glyph glyph-name="UkaliqPatternSegmentsE_UkaliqModifierDot" unicode="&#xf1d04;&#x331;" 
d="M324 399l-80 -399h-193l80 399h193zM268 -237q-20 53 21 107q41 53 103 53q61 0 81 -53q20 -54 -21 -107t-103 -53q-61 0 -81 53z" />
    <glyph glyph-name="UkaliqPatternSegmentsCe_UkaliqModifierDot" unicode="&#xf1d05;&#x331;" 
d="M610 399l-79 -399h-194l80 399h193zM324 399l-80 -399h-193l80 399h193zM297 -237q-20 53 21 107q42 53 103 53t82 -53q20 -54 -22 -107q-41 -53 -103 -53q-61 0 -81 53z" />
    <glyph glyph-name="UkaliqPatternSegmentsEf_UkaliqModifierDot" unicode="&#xf1d06;&#x331;" 
d="M385 704l-141 -704h-193l141 704h193zM268 -237q-20 53 21 107q41 53 103 53q61 0 81 -53q20 -54 -21 -107t-103 -53q-61 0 -81 53z" />
    <glyph glyph-name="UkaliqPatternSegmentsCef_UkaliqModifierDot" unicode="&#xf1d07;&#x331;" 
d="M385 704l-141 -704h-193l141 704h193zM610 399l-79 -399h-194l80 399h193zM297 -237q-20 53 21 107q42 53 103 53t82 -53q20 -54 -22 -107q-41 -53 -103 -53q-61 0 -81 53z" />
    <glyph glyph-name="UkaliqPatternSegmentsB_UkaliqModifierDot" unicode="&#xf1d08;&#x331;" 
d="M671 704l-79 -399h-194l80 399h193zM268 -237q-20 53 21 107q41 53 103 53q61 0 81 -53q20 -54 -21 -107t-103 -53q-61 0 -81 53z" />
    <glyph glyph-name="UkaliqPatternSegmentsBc_UkaliqModifierDot" unicode="&#xf1d09;&#x331;" 
d="M671 704l-140 -704h-194l141 704h193zM297 -237q-20 53 21 107q42 53 103 53t82 -53q20 -54 -22 -107q-41 -53 -103 -53q-61 0 -81 53z" />
    <glyph glyph-name="UkaliqPatternSegmentsBf_UkaliqModifierDot" unicode="&#xf1d0a;&#x331;" 
d="M385 704l-80 -399h-193l80 399h193zM671 704l-79 -399h-194l80 399h193zM268 -237q-20 53 21 107q41 53 103 53q61 0 81 -53q20 -54 -21 -107t-103 -53q-61 0 -81 53z" />
    <glyph glyph-name="UkaliqPatternSegmentsBcf_UkaliqModifierDot" unicode="&#xf1d0b;&#x331;" 
d="M671 704l-140 -704h-194l141 704h193zM385 704l-80 -399h-193l80 399h193zM297 -237q-20 53 21 107q42 53 103 53t82 -53q20 -54 -22 -107q-41 -53 -103 -53q-61 0 -81 53z" />
    <glyph glyph-name="UkaliqPatternSegmentsBe_UkaliqModifierDot" unicode="&#xf1d0c;&#x331;" 
d="M671 704l-79 -399h-194l80 399h193zM324 399l-80 -399h-193l80 399h193zM268 -237q-20 53 21 107q41 53 103 53q61 0 81 -53q20 -54 -21 -107t-103 -53q-61 0 -81 53z" />
    <glyph glyph-name="UkaliqPatternSegmentsBce_UkaliqModifierDot" unicode="&#xf1d0d;&#x331;" 
d="M671 704l-140 -704h-194l141 704h193zM324 399l-80 -399h-193l80 399h193zM297 -237q-20 53 21 107q42 53 103 53t82 -53q20 -54 -22 -107q-41 -53 -103 -53q-61 0 -81 53z" />
    <glyph glyph-name="UkaliqPatternSegmentsBef_UkaliqModifierDot" unicode="&#xf1d0e;&#x331;" 
d="M385 704l-141 -704h-193l141 704h193zM671 704l-79 -399h-194l80 399h193zM268 -237q-20 53 21 107q41 53 103 53q61 0 81 -53q20 -54 -21 -107t-103 -53q-61 0 -81 53z" />
    <glyph glyph-name="UkaliqPatternSegmentsBcef_UkaliqModifierDot" unicode="&#xf1d0f;&#x331;" 
d="M671 704l-140 -704h-194l141 704h193zM385 704l-141 -704h-193l141 704h193zM297 -237q-20 53 21 107q42 53 103 53t82 -53q20 -54 -22 -107q-41 -53 -103 -53q-61 0 -81 53z" />
    <glyph glyph-name="UkaliqPatternSegmentsD_UkaliqModifierDot" unicode="&#xf1d10;&#x331;" 
d="M101 125h436l-25 -125h-436zM268 -237q-20 53 21 107q41 53 103 53q61 0 81 -53q20 -54 -21 -107t-103 -53q-61 0 -81 53z" />
    <glyph glyph-name="UkaliqPatternSegmentsCd_UkaliqModifierDot" unicode="&#xf1d11;&#x331;" 
d="M268 -237q-20 53 21 107q41 53 103 53q61 0 81 -53q20 -54 -21 -107t-103 -53q-61 0 -81 53zM610 399l-35 -176q-44 -223 -323 -223h-182l19 94h182q85 0 111 129l35 176h193z" />
    <glyph glyph-name="UkaliqPatternSegmentsDf_UkaliqModifierDot" unicode="&#xf1d12;&#x331;" 
d="M101 125h436l-25 -125h-436zM385 704l-80 -399h-193l80 399h193zM268 -237q-20 53 21 107q41 53 103 53q61 0 81 -53q20 -54 -21 -107t-103 -53q-61 0 -81 53z" />
    <glyph glyph-name="UkaliqPatternSegmentsCdf_UkaliqModifierDot" unicode="&#xf1d13;&#x331;" 
d="M385 704l-80 -399h-193l80 399h193zM268 -237q-20 53 21 107q41 53 103 53q61 0 81 -53q20 -54 -21 -107t-103 -53q-61 0 -81 53zM610 399l-35 -176q-44 -223 -323 -223h-182l19 94h182q85 0 111 129l35 176h193z" />
    <glyph glyph-name="UkaliqPatternSegmentsDe_UkaliqModifierDot" unicode="&#xf1d14;&#x331;" 
d="M324 399l-61 -305h267l-19 -94h-460l80 399h193zM268 -237q-20 53 21 107q41 53 103 53q61 0 81 -53q20 -54 -21 -107t-103 -53q-61 0 -81 53z" />
    <glyph glyph-name="UkaliqPatternSegmentsCde_UkaliqModifierDot" unicode="&#xf1d15;&#x331;" 
d="M324 399l-61 -305h47q46 0 72 129l35 176h193l-35 -176q-44 -223 -284 -223h-240l80 399h193zM268 -237q-20 53 21 107q41 53 103 53q61 0 81 -53q20 -54 -21 -107t-103 -53q-61 0 -81 53z" />
    <glyph glyph-name="UkaliqPatternSegmentsDef_UkaliqModifierDot" unicode="&#xf1d16;&#x331;" 
d="M385 704l-122 -610h267l-19 -94h-460l141 704h193zM268 -237q-20 53 21 107q41 53 103 53q61 0 81 -53q20 -54 -21 -107t-103 -53q-61 0 -81 53z" />
    <glyph glyph-name="UkaliqPatternSegmentsCdef_UkaliqModifierDot" unicode="&#xf1d17;&#x331;" 
d="M385 704l-122 -610h47q46 0 72 129l35 176h193l-35 -176q-44 -223 -284 -223h-240l141 704h193zM268 -237q-20 53 21 107q41 53 103 53q61 0 81 -53q20 -54 -21 -107t-103 -53q-61 0 -81 53z" />
    <glyph glyph-name="UkaliqPatternSegmentsBd_UkaliqModifierDot" unicode="&#xf1d18;&#x331;" 
d="M101 125h436l-25 -125h-436zM671 704l-79 -399h-194l80 399h193zM268 -237q-20 53 21 107q41 53 103 53q61 0 81 -53q20 -54 -21 -107t-103 -53q-61 0 -81 53z" />
    <glyph glyph-name="UkaliqPatternSegmentsBcd_UkaliqModifierDot" unicode="&#xf1d19;&#x331;" 
d="M671 704l-65 -329q-75 -375 -354 -375h-182l19 94h182q85 0 141 281l66 329h193zM268 -237q-20 53 21 107q41 53 103 53q61 0 81 -53q20 -54 -21 -107t-103 -53q-61 0 -81 53z" />
    <glyph glyph-name="UkaliqPatternSegmentsBdf_UkaliqModifierDot" unicode="&#xf1d1a;&#x331;" 
d="M101 125h436l-25 -125h-436zM385 704l-80 -399h-193l80 399h193zM671 704l-79 -399h-194l80 399h193zM268 -237q-20 53 21 107q41 53 103 53q61 0 81 -53q20 -54 -21 -107t-103 -53q-61 0 -81 53z" />
    <glyph glyph-name="UkaliqPatternSegmentsBcdf_UkaliqModifierDot" unicode="&#xf1d1b;&#x331;" 
d="M385 704l-80 -399h-193l80 399h193zM671 704l-65 -329q-75 -375 -354 -375h-182l19 94h182q85 0 141 281l66 329h193zM268 -237q-20 53 21 107q41 53 103 53q61 0 81 -53q20 -54 -21 -107t-103 -53q-61 0 -81 53z" />
    <glyph glyph-name="UkaliqPatternSegmentsBde_UkaliqModifierDot" unicode="&#xf1d1c;&#x331;" 
d="M324 399l-61 -305h267l-19 -94h-460l80 399h193zM671 704l-79 -399h-194l80 399h193zM268 -237q-20 53 21 107q41 53 103 53q61 0 81 -53q20 -54 -21 -107t-103 -53q-61 0 -81 53z" />
    <glyph glyph-name="UkaliqPatternSegmentsBcde_UkaliqModifierDot" unicode="&#xf1d1d;&#x331;" 
d="M671 704l-65 -329q-75 -375 -315 -375h-240l80 399h193l-61 -305h47q46 0 102 281l66 329h193zM268 -237q-20 53 21 107q41 53 103 53q61 0 81 -53q20 -54 -21 -107t-103 -53q-61 0 -81 53z" />
    <glyph glyph-name="UkaliqPatternSegmentsBdef_UkaliqModifierDot" unicode="&#xf1d1e;&#x331;" 
d="M385 704l-122 -610h267l-19 -94h-460l141 704h193zM671 704l-79 -399h-194l80 399h193zM268 -237q-20 53 21 107q41 53 103 53q61 0 81 -53q20 -54 -21 -107t-103 -53q-61 0 -81 53z" />
    <glyph glyph-name="UkaliqPatternSegmentsBcdef_UkaliqModifierDot" unicode="&#xf1d1f;&#x331;" 
d="M385 704l-122 -610h47q46 0 102 281l66 329h193l-65 -329q-75 -375 -315 -375h-240l141 704h193zM268 -237q-20 53 21 107q41 53 103 53q61 0 81 -53q20 -54 -21 -107t-103 -53q-61 0 -81 53z" />
    <glyph glyph-name="UkaliqPatternSegmentsA_UkaliqModifierDot" unicode="&#xf1d20;&#x331;" 
d="M268 -237q-20 53 21 107q41 53 103 53q61 0 81 -53q20 -54 -21 -107t-103 -53q-61 0 -81 53zM217 704h436l-26 -126h-435z" />
    <glyph glyph-name="UkaliqPatternSegmentsAc_UkaliqModifierDot" unicode="&#xf1d21;&#x331;" 
d="M610 399l-79 -399h-194l80 399h193zM297 -237q-20 53 21 107q42 53 103 53t82 -53q20 -54 -22 -107q-41 -53 -103 -53q-61 0 -81 53zM217 704h436l-26 -126h-435z" />
    <glyph glyph-name="UkaliqPatternSegmentsAf_UkaliqModifierDot" unicode="&#xf1d22;&#x331;" 
d="M633 610h-182q-85 0 -110 -129l-36 -176h-193l35 176q45 223 323 223h182zM268 -237q-20 53 21 107q41 53 103 53q61 0 81 -53q20 -54 -21 -107t-103 -53q-61 0 -81 53z" />
    <glyph glyph-name="UkaliqPatternSegmentsAcf_UkaliqModifierDot" unicode="&#xf1d23;&#x331;" 
d="M610 399l-79 -399h-194l80 399h193zM633 610h-182q-85 0 -110 -129l-36 -176h-193l35 176q45 223 323 223h182zM297 -237q-20 53 21 107q42 53 103 53t82 -53q20 -54 -22 -107q-41 -53 -103 -53q-61 0 -81 53z" />
    <glyph glyph-name="UkaliqPatternSegmentsAe_UkaliqModifierDot" unicode="&#xf1d24;&#x331;" 
d="M324 399l-80 -399h-193l80 399h193zM268 -237q-20 53 21 107q41 53 103 53q61 0 81 -53q20 -54 -21 -107t-103 -53q-61 0 -81 53zM217 704h436l-26 -126h-435z" />
    <glyph glyph-name="UkaliqPatternSegmentsAce_UkaliqModifierDot" unicode="&#xf1d25;&#x331;" 
d="M610 399l-79 -399h-194l80 399h193zM324 399l-80 -399h-193l80 399h193zM297 -237q-20 53 21 107q42 53 103 53t82 -53q20 -54 -22 -107q-41 -53 -103 -53q-61 0 -81 53zM217 704h436l-26 -126h-435z" />
    <glyph glyph-name="UkaliqPatternSegmentsAef_UkaliqModifierDot" unicode="&#xf1d26;&#x331;" 
d="M633 610h-182q-85 0 -141 -282l-66 -328h-193l66 328q75 376 353 376h182zM268 -237q-20 53 21 107q41 53 103 53q61 0 81 -53q20 -54 -21 -107t-103 -53q-61 0 -81 53z" />
    <glyph glyph-name="UkaliqPatternSegmentsAcef_UkaliqModifierDot" unicode="&#xf1d27;&#x331;" 
d="M633 610h-182q-85 0 -141 -282l-66 -328h-193l66 328q75 376 353 376h182zM610 399l-79 -399h-194l80 399h193zM297 -237q-20 53 21 107q42 53 103 53t82 -53q20 -54 -22 -107q-41 -53 -103 -53q-61 0 -81 53z" />
    <glyph glyph-name="UkaliqPatternSegmentsAb_UkaliqModifierDot" unicode="&#xf1d28;&#x331;" 
d="M211 704q460 0 381 -399h-194q61 305 -206 305zM268 -237q-20 53 21 107q41 53 103 53q61 0 81 -53q20 -54 -21 -107t-103 -53q-61 0 -81 53z" />
    <glyph glyph-name="UkaliqPatternSegmentsAbc_UkaliqModifierDot" unicode="&#xf1d29;&#x331;" 
d="M211 704q460 0 320 -704h-194q122 610 -145 610zM297 -237q-20 53 21 107q42 53 103 53t82 -53q20 -54 -22 -107q-41 -53 -103 -53q-61 0 -81 53z" />
    <glyph glyph-name="UkaliqPatternSegmentsAbf_UkaliqModifierDot" unicode="&#xf1d2a;&#x331;" 
d="M112 305l35 176q45 223 237 223q287 0 208 -399h-194q61 305 -33 305q1 0 -24 -129l-36 -176h-193zM268 -237q-20 53 21 107q41 53 103 53q61 0 81 -53q20 -54 -21 -107t-103 -53q-61 0 -81 53z" />
    <glyph glyph-name="UkaliqPatternSegmentsAbcf_UkaliqModifierDot" unicode="&#xf1d2b;&#x331;" 
d="M112 305l35 176q45 223 237 223q287 0 147 -704h-194q122 610 28 610q1 0 -24 -129l-36 -176h-193zM297 -237q-20 53 21 107q42 53 103 53t82 -53q20 -54 -22 -107q-41 -53 -103 -53q-61 0 -81 53z" />
    <glyph glyph-name="UkaliqPatternSegmentsAbe_UkaliqModifierDot" unicode="&#xf1d2c;&#x331;" 
d="M211 704q460 0 381 -399h-194q61 305 -206 305zM324 399l-80 -399h-193l80 399h193zM268 -237q-20 53 21 107q41 53 103 53q61 0 81 -53q20 -54 -21 -107t-103 -53q-61 0 -81 53z" />
    <glyph glyph-name="UkaliqPatternSegmentsAbce_UkaliqModifierDot" unicode="&#xf1d2d;&#x331;" 
d="M211 704q460 0 320 -704h-194q122 610 -145 610zM324 399l-80 -399h-193l80 399h193zM297 -237q-20 53 21 107q42 53 103 53t82 -53q20 -54 -22 -107q-41 -53 -103 -53q-61 0 -81 53z" />
    <glyph glyph-name="UkaliqPatternSegmentsAbef_UkaliqModifierDot" unicode="&#xf1d2e;&#x331;" 
d="M398 305q61 305 -33 305q1 0 -55 -282l-66 -328h-193l66 328q75 376 267 376q287 0 208 -399h-194zM268 -237q-20 53 21 107q41 53 103 53q61 0 81 -53q20 -54 -21 -107t-103 -53q-61 0 -81 53z" />
    <glyph glyph-name="UkaliqPatternSegmentsAbcef_UkaliqModifierDot" unicode="&#xf1d2f;&#x331;" 
d="M51 0l66 328q75 376 267 376q287 0 147 -704h-194q122 610 28 610q1 0 -55 -282l-66 -328h-193zM297 -237q-20 53 21 107q42 53 103 53t82 -53q20 -54 -22 -107q-41 -53 -103 -53q-61 0 -81 53z" />
    <glyph glyph-name="UkaliqPatternSegmentsAd_UkaliqModifierDot" unicode="&#xf1d30;&#x331;" 
d="M101 125h436l-25 -125h-436zM268 -237q-20 53 21 107q41 53 103 53q61 0 81 -53q20 -54 -21 -107t-103 -53q-61 0 -81 53zM217 704h436l-26 -126h-435z" />
    <glyph glyph-name="UkaliqPatternSegmentsAcd_UkaliqModifierDot" unicode="&#xf1d31;&#x331;" 
d="M268 -237q-20 53 21 107q41 53 103 53q61 0 81 -53q20 -54 -21 -107t-103 -53q-61 0 -81 53zM610 399l-35 -176q-44 -223 -323 -223h-182l19 94h182q85 0 111 129l35 176h193zM217 704h436l-26 -126h-435z" />
    <glyph glyph-name="UkaliqPatternSegmentsAdf_UkaliqModifierDot" unicode="&#xf1d32;&#x331;" 
d="M101 125h436l-25 -125h-436zM633 610h-182q-85 0 -110 -129l-36 -176h-193l35 176q45 223 323 223h182zM268 -237q-20 53 21 107q41 53 103 53q61 0 81 -53q20 -54 -21 -107t-103 -53q-61 0 -81 53z" />
    <glyph glyph-name="UkaliqPatternSegmentsAcdf_UkaliqModifierDot" unicode="&#xf1d33;&#x331;" 
d="M633 610h-182q-85 0 -110 -129l-36 -176h-193l35 176q45 223 323 223h182zM268 -237q-20 53 21 107q41 53 103 53q61 0 81 -53q20 -54 -21 -107t-103 -53q-61 0 -81 53zM610 399l-35 -176q-44 -223 -323 -223h-182l19 94h182q85 0 111 129l35 176h193z" />
    <glyph glyph-name="UkaliqPatternSegmentsAde_UkaliqModifierDot" unicode="&#xf1d34;&#x331;" 
d="M324 399l-61 -305h267l-19 -94h-460l80 399h193zM268 -237q-20 53 21 107q41 53 103 53q61 0 81 -53q20 -54 -21 -107t-103 -53q-61 0 -81 53zM217 704h436l-26 -126h-435z" />
    <glyph glyph-name="UkaliqPatternSegmentsAcde_UkaliqModifierDot" unicode="&#xf1d35;&#x331;" 
d="M324 399l-61 -305h47q46 0 72 129l35 176h193l-35 -176q-44 -223 -284 -223h-240l80 399h193zM268 -237q-20 53 21 107q41 53 103 53q61 0 81 -53q20 -54 -21 -107t-103 -53q-61 0 -81 53zM217 704h436l-26 -126h-435z" />
    <glyph glyph-name="UkaliqPatternSegmentsAdef_UkaliqModifierDot" unicode="&#xf1d36;&#x331;" 
d="M633 610h-182q-85 0 -136 -258l-52 -258h267l-19 -94h-460l70 352q71 352 349 352h182zM268 -237q-20 53 21 107q41 53 103 53q61 0 81 -53q20 -54 -21 -107t-103 -53q-61 0 -81 53z" />
    <glyph glyph-name="UkaliqPatternSegmentsAcdef_UkaliqModifierDot" unicode="&#xf1d37;&#x331;" 
d="M633 610h-182q-85 0 -136 -258l-52 -258h47q46 0 72 129l35 176h193l-35 -176q-44 -223 -284 -223h-240l70 352q71 352 349 352h182zM268 -237q-20 53 21 107q41 53 103 53q61 0 81 -53q20 -54 -21 -107t-103 -53q-61 0 -81 53z" />
    <glyph glyph-name="UkaliqPatternSegmentsAbd_UkaliqModifierDot" unicode="&#xf1d38;&#x331;" 
d="M101 125h436l-25 -125h-436zM211 704q460 0 381 -399h-194q61 305 -206 305zM268 -237q-20 53 21 107q41 53 103 53q61 0 81 -53q20 -54 -21 -107t-103 -53q-61 0 -81 53z" />
    <glyph glyph-name="UkaliqPatternSegmentsAbcd_UkaliqModifierDot" unicode="&#xf1d39;&#x331;" 
d="M211 704q460 0 370 -454q-50 -250 -329 -250h-182l19 94h182q85 0 116 156q72 360 -195 360zM268 -237q-20 53 21 107q41 53 103 53q61 0 81 -53q20 -54 -21 -107t-103 -53q-61 0 -81 53z" />
    <glyph glyph-name="UkaliqPatternSegmentsAbdf_UkaliqModifierDot" unicode="&#xf1d3a;&#x331;" 
d="M101 125h436l-25 -125h-436zM112 305l35 176q45 223 237 223q287 0 208 -399h-194q61 305 -33 305q1 0 -24 -129l-36 -176h-193zM268 -237q-20 53 21 107q41 53 103 53q61 0 81 -53q20 -54 -21 -107t-103 -53q-61 0 -81 53z" />
    <glyph glyph-name="UkaliqPatternSegmentsAbcdf_UkaliqModifierDot" unicode="&#xf1d3b;&#x331;" 
d="M112 305l35 176q45 223 237 223q287 0 197 -454q-50 -250 -329 -250h-182l19 94h182q85 0 116 156q72 360 -22 360q1 0 -24 -129l-36 -176h-193zM268 -237q-20 53 21 107q41 53 103 53q61 0 81 -53q20 -54 -21 -107t-103 -53q-61 0 -81 53z" />
    <glyph glyph-name="UkaliqPatternSegmentsAbde_UkaliqModifierDot" unicode="&#xf1d3c;&#x331;" 
d="M211 704q460 0 381 -399h-194q61 305 -206 305zM324 399l-61 -305h267l-19 -94h-460l80 399h193zM268 -237q-20 53 21 107q41 53 103 53q61 0 81 -53q20 -54 -21 -107t-103 -53q-61 0 -81 53z" />
    <glyph glyph-name="UkaliqPatternSegmentsAbcde_UkaliqModifierDot" unicode="&#xf1d3d;&#x331;" 
d="M211 704q460 0 370 -454q-50 -250 -290 -250h-240l80 399h193l-61 -305h47q46 0 77 156q72 360 -195 360zM268 -237q-20 53 21 107q41 53 103 53q61 0 81 -53q20 -54 -21 -107t-103 -53q-61 0 -81 53z" />
    <glyph glyph-name="UkaliqPatternSegmentsAbdef_UkaliqModifierDot" unicode="&#xf1d3e;&#x331;" 
d="M398 305q61 305 -33 305q1 0 -50 -258l-52 -258h267l-19 -94h-460l70 352q71 352 263 352q287 0 208 -399h-194zM268 -237q-20 53 21 107q41 53 103 53q61 0 81 -53q20 -54 -21 -107t-103 -53q-61 0 -81 53z" />
    <glyph glyph-name="UkaliqPatternSegmentsAbcdef_UkaliqModifierDot" unicode="&#xf1d3f;&#x331;" 
d="M268 -237q-20 53 21 107q41 53 103 53q61 0 81 -53q20 -54 -21 -107t-103 -53q-61 0 -81 53zM315 352l-52 -258h47q46 0 77 156q72 360 -22 360q1 0 -50 -258zM121 352q71 352 263 352q287 0 197 -454q-50 -250 -290 -250h-240z" />
    <glyph glyph-name="UkaliqPatternSegmentsG_UkaliqModifierDot" unicode="&#xf1d40;&#x331;" 
d="M159 414h436l-25 -125h-436zM268 -237q-20 53 21 107q41 53 103 53q61 0 81 -53q20 -54 -21 -107t-103 -53q-61 0 -81 53z" />
    <glyph glyph-name="UkaliqPatternSegmentsCg_UkaliqModifierDot" unicode="&#xf1d41;&#x331;" 
d="M150 399h182q278 0 234 -223l-35 -176h-194l35 176q26 129 -59 129h-182zM297 -237q-20 53 21 107q42 53 103 53t82 -53q20 -54 -22 -107q-41 -53 -103 -53q-61 0 -81 53z" />
    <glyph glyph-name="UkaliqPatternSegmentsFg_UkaliqModifierDot" unicode="&#xf1d42;&#x331;" 
d="M385 704l-35 -176q-26 -129 59 -129h182l-19 -94h-182q-278 0 -234 223l36 176h193zM268 -237q-20 53 21 107q41 53 103 53q61 0 81 -53q20 -54 -21 -107t-103 -53q-61 0 -81 53z" />
    <glyph glyph-name="UkaliqPatternSegmentsCfg_UkaliqModifierDot" unicode="&#xf1d43;&#x331;" 
d="M297 -237q-20 53 21 107q42 53 103 53t82 -53q20 -54 -22 -107q-41 -53 -103 -53q-61 0 -81 53zM385 704l-35 -176q-26 -129 21 -129h239l-79 -399h-194l61 305h-46q-240 0 -196 223l36 176h193z" />
    <glyph glyph-name="UkaliqPatternSegmentsEg_UkaliqModifierDot" unicode="&#xf1d44;&#x331;" 
d="M572 305h-182q-85 0 -110 -129l-36 -176h-193l35 176q45 223 323 223h182zM268 -237q-20 53 21 107q41 53 103 53q61 0 81 -53q20 -54 -21 -107t-103 -53q-61 0 -81 53z" />
    <glyph glyph-name="UkaliqPatternSegmentsCeg_UkaliqModifierDot" unicode="&#xf1d45;&#x331;" 
d="M51 0l35 176q45 223 285 223q239 0 195 -223l-35 -176h-194l35 176q26 129 -20 129q-47 0 -72 -129l-36 -176h-193zM297 -237q-20 53 21 107q42 53 103 53t82 -53q20 -54 -22 -107q-41 -53 -103 -53q-61 0 -81 53z" />
    <glyph glyph-name="UkaliqPatternSegmentsEfg_UkaliqModifierDot" unicode="&#xf1d46;&#x331;" 
d="M268 -237q-20 53 21 107q41 53 103 53q61 0 81 -53q20 -54 -21 -107t-103 -53q-61 0 -81 53zM385 704l-53 -264l-8 -41h267l-19 -94h-267l-8 -41l-53 -264h-193l53 264l35 176l53 264h193z" />
    <glyph glyph-name="UkaliqPatternSegmentsCefg_UkaliqModifierDot" unicode="&#xf1d47;&#x331;" 
d="M297 -237q-20 53 21 107q42 53 103 53t82 -53q20 -54 -22 -107q-41 -53 -103 -53q-61 0 -81 53zM385 704l-53 -264l-8 -41h47q239 0 195 -223l-35 -176h-194l35 176q26 129 -20 129h-47l-8 -41l-53 -264h-193l53 264l35 176l53 264h193z" />
    <glyph glyph-name="UkaliqPatternSegmentsBg_UkaliqModifierDot" unicode="&#xf1d48;&#x331;" 
d="M671 704l-35 -176q-44 -223 -323 -223h-182l19 94h182q85 0 111 129l35 176h193zM268 -237q-20 53 21 107q41 53 103 53q61 0 81 -53q20 -54 -21 -107t-103 -53q-61 0 -81 53z" />
    <glyph glyph-name="UkaliqPatternSegmentsBcg_UkaliqModifierDot" unicode="&#xf1d49;&#x331;" 
d="M671 704l-52 -264l-36 -176l-52 -264h-194l53 264l8 41h-267l19 94h267l8 41l53 264h193zM297 -237q-20 53 21 107q42 53 103 53t82 -53q20 -54 -22 -107q-41 -53 -103 -53q-61 0 -81 53z" />
    <glyph glyph-name="UkaliqPatternSegmentsBfg_UkaliqModifierDot" unicode="&#xf1d4a;&#x331;" 
d="M385 704l-35 -176q-26 -129 21 -129q46 0 72 129l35 176h193l-35 -176q-44 -223 -284 -223t-196 223l36 176h193zM268 -237q-20 53 21 107q41 53 103 53q61 0 81 -53q20 -54 -21 -107t-103 -53q-61 0 -81 53z" />
    <glyph glyph-name="UkaliqPatternSegmentsBcfg_UkaliqModifierDot" unicode="&#xf1d4b;&#x331;" 
d="M297 -237q-20 53 21 107q42 53 103 53t82 -53q20 -54 -22 -107q-41 -53 -103 -53q-61 0 -81 53zM385 704l-35 -176q-26 -129 21 -129h46l8 41l53 264h193l-52 -264l-36 -176l-52 -264h-194l53 264l8 41h-46q-240 0 -196 223l36 176h193z" />
    <glyph glyph-name="UkaliqPatternSegmentsBeg_UkaliqModifierDot" unicode="&#xf1d4c;&#x331;" 
d="M671 704l-35 -176q-44 -223 -284 -223h-47l-61 -305h-193l80 399h240q46 0 72 129l35 176h193zM268 -237q-20 53 21 107q41 53 103 53q61 0 81 -53q20 -54 -21 -107t-103 -53q-61 0 -81 53z" />
    <glyph glyph-name="UkaliqPatternSegmentsBceg_UkaliqModifierDot" unicode="&#xf1d4d;&#x331;" 
d="M671 704l-52 -264l-36 -176l-52 -264h-194l53 264l8 41h-46q-47 0 -72 -129l-36 -176h-193l35 176q45 223 285 223h46l8 41l53 264h193zM297 -237q-20 53 21 107q42 53 103 53t82 -53q20 -54 -22 -107q-41 -53 -103 -53q-61 0 -81 53z" />
    <glyph glyph-name="UkaliqPatternSegmentsBefg_UkaliqModifierDot" unicode="&#xf1d4e;&#x331;" 
d="M268 -237q-20 53 21 107q41 53 103 53q61 0 81 -53q20 -54 -21 -107t-103 -53q-61 0 -81 53zM671 704l-35 -176q-44 -223 -284 -223h-47l-8 -41l-53 -264h-193l53 264l35 176l53 264h193l-53 -264l-8 -41h47q46 0 72 129l35 176h193z" />
    <glyph glyph-name="UkaliqPatternSegmentsBcefg_UkaliqModifierDot" unicode="&#xf1d4f;&#x331;" 
d="M297 -237q-20 53 21 107q42 53 103 53t82 -53q20 -54 -22 -107q-41 -53 -103 -53q-61 0 -81 53zM671 704l-52 -264l-36 -176l-52 -264h-194l53 264l8 41h-93l-8 -41l-53 -264h-193l53 264l35 176l53 264h193l-53 -264l-8 -41h93l8 41l53 264h193z" />
    <glyph glyph-name="UkaliqPatternSegmentsDg_UkaliqModifierDot" unicode="&#xf1d50;&#x331;" 
d="M101 125h436l-25 -125h-436zM159 414h436l-25 -125h-436zM268 -237q-20 53 21 107q41 53 103 53q61 0 81 -53q20 -54 -21 -107t-103 -53q-61 0 -81 53z" />
    <glyph glyph-name="UkaliqPatternSegmentsCdg_UkaliqModifierDot" unicode="&#xf1d51;&#x331;" 
d="M150 399h182q278 0 239 -200q-40 -199 -319 -199h-182l19 94h182q85 0 106 105q21 106 -64 106h-182zM268 -237q-20 53 21 107q41 53 103 53q61 0 81 -53q20 -54 -21 -107t-103 -53q-61 0 -81 53z" />
    <glyph glyph-name="UkaliqPatternSegmentsDfg_UkaliqModifierDot" unicode="&#xf1d52;&#x331;" 
d="M385 704l-35 -176q-26 -129 59 -129h182l-19 -94h-182q-278 0 -234 223l36 176h193zM101 125h436l-25 -125h-436zM268 -237q-20 53 21 107q41 53 103 53q61 0 81 -53q20 -54 -21 -107t-103 -53q-61 0 -81 53z" />
    <glyph glyph-name="UkaliqPatternSegmentsCdfg_UkaliqModifierDot" unicode="&#xf1d53;&#x331;" 
d="M268 -237q-20 53 21 107q41 53 103 53q61 0 81 -53q20 -54 -21 -107t-103 -53q-61 0 -81 53zM385 704l-35 -176q-26 -129 21 -129h239l-39 -200q-40 -199 -319 -199h-182l19 94h182q85 0 106 105l21 106h-46q-240 0 -196 223l36 176h193z" />
    <glyph glyph-name="UkaliqPatternSegmentsDeg_UkaliqModifierDot" unicode="&#xf1d54;&#x331;" 
d="M572 305h-182q-85 0 -106 -106l-21 -105h267l-19 -94h-460l40 199q40 200 318 200h182zM268 -237q-20 53 21 107q41 53 103 53q61 0 81 -53q20 -54 -21 -107t-103 -53q-61 0 -81 53z" />
    <glyph glyph-name="UkaliqPatternSegmentsCdeg_UkaliqModifierDot" unicode="&#xf1d55;&#x331;" 
d="M268 -237q-20 53 21 107q41 53 103 53q61 0 81 -53q20 -54 -21 -107t-103 -53q-61 0 -81 53zM284 199l-21 -105h47q46 0 67 105q21 106 -25 106q-47 0 -68 -106zM91 199q40 200 280 200q239 0 200 -200q-40 -199 -280 -199h-240z" />
    <glyph glyph-name="UkaliqPatternSegmentsDefg_UkaliqModifierDot" unicode="&#xf1d56;&#x331;" 
d="M268 -237q-20 53 21 107q41 53 103 53q61 0 81 -53q20 -54 -21 -107t-103 -53q-61 0 -81 53zM385 704l-53 -264l-8 -41h267l-19 -94h-267l-6 -29l-36 -182h267l-19 -94h-460l55 276l33 164l53 264h193z" />
    <glyph glyph-name="UkaliqPatternSegmentsCdefg_UkaliqModifierDot" unicode="&#xf1d57;&#x331;" 
d="M268 -237q-20 53 21 107q41 53 103 53q61 0 81 -53q20 -54 -21 -107t-103 -53q-61 0 -81 53zM385 704l-53 -264l-8 -41h47q239 0 200 -200q-40 -199 -280 -199h-240l55 276l33 164l53 264h193zM305 305l-6 -29l-36 -182h47q46 0 67 105q21 106 -25 106h-47z" />
    <glyph glyph-name="UkaliqPatternSegmentsBdg_UkaliqModifierDot" unicode="&#xf1d58;&#x331;" 
d="M101 125h436l-25 -125h-436zM671 704l-35 -176q-44 -223 -323 -223h-182l19 94h182q85 0 111 129l35 176h193zM268 -237q-20 53 21 107q41 53 103 53q61 0 81 -53q20 -54 -21 -107t-103 -53q-61 0 -81 53z" />
    <glyph glyph-name="UkaliqPatternSegmentsBcdg_UkaliqModifierDot" unicode="&#xf1d59;&#x331;" 
d="M671 704l-52 -264l-33 -164l-15 -77q-40 -199 -319 -199h-182l19 94h182q85 0 106 105l15 77l6 29h-267l19 94h267l8 41l53 264h193zM268 -237q-20 53 21 107q41 53 103 53q61 0 81 -53q20 -54 -21 -107t-103 -53q-61 0 -81 53z" />
    <glyph glyph-name="UkaliqPatternSegmentsBdfg_UkaliqModifierDot" unicode="&#xf1d5a;&#x331;" 
d="M385 704l-35 -176q-26 -129 21 -129q46 0 72 129l35 176h193l-35 -176q-44 -223 -284 -223t-196 223l36 176h193zM101 125h436l-25 -125h-436zM268 -237q-20 53 21 107q41 53 103 53q61 0 81 -53q20 -54 -21 -107t-103 -53q-61 0 -81 53z" />
    <glyph glyph-name="UkaliqPatternSegmentsBcdfg_UkaliqModifierDot" unicode="&#xf1d5b;&#x331;" 
d="M268 -237q-20 53 21 107q41 53 103 53q61 0 81 -53q20 -54 -21 -107t-103 -53q-61 0 -81 53zM385 704l-35 -176q-26 -129 21 -129h46l8 41l53 264h193l-52 -264l-33 -164l-15 -77q-40 -199 -319 -199h-182l19 94h182q85 0 106 105l15 77l6 29h-46q-240 0 -196 223l36 176
h193z" />
    <glyph glyph-name="UkaliqPatternSegmentsBdeg_UkaliqModifierDot" unicode="&#xf1d5c;&#x331;" 
d="M671 704l-35 -176q-44 -223 -284 -223h-47l-42 -211h267l-19 -94h-460l80 399h240q46 0 72 129l35 176h193zM268 -237q-20 53 21 107q41 53 103 53q61 0 81 -53q20 -54 -21 -107t-103 -53q-61 0 -81 53z" />
    <glyph glyph-name="UkaliqPatternSegmentsBcdeg_UkaliqModifierDot" unicode="&#xf1d5d;&#x331;" 
d="M671 704l-52 -264l-33 -164l-15 -77q-40 -199 -280 -199h-240l40 199q40 200 280 200h46l8 41l53 264h193zM268 -237q-20 53 21 107q41 53 103 53q61 0 81 -53q20 -54 -21 -107t-103 -53q-61 0 -81 53zM398 305h-46q-47 0 -68 -106l-21 -105h47q46 0 67 105l15 77z" />
    <glyph glyph-name="UkaliqPatternSegmentsBdefg_UkaliqModifierDot" unicode="&#xf1d5e;&#x331;" 
d="M268 -237q-20 53 21 107q41 53 103 53q61 0 81 -53q20 -54 -21 -107t-103 -53q-61 0 -81 53zM671 704l-35 -176q-44 -223 -284 -223h-47l-6 -29l-36 -182h267l-19 -94h-460l55 276l33 164l53 264h193l-53 -264l-8 -41h47q46 0 72 129l35 176h193z" />
    <glyph glyph-name="UkaliqPatternSegmentsBcdefg_UkaliqModifierDot" unicode="&#xf1d5f;&#x331;" 
d="M268 -237q-20 53 21 107q41 53 103 53q61 0 81 -53q20 -54 -21 -107t-103 -53q-61 0 -81 53zM385 704l-53 -264l-8 -41h93l8 41l53 264h193l-52 -264l-33 -164l-15 -77q-40 -199 -280 -199h-240l55 276l33 164l53 264h193zM398 305h-93l-6 -29l-36 -182h47q46 0 67 105
l15 77z" />
    <glyph glyph-name="UkaliqPatternSegmentsAg_UkaliqModifierDot" unicode="&#xf1d60;&#x331;" 
d="M159 414h436l-25 -125h-436zM268 -237q-20 53 21 107q41 53 103 53q61 0 81 -53q20 -54 -21 -107t-103 -53q-61 0 -81 53zM217 704h436l-26 -126h-435z" />
    <glyph glyph-name="UkaliqPatternSegmentsAcg_UkaliqModifierDot" unicode="&#xf1d61;&#x331;" 
d="M150 399h182q278 0 234 -223l-35 -176h-194l35 176q26 129 -59 129h-182zM297 -237q-20 53 21 107q42 53 103 53t82 -53q20 -54 -22 -107q-41 -53 -103 -53q-61 0 -81 53zM217 704h436l-26 -126h-435z" />
    <glyph glyph-name="UkaliqPatternSegmentsAfg_UkaliqModifierDot" unicode="&#xf1d62;&#x331;" 
d="M633 610h-182q-85 0 -106 -106q-21 -105 64 -105h182l-19 -94h-182q-278 0 -238 199q40 200 318 200h182zM268 -237q-20 53 21 107q41 53 103 53q61 0 81 -53q20 -54 -21 -107t-103 -53q-61 0 -81 53z" />
    <glyph glyph-name="UkaliqPatternSegmentsAcfg_UkaliqModifierDot" unicode="&#xf1d63;&#x331;" 
d="M297 -237q-20 53 21 107q42 53 103 53t82 -53q20 -54 -22 -107q-41 -53 -103 -53q-61 0 -81 53zM633 610h-182q-85 0 -106 -106q-21 -105 26 -105h239l-79 -399h-194l61 305h-46q-240 0 -200 199q40 200 318 200h182z" />
    <glyph glyph-name="UkaliqPatternSegmentsAeg_UkaliqModifierDot" unicode="&#xf1d64;&#x331;" 
d="M572 305h-182q-85 0 -110 -129l-36 -176h-193l35 176q45 223 323 223h182zM268 -237q-20 53 21 107q41 53 103 53q61 0 81 -53q20 -54 -21 -107t-103 -53q-61 0 -81 53zM217 704h436l-26 -126h-435z" />
    <glyph glyph-name="UkaliqPatternSegmentsAceg_UkaliqModifierDot" unicode="&#xf1d65;&#x331;" 
d="M51 0l35 176q45 223 285 223q239 0 195 -223l-35 -176h-194l35 176q26 129 -20 129q-47 0 -72 -129l-36 -176h-193zM297 -237q-20 53 21 107q42 53 103 53t82 -53q20 -54 -22 -107q-41 -53 -103 -53q-61 0 -81 53zM217 704h436l-26 -126h-435z" />
    <glyph glyph-name="UkaliqPatternSegmentsAefg_UkaliqModifierDot" unicode="&#xf1d66;&#x331;" 
d="M268 -237q-20 53 21 107q41 53 103 53q61 0 81 -53q20 -54 -21 -107t-103 -53q-61 0 -81 53zM633 610h-182q-85 0 -106 -106l-15 -76l-6 -29h267l-19 -94h-267l-8 -41l-53 -264h-193l53 264l33 164l15 76q40 200 318 200h182z" />
    <glyph glyph-name="UkaliqPatternSegmentsAcefg_UkaliqModifierDot" unicode="&#xf1d67;&#x331;" 
d="M297 -237q-20 53 21 107q42 53 103 53t82 -53q20 -54 -22 -107q-41 -53 -103 -53q-61 0 -81 53zM633 610h-182q-85 0 -106 -106l-15 -76l-6 -29h47q239 0 195 -223l-35 -176h-194l35 176q26 129 -20 129h-47l-8 -41l-53 -264h-193l53 264l33 164l15 76q40 200 318 200
h182z" />
    <glyph glyph-name="UkaliqPatternSegmentsAbg_UkaliqModifierDot" unicode="&#xf1d68;&#x331;" 
d="M211 704q460 0 410 -251q-29 -148 -308 -148h-182l19 94h182q85 0 96 54q31 157 -236 157zM268 -237q-20 53 21 107q41 53 103 53q61 0 81 -53q20 -54 -21 -107t-103 -53q-61 0 -81 53z" />
    <glyph glyph-name="UkaliqPatternSegmentsAbcg_UkaliqModifierDot" unicode="&#xf1d69;&#x331;" 
d="M211 704q460 0 402 -291l-30 -149l-52 -264h-194l53 264l8 41h-267l19 94h267l3 14q39 197 -228 197zM297 -237q-20 53 21 107q42 53 103 53t82 -53q20 -54 -22 -107q-41 -53 -103 -53q-61 0 -81 53z" />
    <glyph glyph-name="UkaliqPatternSegmentsAbfg_UkaliqModifierDot" unicode="&#xf1d6a;&#x331;" 
d="M268 -237q-20 53 21 107q41 53 103 53q61 0 81 -53q20 -54 -21 -107t-103 -53q-61 0 -81 53zM345 504q-21 -105 26 -105q46 0 57 54q31 157 -63 157q1 0 -20 -106zM152 504q40 200 232 200q287 0 237 -251q-29 -148 -269 -148t-200 199z" />
    <glyph glyph-name="UkaliqPatternSegmentsAbcfg_UkaliqModifierDot" unicode="&#xf1d6b;&#x331;" 
d="M297 -237q-20 53 21 107q42 53 103 53t82 -53q20 -54 -22 -107q-41 -53 -103 -53q-61 0 -81 53zM417 399l3 14q39 197 -55 197q1 0 -20 -106q-21 -105 26 -105h46zM398 305h-46q-240 0 -200 199q40 200 232 200q287 0 229 -291l-30 -149l-52 -264h-194l53 264z" />
    <glyph glyph-name="UkaliqPatternSegmentsAbeg_UkaliqModifierDot" unicode="&#xf1d6c;&#x331;" 
d="M211 704q460 0 410 -251q-29 -148 -269 -148h-47l-61 -305h-193l80 399h240q46 0 57 54q31 157 -236 157zM268 -237q-20 53 21 107q41 53 103 53q61 0 81 -53q20 -54 -21 -107t-103 -53q-61 0 -81 53z" />
    <glyph glyph-name="UkaliqPatternSegmentsAbceg_UkaliqModifierDot" unicode="&#xf1d6d;&#x331;" 
d="M211 704q460 0 402 -291l-30 -149l-52 -264h-194l53 264l8 41h-46q-47 0 -72 -129l-36 -176h-193l35 176q45 223 285 223h46l3 14q39 197 -228 197zM297 -237q-20 53 21 107q42 53 103 53t82 -53q20 -54 -22 -107q-41 -53 -103 -53q-61 0 -81 53z" />
    <glyph glyph-name="UkaliqPatternSegmentsAbefg_UkaliqModifierDot" unicode="&#xf1d6e;&#x331;" 
d="M268 -237q-20 53 21 107q41 53 103 53q61 0 81 -53q20 -54 -21 -107t-103 -53q-61 0 -81 53zM305 305l-8 -41l-53 -264h-193l53 264l33 164l15 76q40 200 232 200q287 0 237 -251q-29 -148 -269 -148h-47zM324 399h47q46 0 57 54q31 157 -63 157q1 0 -20 -106l-15 -76z
" />
    <glyph glyph-name="UkaliqPatternSegmentsAbcefg_UkaliqModifierDot" unicode="&#xf1d6f;&#x331;" 
d="M297 -237q-20 53 21 107q42 53 103 53t82 -53q20 -54 -22 -107q-41 -53 -103 -53q-61 0 -81 53zM51 0l53 264l33 164l15 76q40 200 232 200q287 0 229 -291l-30 -149l-52 -264h-194l53 264l8 41h-93l-8 -41l-53 -264h-193zM324 399h93l3 14q39 197 -55 197q1 0 -20 -106
l-15 -76z" />
    <glyph glyph-name="UkaliqPatternSegmentsAdg_UkaliqModifierDot" unicode="&#xf1d70;&#x331;" 
d="M101 125h436l-25 -125h-436zM159 414h436l-25 -125h-436zM268 -237q-20 53 21 107q41 53 103 53q61 0 81 -53q20 -54 -21 -107t-103 -53q-61 0 -81 53zM217 704h436l-26 -126h-435z" />
    <glyph glyph-name="UkaliqPatternSegmentsAcdg_UkaliqModifierDot" unicode="&#xf1d71;&#x331;" 
d="M150 399h182q278 0 239 -200q-40 -199 -319 -199h-182l19 94h182q85 0 106 105q21 106 -64 106h-182zM268 -237q-20 53 21 107q41 53 103 53q61 0 81 -53q20 -54 -21 -107t-103 -53q-61 0 -81 53zM217 704h436l-26 -126h-435z" />
    <glyph glyph-name="UkaliqPatternSegmentsAdfg_UkaliqModifierDot" unicode="&#xf1d72;&#x331;" 
d="M633 610h-182q-85 0 -106 -106q-21 -105 64 -105h182l-19 -94h-182q-278 0 -238 199q40 200 318 200h182zM101 125h436l-25 -125h-436zM268 -237q-20 53 21 107q41 53 103 53q61 0 81 -53q20 -54 -21 -107t-103 -53q-61 0 -81 53z" />
    <glyph glyph-name="UkaliqPatternSegmentsAcdfg_UkaliqModifierDot" unicode="&#xf1d73;&#x331;" 
d="M268 -237q-20 53 21 107q41 53 103 53q61 0 81 -53q20 -54 -21 -107t-103 -53q-61 0 -81 53zM566 610h-148q-52 0 -73 -106q-21 -105 26 -105h239l-39 -200q-40 -199 -304 -199h-168l19 94h167q71 0 92 105l21 106h-46q-240 0 -200 199q40 200 284 200h148z" />
    <glyph glyph-name="UkaliqPatternSegmentsAdeg_UkaliqModifierDot" unicode="&#xf1d74;&#x331;" 
d="M572 305h-182q-85 0 -106 -106l-21 -105h267l-19 -94h-460l40 199q40 200 318 200h182zM268 -237q-20 53 21 107q41 53 103 53q61 0 81 -53q20 -54 -21 -107t-103 -53q-61 0 -81 53zM217 704h436l-26 -126h-435z" />
    <glyph glyph-name="UkaliqPatternSegmentsAcdeg_UkaliqModifierDot" unicode="&#xf1d75;&#x331;" 
d="M268 -237q-20 53 21 107q41 53 103 53q61 0 81 -53q20 -54 -21 -107t-103 -53q-61 0 -81 53zM217 704h436l-26 -126h-435zM284 199l-21 -105h47q46 0 67 105q21 106 -25 106q-47 0 -68 -106zM91 199q40 200 280 200q239 0 200 -200q-40 -199 -280 -199h-240z" />
    <glyph glyph-name="UkaliqPatternSegmentsAdefg_UkaliqModifierDot" unicode="&#xf1d76;&#x331;" 
d="M268 -237q-20 53 21 107q41 53 103 53q61 0 81 -53q20 -54 -21 -107t-103 -53q-61 0 -81 53zM633 610h-182q-85 0 -106 -106l-15 -76l-6 -29h267l-19 -94h-267l-6 -29l-36 -182h267l-19 -94h-460l55 276l31 152l15 76q40 200 318 200h182z" />
    <glyph glyph-name="UkaliqPatternSegmentsAcdefg_UkaliqModifierDot" unicode="&#xf1d77;&#x331;" 
d="M268 -237q-20 53 21 107q41 53 103 53q61 0 81 -53q20 -54 -21 -107t-103 -53q-61 0 -81 53zM566 610h-148q-52 0 -73 -106l-15 -76l-6 -29h47q239 0 200 -200q-40 -199 -280 -199h-240l55 276l31 152l15 76q40 200 284 200h148zM305 305l-6 -29l-36 -182h47q46 0 67 105
q21 106 -25 106h-47z" />
    <glyph glyph-name="UkaliqPatternSegmentsAbdg_UkaliqModifierDot" unicode="&#xf1d78;&#x331;" 
d="M101 125h436l-25 -125h-436zM211 704q460 0 410 -251q-29 -148 -308 -148h-182l19 94h182q85 0 96 54q31 157 -236 157zM268 -237q-20 53 21 107q41 53 103 53q61 0 81 -53q20 -54 -21 -107t-103 -53q-61 0 -81 53z" />
    <glyph glyph-name="UkaliqPatternSegmentsAbcdg_UkaliqModifierDot" unicode="&#xf1d79;&#x331;" 
d="M211 704q460 0 402 -291l-27 -137l-15 -77q-40 -199 -319 -199h-182l19 94h182q85 0 106 105l15 77l6 29h-267l19 94h267l3 14q39 197 -228 197zM268 -237q-20 53 21 107q41 53 103 53q61 0 81 -53q20 -54 -21 -107t-103 -53q-61 0 -81 53z" />
    <glyph glyph-name="UkaliqPatternSegmentsAbdfg_UkaliqModifierDot" unicode="&#xf1d7a;&#x331;" 
d="M101 125h436l-25 -125h-436zM268 -237q-20 53 21 107q41 53 103 53q61 0 81 -53q20 -54 -21 -107t-103 -53q-61 0 -81 53zM345 504q-21 -105 26 -105q46 0 57 54q31 157 -63 157q1 0 -20 -106zM152 504q40 200 232 200q287 0 237 -251q-29 -148 -269 -148t-200 199z" />
    <glyph glyph-name="UkaliqPatternSegmentsAbcdfg_UkaliqModifierDot" unicode="&#xf1d7b;&#x331;" 
d="M268 -237q-20 53 21 107q41 53 103 53q61 0 81 -53q20 -54 -21 -107t-103 -53q-61 0 -81 53zM417 399l3 14q39 197 -55 197q1 0 -20 -106q-21 -105 26 -105h46zM398 305h-46q-240 0 -200 199q40 200 232 200q287 0 229 -291l-27 -137l-15 -77q-40 -199 -304 -199h-168
l19 94h167q71 0 92 105l15 77z" />
    <glyph glyph-name="UkaliqPatternSegmentsAbdeg_UkaliqModifierDot" unicode="&#xf1d7c;&#x331;" 
d="M279 704q392 0 342 -251q-29 -148 -269 -148h-47l-42 -211h238l-19 -94h-431l80 399h240q46 0 57 54q31 157 -168 157zM268 -237q-20 53 21 107q41 53 103 53q61 0 81 -53q20 -54 -21 -107t-103 -53q-61 0 -81 53z" />
    <glyph glyph-name="UkaliqPatternSegmentsAbcdeg_UkaliqModifierDot" unicode="&#xf1d7d;&#x331;" 
d="M279 704q392 0 334 -291l-27 -137l-15 -77q-40 -199 -280 -199h-240l40 199q40 200 280 200h46l3 14q39 197 -160 197zM268 -237q-20 53 21 107q41 53 103 53q61 0 81 -53q20 -54 -21 -107t-103 -53q-61 0 -81 53zM398 305h-46q-47 0 -68 -106l-21 -105h47q46 0 67 105
l15 77z" />
    <glyph glyph-name="UkaliqPatternSegmentsAbdefg_UkaliqModifierDot" unicode="&#xf1d7e;&#x331;" 
d="M268 -237q-20 53 21 107q41 53 103 53q61 0 81 -53q20 -54 -21 -107t-103 -53q-61 0 -81 53zM305 305l-6 -29l-36 -182h238l-19 -94h-431l55 276l31 152l15 76q40 200 232 200q287 0 237 -251q-29 -148 -269 -148h-47zM324 399h47q46 0 57 54q31 157 -63 157
q1 0 -20 -106l-15 -76z" />
    <glyph glyph-name="UkaliqPatternSegmentsAbcdefg_UkaliqModifierDot" unicode="&#xf1d7f;&#x331;" 
d="M268 -237q-20 53 21 107q41 53 103 53q61 0 81 -53q20 -54 -21 -107t-103 -53q-61 0 -81 53zM417 399l3 14q39 197 -55 197q1 0 -20 -106l-15 -76l-6 -29h93zM398 305h-93l-6 -29l-36 -182h47q46 0 67 105l15 77zM152 504q40 200 232 200q287 0 229 -291l-27 -137
l-15 -77q-40 -199 -280 -199h-240l55 276l31 152z" />
    <glyph glyph-name=".notdef" 
d="M101 125h436l-25 -125h-436zM268 -237q-20 53 21 107q41 53 103 53q61 0 81 -53q20 -54 -21 -107t-103 -53q-61 0 -81 53z" />
    <glyph glyph-name="NULL" horiz-adv-x="0" 
 />
    <glyph glyph-name="uni000D" unicode="&#xd;" horiz-adv-x="0" 
 />
    <glyph glyph-name="uni200D" unicode="&#x200d;" horiz-adv-x="0" 
 />
    <glyph glyph-name="uni200B" unicode="&#x200b;" horiz-adv-x="0" 
 />
    <glyph glyph-name="uni200C" unicode="&#x200c;" horiz-adv-x="0" 
 />
    <glyph glyph-name="uniFEFF" unicode="&#xfeff;" horiz-adv-x="0" 
 />
    <glyph glyph-name="space" unicode=" " 
 />
    <glyph glyph-name="uni00A0" unicode="&#xa0;" 
 />
    <glyph glyph-name="UkaliqModifierDot" unicode="&#x331;" 
d="M268 -237q-20 53 21 107q41 53 103 53q61 0 81 -53q20 -54 -21 -107t-103 -53q-61 0 -81 53z" />
    <glyph glyph-name="uni2002" unicode="&#x2002;" 
 />
    <glyph glyph-name="uni2007" unicode="&#x2007;" 
 />
    <glyph glyph-name="uni2B1B" unicode="&#x2b1b;" 
d="M0 946h578v-1242h-578v1242z" />
    <glyph glyph-name="UkaliqSpace" unicode="&#xee00;" 
 />
    <glyph glyph-name="UkaliqNumber" unicode="&#xee01;" 
d="M610 399l-79 -399h-194l80 399h193z" />
    <glyph glyph-name="UkaliqRightSingleQuotationMark" unicode="&#xee02;" 
d="M385 704l-80 -399h-193l80 399h193z" />
    <glyph glyph-name="UkaliqColon" unicode="&#xee03;" 
d="M610 399l-79 -399h-194l80 399h193zM385 704l-80 -399h-193l80 399h193z" />
    <glyph glyph-name="UkaliqFullStop" unicode="&#xee04;" 
d="M324 399l-80 -399h-193l80 399h193z" />
    <glyph glyph-name="UkaliqComma" unicode="&#xee05;" 
d="M610 399l-79 -399h-194l80 399h193zM324 399l-80 -399h-193l80 399h193z" />
    <glyph glyph-name="UkaliqRightParenthesis" unicode="&#xee06;" 
d="M385 704l-141 -704h-193l141 704h193z" />
    <glyph glyph-name="UkaliqExclamationMark" unicode="&#xee07;" 
d="M385 704l-141 -704h-193l141 704h193zM610 399l-79 -399h-194l80 399h193z" />
    <glyph glyph-name="UkaliqLeftSingleQuotationMark" unicode="&#xee08;" 
d="M671 704l-79 -399h-194l80 399h193z" />
    <glyph glyph-name="UkaliqLeftParenthesis" unicode="&#xee09;" 
d="M671 704l-140 -704h-194l141 704h193z" />
    <glyph glyph-name="UkaliqDoubleQuotationMark" unicode="&#xee0a;" 
d="M385 704l-80 -399h-193l80 399h193zM671 704l-79 -399h-194l80 399h193z" />
    <glyph glyph-name="UkaliqReversedQuestionMark" unicode="&#xee0b;" 
d="M671 704l-140 -704h-194l141 704h193zM385 704l-80 -399h-193l80 399h193z" />
    <glyph glyph-name="UkaliqSemicolon" unicode="&#xee0c;" 
d="M671 704l-79 -399h-194l80 399h193zM324 399l-80 -399h-193l80 399h193z" />
    <glyph glyph-name="UkaliqReversedExclamationMark" unicode="&#xee0d;" 
d="M671 704l-140 -704h-194l141 704h193zM324 399l-80 -399h-193l80 399h193z" />
    <glyph glyph-name="UkaliqQuestionMark" unicode="&#xee0e;" 
d="M385 704l-141 -704h-193l141 704h193zM671 704l-79 -399h-194l80 399h193z" />
    <glyph glyph-name="UkaliqEquals" unicode="&#xee0f;" 
d="M671 704l-140 -704h-194l141 704h193zM385 704l-141 -704h-193l141 704h193z" />
    <glyph glyph-name="UkaliqHyphen" unicode="&#xee10;" 
d="M101 125h436l-25 -125h-436z" />
    <glyph glyph-name="UkaliqLetterOzo" unicode="&#xee11;" 
d="M610 399l-35 -176q-44 -223 -323 -223h-182l19 94h182q85 0 111 129l35 176h193z" />
    <glyph glyph-name="UkaliqGreaterThan" unicode="&#xee12;" 
d="M101 125h436l-25 -125h-436zM385 704l-80 -399h-193l80 399h193z" />
    <glyph glyph-name="UkaliqLetterAtlha" unicode="&#xee13;" 
d="M385 704l-80 -399h-193l80 399h193zM610 399l-35 -176q-44 -223 -323 -223h-182l19 94h182q85 0 111 129l35 176h193z" />
    <glyph glyph-name="UkaliqLetterEdzre" unicode="&#xee14;" 
d="M324 399l-61 -305h267l-19 -94h-460l80 399h193z" />
    <glyph glyph-name="UkaliqOr" unicode="&#xee15;" 
d="M324 399l-61 -305h47q46 0 72 129l35 176h193l-35 -176q-44 -223 -284 -223h-240l80 399h193z" />
    <glyph glyph-name="UkaliqLetterIdzji" unicode="&#xee16;" 
d="M385 704l-122 -610h267l-19 -94h-460l141 704h193z" />
    <glyph glyph-name="UkaliqLetterOdzo" unicode="&#xee17;" 
d="M385 704l-122 -610h47q46 0 72 129l35 176h193l-35 -176q-44 -223 -284 -223h-240l141 704h193z" />
    <glyph glyph-name="UkaliqLessThan" unicode="&#xee18;" 
d="M101 125h436l-25 -125h-436zM671 704l-79 -399h-194l80 399h193z" />
    <glyph glyph-name="UkaliqLetterOso" unicode="&#xee19;" 
d="M671 704l-65 -329q-75 -375 -354 -375h-182l19 94h182q85 0 141 281l66 329h193z" />
    <glyph glyph-name="UkaliqMultiplication" unicode="&#xee1a;" 
d="M101 125h436l-25 -125h-436zM385 704l-80 -399h-193l80 399h193zM671 704l-79 -399h-194l80 399h193z" />
    <glyph glyph-name="UkaliqLetterApfa" unicode="&#xee1b;" 
d="M385 704l-80 -399h-193l80 399h193zM671 704l-65 -329q-75 -375 -354 -375h-182l19 94h182q85 0 141 281l66 329h193z" />
    <glyph glyph-name="UkaliqLetterEtsre" unicode="&#xee1c;" 
d="M324 399l-61 -305h267l-19 -94h-460l80 399h193zM671 704l-79 -399h-194l80 399h193z" />
    <glyph glyph-name="UkaliqLetterUkkhu" unicode="&#xee1d;" 
d="M671 704l-65 -329q-75 -375 -315 -375h-240l80 399h193l-61 -305h47q46 0 102 281l66 329h193z" />
    <glyph glyph-name="UkaliqLetterItsji" unicode="&#xee1e;" 
d="M385 704l-122 -610h267l-19 -94h-460l141 704h193zM671 704l-79 -399h-194l80 399h193z" />
    <glyph glyph-name="UkaliqLetterOtso" unicode="&#xee1f;" 
d="M385 704l-122 -610h47q46 0 102 281l66 329h193l-65 -329q-75 -375 -315 -375h-240l141 704h193z" />
    <glyph glyph-name="UkaliqRange" unicode="&#xee20;" 
d="M217 704h436l-26 -126h-435z" />
    <glyph glyph-name="UkaliqLetterEo" unicode="&#xee21;" 
d="M610 399l-79 -399h-194l80 399h193zM217 704h436l-26 -126h-435z" />
    <glyph glyph-name="UkaliqLetterUh" unicode="&#xee22;" 
d="M633 610h-182q-85 0 -110 -129l-36 -176h-193l35 176q45 223 323 223h182z" />
    <glyph glyph-name="UkaliqLetterEu" unicode="&#xee23;" 
d="M610 399l-79 -399h-194l80 399h193zM633 610h-182q-85 0 -110 -129l-36 -176h-193l35 176q45 223 323 223h182z" />
    <glyph glyph-name="UkaliqLetterOe" unicode="&#xee24;" 
d="M324 399l-80 -399h-193l80 399h193zM217 704h436l-26 -126h-435z" />
    <glyph glyph-name="UkaliqLetterOeh" unicode="&#xee25;" 
d="M610 399l-79 -399h-194l80 399h193zM324 399l-80 -399h-193l80 399h193zM217 704h436l-26 -126h-435z" />
    <glyph glyph-name="UkaliqLetterUi" unicode="&#xee26;" 
d="M633 610h-182q-85 0 -141 -282l-66 -328h-193l66 328q75 376 353 376h182z" />
    <glyph glyph-name="UkaliqLetterAh" unicode="&#xee27;" 
d="M633 610h-182q-85 0 -141 -282l-66 -328h-193l66 328q75 376 353 376h182zM610 399l-79 -399h-194l80 399h193z" />
    <glyph glyph-name="UkaliqLetterAe" unicode="&#xee28;" 
d="M211 704q460 0 381 -399h-194q61 305 -206 305z" />
    <glyph glyph-name="UkaliqLetterO" unicode="&#xee29;" 
d="M211 704q460 0 320 -704h-194q122 610 -145 610z" />
    <glyph glyph-name="UkaliqLetterIh" unicode="&#xee2a;" 
d="M112 305l35 176q45 223 237 223q287 0 208 -399h-194q61 305 -33 305q1 0 -24 -129l-36 -176h-193z" />
    <glyph glyph-name="UkaliqLetterU" unicode="&#xee2b;" 
d="M112 305l35 176q45 223 237 223q287 0 147 -704h-194q122 610 28 610q1 0 -24 -129l-36 -176h-193z" />
    <glyph glyph-name="UkaliqLetterE" unicode="&#xee2c;" 
d="M211 704q460 0 381 -399h-194q61 305 -206 305zM324 399l-80 -399h-193l80 399h193z" />
    <glyph glyph-name="UkaliqLetterEh" unicode="&#xee2d;" 
d="M211 704q460 0 320 -704h-194q122 610 -145 610zM324 399l-80 -399h-193l80 399h193z" />
    <glyph glyph-name="UkaliqLetterI" unicode="&#xee2e;" 
d="M398 305q61 305 -33 305q1 0 -55 -282l-66 -328h-193l66 328q75 376 267 376q287 0 208 -399h-194z" />
    <glyph glyph-name="UkaliqLetterOh" unicode="&#xee2f;" 
d="M51 0l66 328q75 376 267 376q287 0 147 -704h-194q122 610 28 610q1 0 -55 -282l-66 -328h-193z" />
    <glyph glyph-name="UkaliqPlus" unicode="&#xee30;" 
d="M101 125h436l-25 -125h-436zM217 704h436l-26 -126h-435z" />
    <glyph glyph-name="UkaliqCurrency" unicode="&#xee31;" 
d="M610 399l-35 -176q-44 -223 -323 -223h-182l19 94h182q85 0 111 129l35 176h193zM217 704h436l-26 -126h-435z" />
    <glyph glyph-name="UkaliqAt" unicode="&#xee32;" 
d="M101 125h436l-25 -125h-436zM633 610h-182q-85 0 -110 -129l-36 -176h-193l35 176q45 223 323 223h182z" />
    <glyph glyph-name="UkaliqLetterAlha" unicode="&#xee33;" 
d="M633 610h-182q-85 0 -110 -129l-36 -176h-193l35 176q45 223 323 223h182zM610 399l-35 -176q-44 -223 -323 -223h-182l19 94h182q85 0 111 129l35 176h193z" />
    <glyph glyph-name="UkaliqLetterElre" unicode="&#xee34;" 
d="M324 399l-61 -305h267l-19 -94h-460l80 399h193zM217 704h436l-26 -126h-435z" />
    <glyph glyph-name="UkaliqLetterUlgu" unicode="&#xee35;" 
d="M324 399l-61 -305h47q46 0 72 129l35 176h193l-35 -176q-44 -223 -284 -223h-240l80 399h193zM217 704h436l-26 -126h-435z" />
    <glyph glyph-name="UkaliqLetterIlji" unicode="&#xee36;" 
d="M633 610h-182q-85 0 -136 -258l-52 -258h267l-19 -94h-460l70 352q71 352 349 352h182z" />
    <glyph glyph-name="UkaliqLetterOlo" unicode="&#xee37;" 
d="M633 610h-182q-85 0 -136 -258l-52 -258h47q46 0 72 129l35 176h193l-35 -176q-44 -223 -284 -223h-240l70 352q71 352 349 352h182z" />
    <glyph glyph-name="UkaliqDegree" unicode="&#xee38;" 
d="M101 125h436l-25 -125h-436zM211 704q460 0 381 -399h-194q61 305 -206 305z" />
    <glyph glyph-name="UkaliqLetterHbat" unicode="&#xee39;" 
d="M211 704q460 0 370 -454q-50 -250 -329 -250h-182l19 94h182q85 0 116 156q72 360 -195 360z" />
    <glyph glyph-name="UkaliqLetterAnqa" unicode="&#xee3a;" 
d="M101 125h436l-25 -125h-436zM112 305l35 176q45 223 237 223q287 0 208 -399h-194q61 305 -33 305q1 0 -24 -129l-36 -176h-193z" />
    <glyph glyph-name="UkaliqLetterAma" unicode="&#xee3b;" 
d="M112 305l35 176q45 223 237 223q287 0 197 -454q-50 -250 -329 -250h-182l19 94h182q85 0 116 156q72 360 -22 360q1 0 -24 -129l-36 -176h-193z" />
    <glyph glyph-name="UkaliqLetterEnre" unicode="&#xee3c;" 
d="M211 704q460 0 381 -399h-194q61 305 -206 305zM324 399l-61 -305h267l-19 -94h-460l80 399h193z" />
    <glyph glyph-name="UkaliqLetterUngu" unicode="&#xee3d;" 
d="M211 704q460 0 370 -454q-50 -250 -290 -250h-240l80 399h193l-61 -305h47q46 0 77 156q72 360 -195 360z" />
    <glyph glyph-name="UkaliqLetterInji" unicode="&#xee3e;" 
d="M398 305q61 305 -33 305q1 0 -50 -258l-52 -258h267l-19 -94h-460l70 352q71 352 263 352q287 0 208 -399h-194z" />
    <glyph glyph-name="UkaliqLetterOno" unicode="&#xee3f;" 
d="M315 352l-52 -258h47q46 0 77 156q72 360 -22 360q1 0 -50 -258zM121 352q71 352 263 352q287 0 197 -454q-50 -250 -290 -250h-240z" />
    <glyph glyph-name="UkaliqDash" unicode="&#xee40;" 
d="M159 414h436l-25 -125h-436z" />
    <glyph glyph-name="UkaliqLetterA" unicode="&#xee41;" 
d="M150 399h182q278 0 234 -223l-35 -176h-194l35 176q26 129 -59 129h-182z" />
    <glyph glyph-name="UkaliqMinus" unicode="&#xee42;" 
d="M385 704l-35 -176q-26 -129 59 -129h182l-19 -94h-182q-278 0 -234 223l36 176h193z" />
    <glyph glyph-name="UkaliqLetterAwa" unicode="&#xee43;" 
d="M385 704l-35 -176q-26 -129 21 -129h239l-79 -399h-194l61 305h-46q-240 0 -196 223l36 176h193z" />
    <glyph glyph-name="UkaliqLetterErre" unicode="&#xee44;" 
d="M572 305h-182q-85 0 -110 -129l-36 -176h-193l35 176q45 223 323 223h182z" />
    <glyph glyph-name="UkaliqAnd" unicode="&#xee45;" 
d="M51 0l35 176q45 223 285 223q239 0 195 -223l-35 -176h-194l35 176q26 129 -20 129q-47 0 -72 -129l-36 -176h-193z" />
    <glyph glyph-name="UkaliqLetterIzji" unicode="&#xee46;" 
d="M385 704l-53 -264l-8 -41h267l-19 -94h-267l-8 -41l-53 -264h-193l53 264l35 176l53 264h193z" />
    <glyph glyph-name="UkaliqLetterOro" unicode="&#xee47;" 
d="M385 704l-53 -264l-8 -41h47q239 0 195 -223l-35 -176h-194l35 176q26 129 -20 129h-47l-8 -41l-53 -264h-193l53 264l35 176l53 264h193z" />
    <glyph glyph-name="UkaliqNot" unicode="&#xee48;" 
d="M671 704l-35 -176q-44 -223 -323 -223h-182l19 94h182q85 0 111 129l35 176h193z" />
    <glyph glyph-name="UkaliqDivision" unicode="&#xee49;" 
d="M671 704l-52 -264l-36 -176l-52 -264h-194l53 264l8 41h-267l19 94h267l8 41l53 264h193z" />
    <glyph glyph-name="UkaliqXor" unicode="&#xee4a;" 
d="M385 704l-35 -176q-26 -129 21 -129q46 0 72 129l35 176h193l-35 -176q-44 -223 -284 -223t-196 223l36 176h193z" />
    <glyph glyph-name="uniEE4B" unicode="&#xee4b;" 
d="M385 704l-35 -176q-26 -129 21 -129h46l8 41l53 264h193l-52 -264l-36 -176l-52 -264h-194l53 264l8 41h-46q-240 0 -196 223l36 176h193z" />
    <glyph glyph-name="UkaliqLetterIji" unicode="&#xee4c;" 
d="M671 704l-35 -176q-44 -223 -284 -223h-47l-61 -305h-193l80 399h240q46 0 72 129l35 176h193z" />
    <glyph glyph-name="UkaliqLetterTkot" unicode="&#xee4d;" 
d="M671 704l-52 -264l-36 -176l-52 -264h-194l53 264l8 41h-46q-47 0 -72 -129l-36 -176h-193l35 176q45 223 285 223h46l8 41l53 264h193z" />
    <glyph glyph-name="UkaliqLetterIsji" unicode="&#xee4e;" 
d="M671 704l-35 -176q-44 -223 -284 -223h-47l-8 -41l-53 -264h-193l53 264l35 176l53 264h193l-53 -264l-8 -41h47q46 0 72 129l35 176h193z" />
    <glyph glyph-name="UkaliqLetterOrro" unicode="&#xee4f;" 
d="M671 704l-52 -264l-36 -176l-52 -264h-194l53 264l8 41h-93l-8 -41l-53 -264h-193l53 264l35 176l53 264h193l-53 -264l-8 -41h93l8 41l53 264h193z" />
    <glyph glyph-name="UkaliqDigitZero" unicode="&#xee50;" 
d="M101 125h436l-25 -125h-436zM159 414h436l-25 -125h-436z" />
    <glyph glyph-name="UkaliqDigitOne" unicode="&#xee51;" 
d="M150 399h182q278 0 239 -200q-40 -199 -319 -199h-182l19 94h182q85 0 106 105q21 106 -64 106h-182z" />
    <glyph glyph-name="UkaliqDigitTwo" unicode="&#xee52;" 
d="M385 704l-35 -176q-26 -129 59 -129h182l-19 -94h-182q-278 0 -234 223l36 176h193zM101 125h436l-25 -125h-436z" />
    <glyph glyph-name="UkaliqDigitThree" unicode="&#xee53;" 
d="M385 704l-35 -176q-26 -129 21 -129h239l-39 -200q-40 -199 -319 -199h-182l19 94h182q85 0 106 105l21 106h-46q-240 0 -196 223l36 176h193z" />
    <glyph glyph-name="UkaliqDigitFour" unicode="&#xee54;" 
d="M572 305h-182q-85 0 -106 -106l-21 -105h267l-19 -94h-460l40 199q40 200 318 200h182z" />
    <glyph glyph-name="UkaliqDigitFive" unicode="&#xee55;" 
d="M284 199l-21 -105h47q46 0 67 105q21 106 -25 106q-47 0 -68 -106zM91 199q40 200 280 200q239 0 200 -200q-40 -199 -280 -199h-240z" />
    <glyph glyph-name="UkaliqDigitSix" unicode="&#xee56;" 
d="M385 704l-53 -264l-8 -41h267l-19 -94h-267l-6 -29l-36 -182h267l-19 -94h-460l55 276l33 164l53 264h193z" />
    <glyph glyph-name="UkaliqDigitSeven" unicode="&#xee57;" 
d="M385 704l-53 -264l-8 -41h47q239 0 200 -200q-40 -199 -280 -199h-240l55 276l33 164l53 264h193zM305 305l-6 -29l-36 -182h47q46 0 67 105q21 106 -25 106h-47z" />
    <glyph glyph-name="UkaliqDigitEight" unicode="&#xee58;" 
d="M101 125h436l-25 -125h-436zM671 704l-35 -176q-44 -223 -323 -223h-182l19 94h182q85 0 111 129l35 176h193z" />
    <glyph glyph-name="UkaliqDigitNine" unicode="&#xee59;" 
d="M671 704l-52 -264l-33 -164l-15 -77q-40 -199 -319 -199h-182l19 94h182q85 0 106 105l15 77l6 29h-267l19 94h267l8 41l53 264h193z" />
    <glyph glyph-name="UkaliqDigitTen" unicode="&#xee5a;" 
d="M385 704l-35 -176q-26 -129 21 -129q46 0 72 129l35 176h193l-35 -176q-44 -223 -284 -223t-196 223l36 176h193zM101 125h436l-25 -125h-436z" />
    <glyph glyph-name="UkaliqDigitEleven" unicode="&#xee5b;" 
d="M385 704l-35 -176q-26 -129 21 -129h46l8 41l53 264h193l-52 -264l-33 -164l-15 -77q-40 -199 -319 -199h-182l19 94h182q85 0 106 105l15 77l6 29h-46q-240 0 -196 223l36 176h193z" />
    <glyph glyph-name="UkaliqDigitTwelve" unicode="&#xee5c;" 
d="M671 704l-35 -176q-44 -223 -284 -223h-47l-42 -211h267l-19 -94h-460l80 399h240q46 0 72 129l35 176h193z" />
    <glyph glyph-name="UkaliqDigitThirteen" unicode="&#xee5d;" 
d="M671 704l-52 -264l-33 -164l-15 -77q-40 -199 -280 -199h-240l40 199q40 200 280 200h46l8 41l53 264h193zM398 305h-46q-47 0 -68 -106l-21 -105h47q46 0 67 105l15 77z" />
    <glyph glyph-name="UkaliqDigitFourteen" unicode="&#xee5e;" 
d="M671 704l-35 -176q-44 -223 -284 -223h-47l-6 -29l-36 -182h267l-19 -94h-460l55 276l33 164l53 264h193l-53 -264l-8 -41h47q46 0 72 129l35 176h193z" />
    <glyph glyph-name="UkaliqDigitFifteen" unicode="&#xee5f;" 
d="M385 704l-53 -264l-8 -41h93l8 41l53 264h193l-52 -264l-33 -164l-15 -77q-40 -199 -280 -199h-240l55 276l33 164l53 264h193zM398 305h-93l-6 -29l-36 -182h47q46 0 67 105l15 77z" />
    <glyph glyph-name="UkaliqLetterSchwa" unicode="&#xee60;" 
d="M159 414h436l-25 -125h-436zM217 704h436l-26 -126h-435z" />
    <glyph glyph-name="UkaliqLetterOhgo" unicode="&#xee61;" 
d="M150 399h182q278 0 234 -223l-35 -176h-194l35 176q26 129 -59 129h-182zM217 704h436l-26 -126h-435z" />
    <glyph glyph-name="UkaliqLetterArha" unicode="&#xee62;" 
d="M633 610h-182q-85 0 -106 -106q-21 -105 64 -105h182l-19 -94h-182q-278 0 -238 199q40 200 318 200h182z" />
    <glyph glyph-name="UkaliqLetterAva" unicode="&#xee63;" 
d="M633 610h-182q-85 0 -106 -106q-21 -105 26 -105h239l-79 -399h-194l61 305h-46q-240 0 -200 199q40 200 318 200h182z" />
    <glyph glyph-name="UkaliqLetterEzre" unicode="&#xee64;" 
d="M572 305h-182q-85 0 -110 -129l-36 -176h-193l35 176q45 223 323 223h182zM217 704h436l-26 -126h-435z" />
    <glyph glyph-name="UkaliqLetterUghu" unicode="&#xee65;" 
d="M51 0l35 176q45 223 285 223q239 0 195 -223l-35 -176h-194l35 176q26 129 -20 129q-47 0 -72 -129l-36 -176h-193zM217 704h436l-26 -126h-435z" />
    <glyph glyph-name="UkaliqLetterIjji" unicode="&#xee66;" 
d="M633 610h-182q-85 0 -106 -106l-15 -76l-6 -29h267l-19 -94h-267l-8 -41l-53 -264h-193l53 264l33 164l15 76q40 200 318 200h182z" />
    <glyph glyph-name="UkaliqLetterOdho" unicode="&#xee67;" 
d="M633 610h-182q-85 0 -106 -106l-15 -76l-6 -29h47q239 0 195 -223l-35 -176h-194l35 176q26 129 -20 129h-47l-8 -41l-53 -264h-193l53 264l33 164l15 76q40 200 318 200h182z" />
    <glyph glyph-name="UkaliqLetterOhho" unicode="&#xee68;" 
d="M211 704q460 0 410 -251q-29 -148 -308 -148h-182l19 94h182q85 0 96 54q31 157 -236 157z" />
    <glyph glyph-name="UkaliqLetterAha" unicode="&#xee69;" 
d="M211 704q460 0 402 -291l-30 -149l-52 -264h-194l53 264l8 41h-267l19 94h267l3 14q39 197 -228 197z" />
    <glyph glyph-name="UkaliqLetterAqha" unicode="&#xee6a;" 
d="M345 504q-21 -105 26 -105q46 0 57 54q31 157 -63 157q1 0 -20 -106zM152 504q40 200 232 200q287 0 237 -251q-29 -148 -269 -148t-200 199z" />
    <glyph glyph-name="UkaliqLetterAfa" unicode="&#xee6b;" 
d="M417 399l3 14q39 197 -55 197q1 0 -20 -106q-21 -105 26 -105h46zM398 305h-46q-240 0 -200 199q40 200 232 200q287 0 229 -291l-30 -149l-52 -264h-194l53 264z" />
    <glyph glyph-name="UkaliqLetterEsre" unicode="&#xee6c;" 
d="M211 704q460 0 410 -251q-29 -148 -269 -148h-47l-61 -305h-193l80 399h240q46 0 57 54q31 157 -236 157z" />
    <glyph glyph-name="UkaliqLetterUkhu" unicode="&#xee6d;" 
d="M211 704q460 0 402 -291l-30 -149l-52 -264h-194l53 264l8 41h-46q-47 0 -72 -129l-36 -176h-193l35 176q45 223 285 223h46l3 14q39 197 -228 197z" />
    <glyph glyph-name="UkaliqLetterIcji" unicode="&#xee6e;" 
d="M305 305l-8 -41l-53 -264h-193l53 264l33 164l15 76q40 200 232 200q287 0 237 -251q-29 -148 -269 -148h-47zM324 399h47q46 0 57 54q31 157 -63 157q1 0 -20 -106l-15 -76z" />
    <glyph glyph-name="UkaliqLetterOtho" unicode="&#xee6f;" 
d="M51 0l53 264l33 164l15 76q40 200 232 200q287 0 229 -291l-30 -149l-52 -264h-194l53 264l8 41h-93l-8 -41l-53 -264h-193zM324 399h93l3 14q39 197 -55 197q1 0 -20 -106l-15 -76z" />
    <glyph glyph-name="UkaliqIterationMark" unicode="&#xee70;" 
d="M101 125h436l-25 -125h-436zM159 414h436l-25 -125h-436zM217 704h436l-26 -126h-435z" />
    <glyph glyph-name="UkaliqPercent" unicode="&#xee71;" 
d="M150 399h182q278 0 239 -200q-40 -199 -319 -199h-182l19 94h182q85 0 106 105q21 106 -64 106h-182zM217 704h436l-26 -126h-435z" />
    <glyph glyph-name="UkaliqLetterAgqa" unicode="&#xee72;" 
d="M633 610h-182q-85 0 -106 -106q-21 -105 64 -105h182l-19 -94h-182q-278 0 -238 199q40 200 318 200h182zM101 125h436l-25 -125h-436z" />
    <glyph glyph-name="UkaliqLetterAba" unicode="&#xee73;" 
d="M566 610h-148q-52 0 -73 -106q-21 -105 26 -105h239l-39 -200q-40 -199 -304 -199h-168l19 94h167q71 0 92 105l21 106h-46q-240 0 -200 199q40 200 284 200h148z" />
    <glyph glyph-name="UkaliqLetterEdre" unicode="&#xee74;" 
d="M572 305h-182q-85 0 -106 -106l-21 -105h267l-19 -94h-460l40 199q40 200 318 200h182zM217 704h436l-26 -126h-435z" />
    <glyph glyph-name="UkaliqLetterUgu" unicode="&#xee75;" 
d="M217 704h436l-26 -126h-435zM284 199l-21 -105h47q46 0 67 105q21 106 -25 106q-47 0 -68 -106zM91 199q40 200 280 200q239 0 200 -200q-40 -199 -280 -199h-240z" />
    <glyph glyph-name="UkaliqLetterIgji" unicode="&#xee76;" 
d="M633 610h-182q-85 0 -106 -106l-15 -76l-6 -29h267l-19 -94h-267l-6 -29l-36 -182h267l-19 -94h-460l55 276l31 152l15 76q40 200 318 200h182z" />
    <glyph glyph-name="UkaliqLetterOdo" unicode="&#xee77;" 
d="M566 610h-148q-52 0 -73 -106l-15 -76l-6 -29h47q239 0 200 -200q-40 -199 -280 -199h-240l55 276l31 152l15 76q40 200 284 200h148zM305 305l-6 -29l-36 -182h47q46 0 67 105q21 106 -25 106h-47z" />
    <glyph glyph-name="UkaliqLetterOhhko" unicode="&#xee78;" 
d="M101 125h436l-25 -125h-436zM211 704q460 0 410 -251q-29 -148 -308 -148h-182l19 94h182q85 0 96 54q31 157 -236 157z" />
    <glyph glyph-name="UkaliqLetterAhka" unicode="&#xee79;" 
d="M211 704q460 0 402 -291l-27 -137l-15 -77q-40 -199 -319 -199h-182l19 94h182q85 0 106 105l15 77l6 29h-267l19 94h267l3 14q39 197 -228 197z" />
    <glyph glyph-name="UkaliqLetterAqa" unicode="&#xee7a;" 
d="M101 125h436l-25 -125h-436zM345 504q-21 -105 26 -105q46 0 57 54q31 157 -63 157q1 0 -20 -106zM152 504q40 200 232 200q287 0 237 -251q-29 -148 -269 -148t-200 199z" />
    <glyph glyph-name="UkaliqLetterApa" unicode="&#xee7b;" 
d="M417 399l3 14q39 197 -55 197q1 0 -20 -106q-21 -105 26 -105h46zM398 305h-46q-240 0 -200 199q40 200 232 200q287 0 229 -291l-27 -137l-15 -77q-40 -199 -304 -199h-168l19 94h167q71 0 92 105l15 77z" />
    <glyph glyph-name="UkaliqLetterEtre" unicode="&#xee7c;" 
d="M279 704q392 0 342 -251q-29 -148 -269 -148h-47l-42 -211h238l-19 -94h-431l80 399h240q46 0 57 54q31 157 -168 157z" />
    <glyph glyph-name="UkaliqLetterUku" unicode="&#xee7d;" 
d="M279 704q392 0 334 -291l-27 -137l-15 -77q-40 -199 -280 -199h-240l40 199q40 200 280 200h46l3 14q39 197 -160 197zM398 305h-46q-47 0 -68 -106l-21 -105h47q46 0 67 105l15 77z" />
    <glyph glyph-name="UkaliqLetterIci" unicode="&#xee7e;" 
d="M305 305l-6 -29l-36 -182h238l-19 -94h-431l55 276l31 152l15 76q40 200 232 200q287 0 237 -251q-29 -148 -269 -148h-47zM324 399h47q46 0 57 54q31 157 -63 157q1 0 -20 -106l-15 -76z" />
    <glyph glyph-name="UkaliqLetterOto" unicode="&#xee7f;" 
d="M417 399l3 14q39 197 -55 197q1 0 -20 -106l-15 -76l-6 -29h93zM398 305h-93l-6 -29l-36 -182h47q46 0 67 105l15 77zM152 504q40 200 232 200q287 0 229 -291l-27 -137l-15 -77q-40 -199 -280 -199h-240l55 276l31 152z" />
    <glyph glyph-name="UkaliqDot" unicode="&#xee80;" 
d="M268 -237q-20 53 21 107q41 53 103 53q61 0 81 -53q20 -54 -21 -107t-103 -53q-61 0 -81 53z" />
    <glyph glyph-name="UkaliqNumberWithDot" unicode="&#xee81;" 
d="M610 399l-79 -399h-194l80 399h193zM297 -237q-20 53 21 107q42 53 103 53t82 -53q20 -54 -22 -107q-41 -53 -103 -53q-61 0 -81 53z" />
    <glyph glyph-name="UkaliqRightSingleQuotationMarkWithDot" unicode="&#xee82;" 
d="M385 704l-80 -399h-193l80 399h193zM268 -237q-20 53 21 107q41 53 103 53q61 0 81 -53q20 -54 -21 -107t-103 -53q-61 0 -81 53z" />
    <glyph glyph-name="UkaliqColonWithDot" unicode="&#xee83;" 
d="M610 399l-79 -399h-194l80 399h193zM385 704l-80 -399h-193l80 399h193zM297 -237q-20 53 21 107q42 53 103 53t82 -53q20 -54 -22 -107q-41 -53 -103 -53q-61 0 -81 53z" />
    <glyph glyph-name="UkaliqFullStopWithDot" unicode="&#xee84;" 
d="M324 399l-80 -399h-193l80 399h193zM268 -237q-20 53 21 107q41 53 103 53q61 0 81 -53q20 -54 -21 -107t-103 -53q-61 0 -81 53z" />
    <glyph glyph-name="UkaliqCommaWithDot" unicode="&#xee85;" 
d="M610 399l-79 -399h-194l80 399h193zM324 399l-80 -399h-193l80 399h193zM297 -237q-20 53 21 107q42 53 103 53t82 -53q20 -54 -22 -107q-41 -53 -103 -53q-61 0 -81 53z" />
    <glyph glyph-name="UkaliqRightParenthesisWithDot" unicode="&#xee86;" 
d="M385 704l-141 -704h-193l141 704h193zM268 -237q-20 53 21 107q41 53 103 53q61 0 81 -53q20 -54 -21 -107t-103 -53q-61 0 -81 53z" />
    <glyph glyph-name="UkaliqExclamationMarkWithDot" unicode="&#xee87;" 
d="M385 704l-141 -704h-193l141 704h193zM610 399l-79 -399h-194l80 399h193zM297 -237q-20 53 21 107q42 53 103 53t82 -53q20 -54 -22 -107q-41 -53 -103 -53q-61 0 -81 53z" />
    <glyph glyph-name="UkaliqLeftSingleQuotationMarkWithDot" unicode="&#xee88;" 
d="M671 704l-79 -399h-194l80 399h193zM268 -237q-20 53 21 107q41 53 103 53q61 0 81 -53q20 -54 -21 -107t-103 -53q-61 0 -81 53z" />
    <glyph glyph-name="UkaliqLeftParenthesisWithDot" unicode="&#xee89;" 
d="M671 704l-140 -704h-194l141 704h193zM297 -237q-20 53 21 107q42 53 103 53t82 -53q20 -54 -22 -107q-41 -53 -103 -53q-61 0 -81 53z" />
    <glyph glyph-name="UkaliqDoubleQuotationMarkWithDot" unicode="&#xee8a;" 
d="M385 704l-80 -399h-193l80 399h193zM671 704l-79 -399h-194l80 399h193zM268 -237q-20 53 21 107q41 53 103 53q61 0 81 -53q20 -54 -21 -107t-103 -53q-61 0 -81 53z" />
    <glyph glyph-name="UkaliqReversedQuestionMarkWithDot" unicode="&#xee8b;" 
d="M671 704l-140 -704h-194l141 704h193zM385 704l-80 -399h-193l80 399h193zM297 -237q-20 53 21 107q42 53 103 53t82 -53q20 -54 -22 -107q-41 -53 -103 -53q-61 0 -81 53z" />
    <glyph glyph-name="UkaliqSemicolonWithDot" unicode="&#xee8c;" 
d="M671 704l-79 -399h-194l80 399h193zM324 399l-80 -399h-193l80 399h193zM268 -237q-20 53 21 107q41 53 103 53q61 0 81 -53q20 -54 -21 -107t-103 -53q-61 0 -81 53z" />
    <glyph glyph-name="UkaliqReversedExclamationMarkWithDot" unicode="&#xee8d;" 
d="M671 704l-140 -704h-194l141 704h193zM324 399l-80 -399h-193l80 399h193zM297 -237q-20 53 21 107q42 53 103 53t82 -53q20 -54 -22 -107q-41 -53 -103 -53q-61 0 -81 53z" />
    <glyph glyph-name="UkaliqQuestionMarkWithDot" unicode="&#xee8e;" 
d="M385 704l-141 -704h-193l141 704h193zM671 704l-79 -399h-194l80 399h193zM268 -237q-20 53 21 107q41 53 103 53q61 0 81 -53q20 -54 -21 -107t-103 -53q-61 0 -81 53z" />
    <glyph glyph-name="UkaliqEqualsWithDot" unicode="&#xee8f;" 
d="M671 704l-140 -704h-194l141 704h193zM385 704l-141 -704h-193l141 704h193zM297 -237q-20 53 21 107q42 53 103 53t82 -53q20 -54 -22 -107q-41 -53 -103 -53q-61 0 -81 53z" />
    <glyph glyph-name="UkaliqHyphenWithDot" unicode="&#xee90;" 
d="M101 125h436l-25 -125h-436zM268 -237q-20 53 21 107q41 53 103 53q61 0 81 -53q20 -54 -21 -107t-103 -53q-61 0 -81 53z" />
    </font>
</defs>
</svg>
