<?xml version="1.0" standalone="no"?>
<!DOCTYPE svg PUBLIC "-//W3C//DTD SVG 1.1//EN" "http://www.w3.org/Graphics/SVG/1.1/DTD/svg11.dtd" >
<svg xmlns="http://www.w3.org/2000/svg" xmlns:xlink="http://www.w3.org/1999/xlink" version="1.1">
<metadata>
Created by FontForge 20170812 at Mon Jan 23 00:30:09 2023
 By ht,,,
Copyright (C) 2022-2023 Henrik Theiling, License CC-BY-NC4.0
</metadata>
<defs>
<font id="UkaliqPenOblique" horiz-adv-x="578" >
  <font-face 
    font-family="Ukaliq Pen"
    font-weight="400"
    font-style="oblique"
    font-stretch="normal"
    units-per-em="1024"
    panose-1="2 0 5 3 0 0 0 0 0 0"
    ascent="727"
    descent="-297"
    bbox="0 -296 641 946"
    underline-thickness="78"
    underline-position="-171"
    unicode-range="U+000D-F1DFF"
  />
<missing-glyph 
d="M102 78h406l-16 -78h-406zM485 -77l-38 -188h-78l37 188h79z" />
    <glyph glyph-name="UkaliqSpace_UkaliqModifierDot" unicode="&#xee00;&#x331;" 
d="M485 -77l-38 -188h-78l37 188h79z" />
    <glyph glyph-name="UkaliqNumber_UkaliqModifierDot" unicode="&#xee01;&#x331;" 
d="M578 391l-78 -391h-78l78 391h78zM485 -77l-38 -188h-78l37 188h79z" />
    <glyph glyph-name="UkaliqRightSingleQuotationMark_UkaliqModifierDot" unicode="&#xee02;&#x331;" 
d="M297 704l-78 -391h-78l78 391h78zM485 -77l-38 -188h-78l37 188h79z" />
    <glyph glyph-name="UkaliqColon_UkaliqModifierDot" unicode="&#xee03;&#x331;" 
d="M578 391l-78 -391h-78l78 391h78zM297 704l-78 -391h-78l78 391h78zM485 -77l-38 -188h-78l37 188h79z" />
    <glyph glyph-name="UkaliqFullStop_UkaliqModifierDot" unicode="&#xee04;&#x331;" 
d="M235 391l-79 -391h-78l78 391h79zM485 -77l-38 -188h-78l37 188h79z" />
    <glyph glyph-name="UkaliqComma_UkaliqModifierDot" unicode="&#xee05;&#x331;" 
d="M578 391l-78 -391h-78l78 391h78zM235 391l-79 -391h-78l78 391h79zM485 -77l-38 -188h-78l37 188h79z" />
    <glyph glyph-name="UkaliqRightParenthesis_UkaliqModifierDot" unicode="&#xee06;&#x331;" 
d="M297 704l-141 -704h-78l141 704h78zM485 -77l-38 -188h-78l37 188h79z" />
    <glyph glyph-name="UkaliqExclamationMark_UkaliqModifierDot" unicode="&#xee07;&#x331;" 
d="M297 704l-141 -704h-78l141 704h78zM578 391l-78 -391h-78l78 391h78zM485 -77l-38 -188h-78l37 188h79z" />
    <glyph glyph-name="UkaliqLeftSingleQuotationMark_UkaliqModifierDot" unicode="&#xee08;&#x331;" 
d="M641 704l-78 -391h-78l78 391h78zM485 -77l-38 -188h-78l37 188h79z" />
    <glyph glyph-name="UkaliqLeftParenthesis_UkaliqModifierDot" unicode="&#xee09;&#x331;" 
d="M641 704l-141 -704h-78l141 704h78zM485 -77l-38 -188h-78l37 188h79z" />
    <glyph glyph-name="UkaliqDoubleQuotationMark_UkaliqModifierDot" unicode="&#xee0a;&#x331;" 
d="M297 704l-78 -391h-78l78 391h78zM641 704l-78 -391h-78l78 391h78zM485 -77l-38 -188h-78l37 188h79z" />
    <glyph glyph-name="UkaliqReversedQuestionMark_UkaliqModifierDot" unicode="&#xee0b;&#x331;" 
d="M641 704l-141 -704h-78l141 704h78zM297 704l-78 -391h-78l78 391h78zM485 -77l-38 -188h-78l37 188h79z" />
    <glyph glyph-name="UkaliqSemicolon_UkaliqModifierDot" unicode="&#xee0c;&#x331;" 
d="M641 704l-78 -391h-78l78 391h78zM235 391l-79 -391h-78l78 391h79zM485 -77l-38 -188h-78l37 188h79z" />
    <glyph glyph-name="UkaliqReversedExclamationMark_UkaliqModifierDot" unicode="&#xee0d;&#x331;" 
d="M641 704l-141 -704h-78l141 704h78zM235 391l-79 -391h-78l78 391h79zM485 -77l-38 -188h-78l37 188h79z" />
    <glyph glyph-name="UkaliqQuestionMark_UkaliqModifierDot" unicode="&#xee0e;&#x331;" 
d="M297 704l-141 -704h-78l141 704h78zM641 704l-78 -391h-78l78 391h78zM485 -77l-38 -188h-78l37 188h79z" />
    <glyph glyph-name="UkaliqEquals_UkaliqModifierDot" unicode="&#xee0f;&#x331;" 
d="M641 704l-141 -704h-78l141 704h78zM297 704l-141 -704h-78l141 704h78zM485 -77l-38 -188h-78l37 188h79z" />
    <glyph glyph-name="UkaliqHyphen_UkaliqModifierDot" unicode="&#xee10;&#x331;" 
d="M102 78h406l-16 -78h-406zM485 -77l-38 -188h-78l37 188h79z" />
    <glyph glyph-name="UkaliqLetterOzo_UkaliqModifierDot" unicode="&#xee11;&#x331;" 
d="M485 -77l-38 -188h-78l37 188h79zM578 391q-78 -391 -492 -391l16 78q336 0 398 313h78z" />
    <glyph glyph-name="UkaliqGreaterThan_UkaliqModifierDot" unicode="&#xee12;&#x331;" 
d="M102 78h406l-16 -78h-406zM297 704l-78 -391h-78l78 391h78zM485 -77l-38 -188h-78l37 188h79z" />
    <glyph glyph-name="UkaliqLetterAtlha_UkaliqModifierDot" unicode="&#xee13;&#x331;" 
d="M297 704l-78 -391h-78l78 391h78zM485 -77l-38 -188h-78l37 188h79zM578 391q-78 -391 -492 -391l16 78q336 0 398 313h78z" />
    <glyph glyph-name="UkaliqLetterEdzre_UkaliqModifierDot" unicode="&#xee14;&#x331;" 
d="M235 391q-63 -313 273 -313l-16 -78q-414 0 -336 391h79zM485 -77l-38 -188h-78l37 188h79z" />
    <glyph glyph-name="UkaliqOr_UkaliqModifierDot" unicode="&#xee15;&#x331;" 
d="M235 391q-63 -313 70 -313t195 313h78q-78 -391 -289 -391t-133 391h79zM485 -77l-38 -188h-78l37 188h79z" />
    <glyph glyph-name="UkaliqLetterIdzji_UkaliqModifierDot" unicode="&#xee16;&#x331;" 
d="M297 704l-44 -222q-81 -404 255 -404l-16 -78q-414 0 -317 482l44 222h78zM485 -77l-38 -188h-78l37 188h79z" />
    <glyph glyph-name="UkaliqLetterOdzo_UkaliqModifierDot" unicode="&#xee17;&#x331;" 
d="M297 704l-44 -222q-81 -404 52 -404t195 313h78q-78 -391 -289 -391t-114 482l44 222h78zM485 -77l-38 -188h-78l37 188h79z" />
    <glyph glyph-name="UkaliqLessThan_UkaliqModifierDot" unicode="&#xee18;&#x331;" 
d="M102 78h406l-16 -78h-406zM641 704l-78 -391h-78l78 391h78zM485 -77l-38 -188h-78l37 188h79z" />
    <glyph glyph-name="UkaliqLetterOso_UkaliqModifierDot" unicode="&#xee19;&#x331;" 
d="M641 704l-44 -222q-97 -482 -511 -482l16 78q336 0 417 404l44 222h78zM485 -77l-38 -188h-78l37 188h79z" />
    <glyph glyph-name="UkaliqMultiplication_UkaliqModifierDot" unicode="&#xee1a;&#x331;" 
d="M102 78h406l-16 -78h-406zM297 704l-78 -391h-78l78 391h78zM641 704l-78 -391h-78l78 391h78zM485 -77l-38 -188h-78l37 188h79z" />
    <glyph glyph-name="UkaliqLetterApfa_UkaliqModifierDot" unicode="&#xee1b;&#x331;" 
d="M297 704l-78 -391h-78l78 391h78zM641 704l-44 -222q-97 -482 -511 -482l16 78q336 0 417 404l44 222h78zM485 -77l-38 -188h-78l37 188h79z" />
    <glyph glyph-name="UkaliqLetterEtsre_UkaliqModifierDot" unicode="&#xee1c;&#x331;" 
d="M235 391q-63 -313 273 -313l-16 -78q-414 0 -336 391h79zM641 704l-78 -391h-78l78 391h78zM485 -77l-38 -188h-78l37 188h79z" />
    <glyph glyph-name="UkaliqLetterUkkhu_UkaliqModifierDot" unicode="&#xee1d;&#x331;" 
d="M641 704l-44 -222q-97 -482 -308 -482t-133 391h79q-63 -313 70 -313t214 404l44 222h78zM485 -77l-38 -188h-78l37 188h79z" />
    <glyph glyph-name="UkaliqLetterItsji_UkaliqModifierDot" unicode="&#xee1e;&#x331;" 
d="M297 704l-44 -222q-81 -404 255 -404l-16 -78q-414 0 -317 482l44 222h78zM641 704l-78 -391h-78l78 391h78zM485 -77l-38 -188h-78l37 188h79z" />
    <glyph glyph-name="UkaliqLetterOtso_UkaliqModifierDot" unicode="&#xee1f;&#x331;" 
d="M297 704l-44 -222q-81 -404 52 -404t214 404l44 222h78l-44 -222q-97 -482 -308 -482t-114 482l44 222h78zM485 -77l-38 -188h-78l37 188h79z" />
    <glyph glyph-name="UkaliqRange_UkaliqModifierDot" unicode="&#xee20;&#x331;" 
d="M485 -77l-38 -188h-78l37 188h79zM227 704h406l-15 -79h-407z" />
    <glyph glyph-name="UkaliqLetterEo_UkaliqModifierDot" unicode="&#xee21;&#x331;" 
d="M578 391l-78 -391h-78l78 391h78zM485 -77l-38 -188h-78l37 188h79zM227 704h406l-15 -79h-407z" />
    <glyph glyph-name="UkaliqLetterUh_UkaliqModifierDot" unicode="&#xee22;&#x331;" 
d="M618 625q-337 0 -399 -312h-78q78 391 492 391zM485 -77l-38 -188h-78l37 188h79z" />
    <glyph glyph-name="UkaliqLetterEu_UkaliqModifierDot" unicode="&#xee23;&#x331;" 
d="M578 391l-78 -391h-78l78 391h78zM618 625q-337 0 -399 -312h-78q78 391 492 391zM485 -77l-38 -188h-78l37 188h79z" />
    <glyph glyph-name="UkaliqLetterOe_UkaliqModifierDot" unicode="&#xee24;&#x331;" 
d="M235 391l-79 -391h-78l78 391h79zM485 -77l-38 -188h-78l37 188h79zM227 704h406l-15 -79h-407z" />
    <glyph glyph-name="UkaliqLetterOeh_UkaliqModifierDot" unicode="&#xee25;&#x331;" 
d="M578 391l-78 -391h-78l78 391h78zM235 391l-79 -391h-78l78 391h79zM485 -77l-38 -188h-78l37 188h79zM227 704h406l-15 -79h-407z" />
    <glyph glyph-name="UkaliqLetterUi_UkaliqModifierDot" unicode="&#xee26;&#x331;" 
d="M618 625q-337 0 -417 -404l-45 -221h-78l44 221q97 483 511 483zM485 -77l-38 -188h-78l37 188h79z" />
    <glyph glyph-name="UkaliqLetterAh_UkaliqModifierDot" unicode="&#xee27;&#x331;" 
d="M618 625q-337 0 -417 -404l-45 -221h-78l44 221q97 483 511 483zM578 391l-78 -391h-78l78 391h78zM485 -77l-38 -188h-78l37 188h79z" />
    <glyph glyph-name="UkaliqLetterAe_UkaliqModifierDot" unicode="&#xee28;&#x331;" 
d="M227 704q414 0 336 -391h-78q62 312 -274 312zM485 -77l-38 -188h-78l37 188h79z" />
    <glyph glyph-name="UkaliqLetterO_UkaliqModifierDot" unicode="&#xee29;&#x331;" 
d="M227 704q414 0 318 -483l-45 -221h-78l44 221q81 404 -255 404zM485 -77l-38 -188h-78l37 188h79z" />
    <glyph glyph-name="UkaliqLetterIh_UkaliqModifierDot" unicode="&#xee2a;&#x331;" 
d="M141 313q78 391 289 391t133 -391h-78q62 312 -71 312t-195 -312h-78zM485 -77l-38 -188h-78l37 188h79z" />
    <glyph glyph-name="UkaliqLetterU_UkaliqModifierDot" unicode="&#xee2b;&#x331;" 
d="M141 313q78 391 289 391t115 -483l-45 -221h-78l44 221q81 404 -52 404t-195 -312h-78zM485 -77l-38 -188h-78l37 188h79z" />
    <glyph glyph-name="UkaliqLetterE_UkaliqModifierDot" unicode="&#xee2c;&#x331;" 
d="M227 704q414 0 336 -391h-78q62 312 -274 312zM235 391l-79 -391h-78l78 391h79zM485 -77l-38 -188h-78l37 188h79z" />
    <glyph glyph-name="UkaliqLetterEh_UkaliqModifierDot" unicode="&#xee2d;&#x331;" 
d="M227 704q414 0 318 -483l-45 -221h-78l44 221q81 404 -255 404zM235 391l-79 -391h-78l78 391h79zM485 -77l-38 -188h-78l37 188h79z" />
    <glyph glyph-name="UkaliqLetterI_UkaliqModifierDot" unicode="&#xee2e;&#x331;" 
d="M485 313q62 312 -71 312t-213 -404l-45 -221h-78l44 221q97 483 308 483t133 -391h-78zM485 -77l-38 -188h-78l37 188h79z" />
    <glyph glyph-name="UkaliqLetterOh_UkaliqModifierDot" unicode="&#xee2f;&#x331;" 
d="M78 0l44 221q97 483 308 483t115 -483l-45 -221h-78l44 221q81 404 -52 404t-213 -404l-45 -221h-78zM485 -77l-38 -188h-78l37 188h79z" />
    <glyph glyph-name="UkaliqPlus_UkaliqModifierDot" unicode="&#xee30;&#x331;" 
d="M102 78h406l-16 -78h-406zM485 -77l-38 -188h-78l37 188h79zM227 704h406l-15 -79h-407z" />
    <glyph glyph-name="UkaliqCurrency_UkaliqModifierDot" unicode="&#xee31;&#x331;" 
d="M485 -77l-38 -188h-78l37 188h79zM578 391q-78 -391 -492 -391l16 78q336 0 398 313h78zM227 704h406l-15 -79h-407z" />
    <glyph glyph-name="UkaliqAt_UkaliqModifierDot" unicode="&#xee32;&#x331;" 
d="M102 78h406l-16 -78h-406zM618 625q-337 0 -399 -312h-78q78 391 492 391zM485 -77l-38 -188h-78l37 188h79z" />
    <glyph glyph-name="UkaliqLetterAlha_UkaliqModifierDot" unicode="&#xee33;&#x331;" 
d="M618 625q-337 0 -399 -312h-78q78 391 492 391zM485 -77l-38 -188h-78l37 188h79zM578 391q-78 -391 -492 -391l16 78q336 0 398 313h78z" />
    <glyph glyph-name="UkaliqLetterElre_UkaliqModifierDot" unicode="&#xee34;&#x331;" 
d="M235 391q-63 -313 273 -313l-16 -78q-414 0 -336 391h79zM485 -77l-38 -188h-78l37 188h79zM227 704h406l-15 -79h-407z" />
    <glyph glyph-name="UkaliqLetterUlgu_UkaliqModifierDot" unicode="&#xee35;&#x331;" 
d="M235 391q-63 -313 70 -313t195 313h78q-78 -391 -289 -391t-133 391h79zM485 -77l-38 -188h-78l37 188h79zM227 704h406l-15 -79h-407z" />
    <glyph glyph-name="UkaliqLetterIlji_UkaliqModifierDot" unicode="&#xee36;&#x331;" 
d="M618 625q-337 0 -391 -273q-55 -274 281 -274l-16 -78q-414 0 -343 352q70 352 484 352zM485 -77l-38 -188h-78l37 188h79z" />
    <glyph glyph-name="UkaliqLetterOlo_UkaliqModifierDot" unicode="&#xee37;&#x331;" 
d="M618 625q-337 0 -391 -273q-55 -274 78 -274t195 313h78q-78 -391 -289 -391t-140 352q70 352 484 352zM485 -77l-38 -188h-78l37 188h79z" />
    <glyph glyph-name="UkaliqDegree_UkaliqModifierDot" unicode="&#xee38;&#x331;" 
d="M102 78h406l-16 -78h-406zM227 704q414 0 336 -391h-78q62 312 -274 312zM485 -77l-38 -188h-78l37 188h79z" />
    <glyph glyph-name="UkaliqLetterHbat_UkaliqModifierDot" unicode="&#xee39;&#x331;" 
d="M227 704q414 0 344 -352q-71 -352 -485 -352l16 78q336 0 390 274q55 273 -281 273zM485 -77l-38 -188h-78l37 188h79z" />
    <glyph glyph-name="UkaliqLetterAnqa_UkaliqModifierDot" unicode="&#xee3a;&#x331;" 
d="M102 78h406l-16 -78h-406zM141 313q78 391 289 391t133 -391h-78q62 312 -71 312t-195 -312h-78zM485 -77l-38 -188h-78l37 188h79z" />
    <glyph glyph-name="UkaliqLetterAma_UkaliqModifierDot" unicode="&#xee3b;&#x331;" 
d="M141 313q78 391 289 391t141 -352q-71 -352 -485 -352l16 78q336 0 390 274q55 273 -78 273t-195 -312h-78zM485 -77l-38 -188h-78l37 188h79z" />
    <glyph glyph-name="UkaliqLetterEnre_UkaliqModifierDot" unicode="&#xee3c;&#x331;" 
d="M227 704q414 0 336 -391h-78q62 312 -274 312zM235 391q-63 -313 273 -313l-16 -78q-414 0 -336 391h79zM485 -77l-38 -188h-78l37 188h79z" />
    <glyph glyph-name="UkaliqLetterUngu_UkaliqModifierDot" unicode="&#xee3d;&#x331;" 
d="M227 704q414 0 344 -352q-71 -352 -282 -352t-133 391h79q-63 -313 70 -313t187 274q55 273 -281 273zM485 -77l-38 -188h-78l37 188h79z" />
    <glyph glyph-name="UkaliqLetterInji_UkaliqModifierDot" unicode="&#xee3e;&#x331;" 
d="M485 313q62 312 -71 312t-187 -273q-55 -274 281 -274l-16 -78q-414 0 -343 352q70 352 281 352t133 -391h-78zM485 -77l-38 -188h-78l37 188h79z" />
    <glyph glyph-name="UkaliqLetterOno_UkaliqModifierDot" unicode="&#xee3f;&#x331;" 
d="M485 -77l-38 -188h-78l37 188h79zM227 352q-55 -274 78 -274t187 274q55 273 -78 273t-187 -273zM149 352q70 352 281 352t141 -352q-71 -352 -282 -352t-140 352z" />
    <glyph glyph-name="UkaliqDash_UkaliqModifierDot" unicode="&#xee40;&#x331;" 
d="M164 391h407l-16 -78h-406zM485 -77l-38 -188h-78l37 188h79z" />
    <glyph glyph-name="UkaliqLetterA_UkaliqModifierDot" unicode="&#xee41;&#x331;" 
d="M164 391q414 0 336 -391h-78q63 313 -273 313zM485 -77l-38 -188h-78l37 188h79z" />
    <glyph glyph-name="UkaliqMinus_UkaliqModifierDot" unicode="&#xee42;&#x331;" 
d="M297 704q-62 -313 274 -313l-16 -78q-414 0 -336 391h78zM485 -77l-38 -188h-78l37 188h79z" />
    <glyph glyph-name="UkaliqLetterAwa_UkaliqModifierDot" unicode="&#xee43;&#x331;" 
d="M485 -77l-38 -188h-78l37 188h79zM297 704q-62 -313 185 -313q96 0 75 -110l-57 -281h-78l56 281q7 32 -12 32q-325 0 -247 391h78z" />
    <glyph glyph-name="UkaliqLetterErre_UkaliqModifierDot" unicode="&#xee44;&#x331;" 
d="M555 313q-336 0 -399 -313h-78q78 391 493 391zM485 -77l-38 -188h-78l37 188h79z" />
    <glyph glyph-name="UkaliqAnd_UkaliqModifierDot" unicode="&#xee45;&#x331;" 
d="M78 0q78 391 289 391t133 -391h-78q63 313 -70 313t-196 -313h-78zM485 -77l-38 -188h-78l37 188h79z" />
    <glyph glyph-name="UkaliqLetterIzji_UkaliqModifierDot" unicode="&#xee46;&#x331;" 
d="M485 -77l-38 -188h-78l37 188h79zM219 313l-63 -313h-78l71 352l70 352h78l-62 -313h336l-16 -78h-336z" />
    <glyph glyph-name="UkaliqLetterOro_UkaliqModifierDot" unicode="&#xee47;&#x331;" 
d="M485 -77l-38 -188h-78l37 188h79zM219 312l-63 -312h-78l71 352l70 352h78l-62 -314q339 -20 265 -390h-78q59 293 -203 312z" />
    <glyph glyph-name="UkaliqNot_UkaliqModifierDot" unicode="&#xee48;&#x331;" 
d="M641 704q-78 -391 -492 -391l15 78q336 0 399 313h78zM485 -77l-38 -188h-78l37 188h79z" />
    <glyph glyph-name="UkaliqDivision_UkaliqModifierDot" unicode="&#xee49;&#x331;" 
d="M641 704l-70 -352l-71 -352h-78l62 313h-335l15 78h336l63 313h78zM485 -77l-38 -188h-78l37 188h79z" />
    <glyph glyph-name="UkaliqXor_UkaliqModifierDot" unicode="&#xee4a;&#x331;" 
d="M297 704q-62 -313 70 -313q133 0 196 313h78q-78 -391 -289 -391t-133 391h78zM485 -77l-38 -188h-78l37 188h79z" />
    <glyph glyph-name="uniEE4B_UkaliqModifierDot" unicode="&#xee4b;&#x331;" 
d="M485 -77l-38 -188h-78l37 188h79zM297 704q-58 -292 203 -312l63 312h78l-70 -352l-71 -352h-78l62 314q-339 20 -265 390h78z" />
    <glyph glyph-name="UkaliqLetterIji_UkaliqModifierDot" unicode="&#xee4c;&#x331;" 
d="M641 704q-78 -391 -404 -391q-18 0 -24 -32l-57 -281h-78l56 281q22 110 119 110q247 0 310 313h78zM485 -77l-38 -188h-78l37 188h79z" />
    <glyph glyph-name="UkaliqLetterTkot_UkaliqModifierDot" unicode="&#xee4d;&#x331;" 
d="M641 704l-70 -352l-71 -352h-78l62 312q-269 -20 -328 -312h-78q74 370 422 390l63 314h78zM485 -77l-38 -188h-78l37 188h79z" />
    <glyph glyph-name="UkaliqLetterIsji_UkaliqModifierDot" unicode="&#xee4e;&#x331;" 
d="M485 -77l-38 -188h-78l37 188h79zM219 314l-63 -314h-78l71 352l70 352h78l-62 -312q269 20 328 312h78q-74 -371 -422 -390z" />
    <glyph glyph-name="UkaliqLetterOrro_UkaliqModifierDot" unicode="&#xee4f;&#x331;" 
d="M485 -77l-38 -188h-78l37 188h79zM641 704l-70 -352l-71 -352h-78l62 313h-265l-63 -313h-78l71 352l70 352h78l-62 -313h265l63 313h78z" />
    <glyph glyph-name="UkaliqDigitZero_UkaliqModifierDot" unicode="&#xee50;&#x331;" 
d="M102 78h406l-16 -78h-406zM164 391h407l-16 -78h-406zM485 -77l-38 -188h-78l37 188h79z" />
    <glyph glyph-name="UkaliqDigitOne_UkaliqModifierDot" unicode="&#xee51;&#x331;" 
d="M164 391q414 0 375 -196q-39 -195 -453 -195l16 78q336 0 359 117q24 118 -312 118zM485 -77l-38 -188h-78l37 188h79z" />
    <glyph glyph-name="UkaliqDigitTwo_UkaliqModifierDot" unicode="&#xee52;&#x331;" 
d="M297 704q-62 -313 274 -313l-16 -78q-414 0 -336 391h78zM102 78h406l-16 -78h-406zM485 -77l-38 -188h-78l37 188h79z" />
    <glyph glyph-name="UkaliqDigitThree_UkaliqModifierDot" unicode="&#xee53;&#x331;" 
d="M485 -77l-38 -188h-78l37 188h79zM297 704q-62 -313 185 -313q96 0 78 -91q-60 -300 -474 -300l16 78q336 0 380 222q3 13 -16 13q-325 0 -247 391h78z" />
    <glyph glyph-name="UkaliqDigitFour_UkaliqModifierDot" unicode="&#xee54;&#x331;" 
d="M555 313q-336 0 -360 -118q-23 -117 313 -117l-16 -78q-414 0 -375 195q39 196 454 196zM485 -77l-38 -188h-78l37 188h79z" />
    <glyph glyph-name="UkaliqDigitFive_UkaliqModifierDot" unicode="&#xee55;&#x331;" 
d="M485 -77l-38 -188h-78l37 188h79zM195 195q-23 -117 110 -117t156 117q24 118 -109 118t-157 -118zM117 195q39 196 250 196t172 -196q-39 -195 -250 -195t-172 195z" />
    <glyph glyph-name="UkaliqDigitSix_UkaliqModifierDot" unicode="&#xee56;&#x331;" 
d="M485 -77l-38 -188h-78l37 188h79zM221 313q-24 -235 287 -235l-16 -78q-414 0 -343 352l70 352h78l-62 -313h336l-16 -78h-334z" />
    <glyph glyph-name="UkaliqDigitSeven_UkaliqModifierDot" unicode="&#xee57;&#x331;" 
d="M485 -77l-38 -188h-78l37 188h79zM220 312q-38 -234 85 -234q133 0 156 117q23 110 -241 117zM235 390q341 -10 304 -195q-39 -195 -250 -195t-140 352l70 352h78z" />
    <glyph glyph-name="UkaliqDigitEight_UkaliqModifierDot" unicode="&#xee58;&#x331;" 
d="M102 78h406l-16 -78h-406zM641 704q-78 -391 -492 -391l15 78q336 0 399 313h78zM485 -77l-38 -188h-78l37 188h79z" />
    <glyph glyph-name="UkaliqDigitNine_UkaliqModifierDot" unicode="&#xee59;&#x331;" 
d="M641 704l-70 -352q-71 -352 -485 -352l16 78q311 0 380 235h-333l15 78h336l63 313h78zM485 -77l-38 -188h-78l37 188h79z" />
    <glyph glyph-name="UkaliqDigitTen_UkaliqModifierDot" unicode="&#xee5a;&#x331;" 
d="M297 704q-62 -313 70 -313q133 0 196 313h78q-78 -391 -289 -391t-133 391h78zM102 78h406l-16 -78h-406zM485 -77l-38 -188h-78l37 188h79z" />
    <glyph glyph-name="UkaliqDigitEleven_UkaliqModifierDot" unicode="&#xee5b;&#x331;" 
d="M485 -77l-38 -188h-78l37 188h79zM297 704q-58 -292 203 -312l63 312h78l-70 -352q-71 -352 -485 -352l16 78q312 0 381 236q-337 21 -264 390h78z" />
    <glyph glyph-name="UkaliqDigitTwelve_UkaliqModifierDot" unicode="&#xee5c;&#x331;" 
d="M641 704q-78 -391 -404 -391q-18 0 -21 -13q-44 -222 292 -222l-16 -78q-414 0 -354 300q18 91 115 91q247 0 310 313h78zM485 -77l-38 -188h-78l37 188h79z" />
    <glyph glyph-name="UkaliqDigitThirteen_UkaliqModifierDot" unicode="&#xee5d;&#x331;" 
d="M641 704l-70 -352q-71 -352 -282 -352t-172 195q37 186 383 195l63 314h78zM485 -77l-38 -188h-78l37 188h79zM483 312q-266 -8 -288 -117q-23 -117 110 -117q123 0 178 234z" />
    <glyph glyph-name="UkaliqDigitFourteen_UkaliqModifierDot" unicode="&#xee5e;&#x331;" 
d="M485 -77l-38 -188h-78l37 188h79zM221 314q-25 -236 287 -236l-16 -78q-414 0 -343 352l70 352h78l-62 -312q269 20 328 312h78q-74 -370 -420 -390z" />
    <glyph glyph-name="UkaliqDigitFifteen_UkaliqModifierDot" unicode="&#xee5f;&#x331;" 
d="M485 -77l-38 -188h-78l37 188h79zM500 391l63 313h78l-70 -352q-71 -352 -282 -352t-140 352l70 352h78l-62 -313h265zM484 313h-264q-38 -235 85 -235q124 0 179 235z" />
    <glyph glyph-name="UkaliqLetterSchwa_UkaliqModifierDot" unicode="&#xee60;&#x331;" 
d="M164 391h407l-16 -78h-406zM485 -77l-38 -188h-78l37 188h79zM227 704h406l-15 -79h-407z" />
    <glyph glyph-name="UkaliqLetterOhgo_UkaliqModifierDot" unicode="&#xee61;&#x331;" 
d="M164 391q414 0 336 -391h-78q63 313 -273 313zM485 -77l-38 -188h-78l37 188h79zM227 704h406l-15 -79h-407z" />
    <glyph glyph-name="UkaliqLetterArha_UkaliqModifierDot" unicode="&#xee62;&#x331;" 
d="M618 625q-337 0 -360 -117t313 -117l-16 -78q-414 0 -375 195q39 196 453 196zM485 -77l-38 -188h-78l37 188h79z" />
    <glyph glyph-name="UkaliqLetterAva_UkaliqModifierDot" unicode="&#xee63;&#x331;" 
d="M485 -77l-38 -188h-78l37 188h79zM618 625q-337 0 -360 -117t224 -117q96 0 75 -110l-57 -281h-78l56 281q7 32 -12 32q-325 0 -286 195q39 196 453 196z" />
    <glyph glyph-name="UkaliqLetterEzre_UkaliqModifierDot" unicode="&#xee64;&#x331;" 
d="M555 313q-336 0 -399 -313h-78q78 391 493 391zM485 -77l-38 -188h-78l37 188h79zM227 704h406l-15 -79h-407z" />
    <glyph glyph-name="UkaliqLetterUghu_UkaliqModifierDot" unicode="&#xee65;&#x331;" 
d="M78 0q78 391 289 391t133 -391h-78q63 313 -70 313t-196 -313h-78zM485 -77l-38 -188h-78l37 188h79zM227 704h406l-15 -79h-407z" />
    <glyph glyph-name="UkaliqLetterIjji_UkaliqModifierDot" unicode="&#xee66;&#x331;" 
d="M485 -77l-38 -188h-78l37 188h79zM219 313l-63 -313h-78l71 352q70 352 484 352l-15 -79q-312 0 -381 -234h334l-16 -78h-336z" />
    <glyph glyph-name="UkaliqLetterOdho_UkaliqModifierDot" unicode="&#xee67;&#x331;" 
d="M485 -77l-38 -188h-78l37 188h79zM219 312l-63 -312h-78l71 352q70 352 484 352l-15 -79q-313 0 -382 -235q337 -21 264 -390h-78q59 293 -203 312z" />
    <glyph glyph-name="UkaliqLetterOhho_UkaliqModifierDot" unicode="&#xee68;&#x331;" 
d="M227 704q414 0 375 -196q-39 -195 -453 -195l15 78q336 0 360 117q23 117 -313 117zM485 -77l-38 -188h-78l37 188h79z" />
    <glyph glyph-name="UkaliqLetterAha_UkaliqModifierDot" unicode="&#xee69;&#x331;" 
d="M227 704q414 0 344 -352l-71 -352h-78l62 313h-335l15 78h334q24 234 -287 234zM485 -77l-38 -188h-78l37 188h79z" />
    <glyph glyph-name="UkaliqLetterAqha_UkaliqModifierDot" unicode="&#xee6a;&#x331;" 
d="M485 -77l-38 -188h-78l37 188h79zM258 508q-23 -117 109 -117q133 0 157 117q23 117 -110 117t-156 -117zM180 508q39 196 250 196t172 -196q-39 -195 -250 -195t-172 195z" />
    <glyph glyph-name="UkaliqLetterAfa_UkaliqModifierDot" unicode="&#xee6b;&#x331;" 
d="M485 -77l-38 -188h-78l37 188h79zM499 392q38 233 -85 233q-133 0 -156 -117q-22 -109 241 -116zM484 314q-341 10 -304 194q39 196 250 196t141 -352l-71 -352h-78z" />
    <glyph glyph-name="UkaliqLetterEsre_UkaliqModifierDot" unicode="&#xee6c;&#x331;" 
d="M227 704q414 0 375 -196q-39 -195 -365 -195q-18 0 -24 -32l-57 -281h-78l56 281q22 110 119 110q247 0 271 117q23 117 -313 117zM485 -77l-38 -188h-78l37 188h79z" />
    <glyph glyph-name="UkaliqLetterUkhu_UkaliqModifierDot" unicode="&#xee6d;&#x331;" 
d="M227 704q414 0 344 -352l-71 -352h-78l62 312q-269 -20 -328 -312h-78q74 370 420 390q25 235 -287 235zM485 -77l-38 -188h-78l37 188h79z" />
    <glyph glyph-name="UkaliqLetterIcji_UkaliqModifierDot" unicode="&#xee6e;&#x331;" 
d="M485 -77l-38 -188h-78l37 188h79zM219 314l-63 -314h-78l71 352q70 352 281 352t172 -196q-37 -184 -383 -194zM236 392q266 7 288 116q23 117 -110 117q-123 0 -178 -233z" />
    <glyph glyph-name="UkaliqLetterOtho_UkaliqModifierDot" unicode="&#xee6f;&#x331;" 
d="M485 -77l-38 -188h-78l37 188h79zM78 0l71 352q70 352 281 352t141 -352l-71 -352h-78l62 313h-265l-63 -313h-78zM235 391h264q38 234 -85 234q-124 0 -179 -234z" />
    <glyph glyph-name="UkaliqIterationMark_UkaliqModifierDot" unicode="&#xee70;&#x331;" 
d="M102 78h406l-16 -78h-406zM164 391h407l-16 -78h-406zM485 -77l-38 -188h-78l37 188h79zM227 704h406l-15 -79h-407z" />
    <glyph glyph-name="UkaliqPercent_UkaliqModifierDot" unicode="&#xee71;&#x331;" 
d="M164 391q414 0 375 -196q-39 -195 -453 -195l16 78q336 0 359 117q24 118 -312 118zM485 -77l-38 -188h-78l37 188h79zM227 704h406l-15 -79h-407z" />
    <glyph glyph-name="UkaliqLetterAgqa_UkaliqModifierDot" unicode="&#xee72;&#x331;" 
d="M618 625q-337 0 -360 -117t313 -117l-16 -78q-414 0 -375 195q39 196 453 196zM102 78h406l-16 -78h-406zM485 -77l-38 -188h-78l37 188h79z" />
    <glyph glyph-name="UkaliqLetterAba_UkaliqModifierDot" unicode="&#xee73;&#x331;" 
d="M485 -77l-38 -188h-78l37 188h79zM618 625q-337 0 -360 -117t224 -117q96 0 78 -91q-60 -300 -474 -300l16 78q336 0 380 222q3 13 -16 13q-325 0 -286 195q39 196 453 196z" />
    <glyph glyph-name="UkaliqLetterEdre_UkaliqModifierDot" unicode="&#xee74;&#x331;" 
d="M555 313q-336 0 -360 -118q-23 -117 313 -117l-16 -78q-414 0 -375 195q39 196 454 196zM485 -77l-38 -188h-78l37 188h79zM227 704h406l-15 -79h-407z" />
    <glyph glyph-name="UkaliqLetterUgu_UkaliqModifierDot" unicode="&#xee75;&#x331;" 
d="M485 -77l-38 -188h-78l37 188h79zM227 704h406l-15 -79h-407zM195 195q-23 -117 110 -117t156 117q24 118 -109 118t-157 -118zM117 195q39 196 250 196t172 -196q-39 -195 -250 -195t-172 195z" />
    <glyph glyph-name="UkaliqLetterIgji_UkaliqModifierDot" unicode="&#xee76;&#x331;" 
d="M485 -77l-38 -188h-78l37 188h79zM221 313q-24 -235 287 -235l-16 -78q-414 0 -343 352q70 352 484 352l-15 -79q-312 0 -381 -234h334l-16 -78h-334z" />
    <glyph glyph-name="UkaliqLetterOdo_UkaliqModifierDot" unicode="&#xee77;&#x331;" 
d="M485 -77l-38 -188h-78l37 188h79zM220 312q-38 -234 85 -234q133 0 156 117q23 110 -241 117zM236 390q339 -10 303 -195q-39 -195 -250 -195t-140 352q70 352 484 352l-15 -79q-313 0 -382 -235z" />
    <glyph glyph-name="UkaliqLetterOhhko_UkaliqModifierDot" unicode="&#xee78;&#x331;" 
d="M102 78h406l-16 -78h-406zM227 704q414 0 375 -196q-39 -195 -453 -195l15 78q336 0 360 117q23 117 -313 117zM485 -77l-38 -188h-78l37 188h79z" />
    <glyph glyph-name="UkaliqLetterAhka_UkaliqModifierDot" unicode="&#xee79;&#x331;" 
d="M227 704q414 0 344 -352q-71 -352 -485 -352l16 78q311 0 380 235h-333l15 78h334q24 234 -287 234zM485 -77l-38 -188h-78l37 188h79z" />
    <glyph glyph-name="UkaliqLetterAqa_UkaliqModifierDot" unicode="&#xee7a;&#x331;" 
d="M102 78h406l-16 -78h-406zM485 -77l-38 -188h-78l37 188h79zM258 508q-23 -117 109 -117q133 0 157 117q23 117 -110 117t-156 -117zM180 508q39 196 250 196t172 -196q-39 -195 -250 -195t-172 195z" />
    <glyph glyph-name="UkaliqLetterApa_UkaliqModifierDot" unicode="&#xee7b;&#x331;" 
d="M485 -77l-38 -188h-78l37 188h79zM499 392q38 233 -85 233q-133 0 -156 -117q-22 -109 241 -116zM483 314q-339 10 -303 194q39 196 250 196t141 -352q-71 -352 -485 -352l16 78q312 0 381 236z" />
    <glyph glyph-name="UkaliqLetterEtre_UkaliqModifierDot" unicode="&#xee7c;&#x331;" 
d="M227 704q414 0 375 -196q-39 -195 -365 -195q-18 0 -21 -13q-44 -222 292 -222l-16 -78q-414 0 -354 300q18 91 115 91q247 0 271 117q23 117 -313 117zM485 -77l-38 -188h-78l37 188h79z" />
    <glyph glyph-name="UkaliqLetterUku_UkaliqModifierDot" unicode="&#xee7d;&#x331;" 
d="M227 704q414 0 344 -352q-71 -352 -282 -352t-172 195q37 185 381 195q25 235 -287 235zM485 -77l-38 -188h-78l37 188h79zM483 312q-266 -8 -288 -117q-23 -117 110 -117q123 0 178 234z" />
    <glyph glyph-name="UkaliqLetterIci_UkaliqModifierDot" unicode="&#xee7e;&#x331;" 
d="M485 -77l-38 -188h-78l37 188h79zM221 314q-25 -236 287 -236l-16 -78q-414 0 -343 352q70 352 281 352t172 -196q-37 -184 -381 -194zM236 392q266 7 288 116q23 117 -110 117q-123 0 -178 -233z" />
    <glyph glyph-name="UkaliqLetterOto_UkaliqModifierDot" unicode="&#xee7f;&#x331;" 
d="M485 -77l-38 -188h-78l37 188h79zM235 391h264q38 234 -85 234q-124 0 -179 -234zM484 313h-264q-38 -235 85 -235q124 0 179 235zM149 352q70 352 281 352t141 -352q-71 -352 -282 -352t-140 352z" />
    <glyph glyph-name="UkaliqPatternBlank_UkaliqModifierDot" unicode="&#xf1d00;&#x331;" 
d="M485 -77l-38 -188h-78l37 188h79z" />
    <glyph glyph-name="UkaliqPatternSegmentsC_UkaliqModifierDot" unicode="&#xf1d01;&#x331;" 
d="M578 391l-78 -391h-78l78 391h78zM485 -77l-38 -188h-78l37 188h79z" />
    <glyph glyph-name="UkaliqPatternSegmentsF_UkaliqModifierDot" unicode="&#xf1d02;&#x331;" 
d="M297 704l-78 -391h-78l78 391h78zM485 -77l-38 -188h-78l37 188h79z" />
    <glyph glyph-name="UkaliqPatternSegmentsCf_UkaliqModifierDot" unicode="&#xf1d03;&#x331;" 
d="M578 391l-78 -391h-78l78 391h78zM297 704l-78 -391h-78l78 391h78zM485 -77l-38 -188h-78l37 188h79z" />
    <glyph glyph-name="UkaliqPatternSegmentsE_UkaliqModifierDot" unicode="&#xf1d04;&#x331;" 
d="M235 391l-79 -391h-78l78 391h79zM485 -77l-38 -188h-78l37 188h79z" />
    <glyph glyph-name="UkaliqPatternSegmentsCe_UkaliqModifierDot" unicode="&#xf1d05;&#x331;" 
d="M578 391l-78 -391h-78l78 391h78zM235 391l-79 -391h-78l78 391h79zM485 -77l-38 -188h-78l37 188h79z" />
    <glyph glyph-name="UkaliqPatternSegmentsEf_UkaliqModifierDot" unicode="&#xf1d06;&#x331;" 
d="M297 704l-141 -704h-78l141 704h78zM485 -77l-38 -188h-78l37 188h79z" />
    <glyph glyph-name="UkaliqPatternSegmentsCef_UkaliqModifierDot" unicode="&#xf1d07;&#x331;" 
d="M297 704l-141 -704h-78l141 704h78zM578 391l-78 -391h-78l78 391h78zM485 -77l-38 -188h-78l37 188h79z" />
    <glyph glyph-name="UkaliqPatternSegmentsB_UkaliqModifierDot" unicode="&#xf1d08;&#x331;" 
d="M641 704l-78 -391h-78l78 391h78zM485 -77l-38 -188h-78l37 188h79z" />
    <glyph glyph-name="UkaliqPatternSegmentsBc_UkaliqModifierDot" unicode="&#xf1d09;&#x331;" 
d="M641 704l-141 -704h-78l141 704h78zM485 -77l-38 -188h-78l37 188h79z" />
    <glyph glyph-name="UkaliqPatternSegmentsBf_UkaliqModifierDot" unicode="&#xf1d0a;&#x331;" 
d="M297 704l-78 -391h-78l78 391h78zM641 704l-78 -391h-78l78 391h78zM485 -77l-38 -188h-78l37 188h79z" />
    <glyph glyph-name="UkaliqPatternSegmentsBcf_UkaliqModifierDot" unicode="&#xf1d0b;&#x331;" 
d="M641 704l-141 -704h-78l141 704h78zM297 704l-78 -391h-78l78 391h78zM485 -77l-38 -188h-78l37 188h79z" />
    <glyph glyph-name="UkaliqPatternSegmentsBe_UkaliqModifierDot" unicode="&#xf1d0c;&#x331;" 
d="M641 704l-78 -391h-78l78 391h78zM235 391l-79 -391h-78l78 391h79zM485 -77l-38 -188h-78l37 188h79z" />
    <glyph glyph-name="UkaliqPatternSegmentsBce_UkaliqModifierDot" unicode="&#xf1d0d;&#x331;" 
d="M641 704l-141 -704h-78l141 704h78zM235 391l-79 -391h-78l78 391h79zM485 -77l-38 -188h-78l37 188h79z" />
    <glyph glyph-name="UkaliqPatternSegmentsBef_UkaliqModifierDot" unicode="&#xf1d0e;&#x331;" 
d="M297 704l-141 -704h-78l141 704h78zM641 704l-78 -391h-78l78 391h78zM485 -77l-38 -188h-78l37 188h79z" />
    <glyph glyph-name="UkaliqPatternSegmentsBcef_UkaliqModifierDot" unicode="&#xf1d0f;&#x331;" 
d="M641 704l-141 -704h-78l141 704h78zM297 704l-141 -704h-78l141 704h78zM485 -77l-38 -188h-78l37 188h79z" />
    <glyph glyph-name="UkaliqPatternSegmentsD_UkaliqModifierDot" unicode="&#xf1d10;&#x331;" 
d="M102 78h406l-16 -78h-406zM485 -77l-38 -188h-78l37 188h79z" />
    <glyph glyph-name="UkaliqPatternSegmentsCd_UkaliqModifierDot" unicode="&#xf1d11;&#x331;" 
d="M485 -77l-38 -188h-78l37 188h79zM578 391q-78 -391 -492 -391l16 78q336 0 398 313h78z" />
    <glyph glyph-name="UkaliqPatternSegmentsDf_UkaliqModifierDot" unicode="&#xf1d12;&#x331;" 
d="M102 78h406l-16 -78h-406zM297 704l-78 -391h-78l78 391h78zM485 -77l-38 -188h-78l37 188h79z" />
    <glyph glyph-name="UkaliqPatternSegmentsCdf_UkaliqModifierDot" unicode="&#xf1d13;&#x331;" 
d="M297 704l-78 -391h-78l78 391h78zM485 -77l-38 -188h-78l37 188h79zM578 391q-78 -391 -492 -391l16 78q336 0 398 313h78z" />
    <glyph glyph-name="UkaliqPatternSegmentsDe_UkaliqModifierDot" unicode="&#xf1d14;&#x331;" 
d="M235 391q-63 -313 273 -313l-16 -78q-414 0 -336 391h79zM485 -77l-38 -188h-78l37 188h79z" />
    <glyph glyph-name="UkaliqPatternSegmentsCde_UkaliqModifierDot" unicode="&#xf1d15;&#x331;" 
d="M235 391q-63 -313 70 -313t195 313h78q-78 -391 -289 -391t-133 391h79zM485 -77l-38 -188h-78l37 188h79z" />
    <glyph glyph-name="UkaliqPatternSegmentsDef_UkaliqModifierDot" unicode="&#xf1d16;&#x331;" 
d="M297 704l-44 -222q-81 -404 255 -404l-16 -78q-414 0 -317 482l44 222h78zM485 -77l-38 -188h-78l37 188h79z" />
    <glyph glyph-name="UkaliqPatternSegmentsCdef_UkaliqModifierDot" unicode="&#xf1d17;&#x331;" 
d="M297 704l-44 -222q-81 -404 52 -404t195 313h78q-78 -391 -289 -391t-114 482l44 222h78zM485 -77l-38 -188h-78l37 188h79z" />
    <glyph glyph-name="UkaliqPatternSegmentsBd_UkaliqModifierDot" unicode="&#xf1d18;&#x331;" 
d="M102 78h406l-16 -78h-406zM641 704l-78 -391h-78l78 391h78zM485 -77l-38 -188h-78l37 188h79z" />
    <glyph glyph-name="UkaliqPatternSegmentsBcd_UkaliqModifierDot" unicode="&#xf1d19;&#x331;" 
d="M641 704l-44 -222q-97 -482 -511 -482l16 78q336 0 417 404l44 222h78zM485 -77l-38 -188h-78l37 188h79z" />
    <glyph glyph-name="UkaliqPatternSegmentsBdf_UkaliqModifierDot" unicode="&#xf1d1a;&#x331;" 
d="M102 78h406l-16 -78h-406zM297 704l-78 -391h-78l78 391h78zM641 704l-78 -391h-78l78 391h78zM485 -77l-38 -188h-78l37 188h79z" />
    <glyph glyph-name="UkaliqPatternSegmentsBcdf_UkaliqModifierDot" unicode="&#xf1d1b;&#x331;" 
d="M297 704l-78 -391h-78l78 391h78zM641 704l-44 -222q-97 -482 -511 -482l16 78q336 0 417 404l44 222h78zM485 -77l-38 -188h-78l37 188h79z" />
    <glyph glyph-name="UkaliqPatternSegmentsBde_UkaliqModifierDot" unicode="&#xf1d1c;&#x331;" 
d="M235 391q-63 -313 273 -313l-16 -78q-414 0 -336 391h79zM641 704l-78 -391h-78l78 391h78zM485 -77l-38 -188h-78l37 188h79z" />
    <glyph glyph-name="UkaliqPatternSegmentsBcde_UkaliqModifierDot" unicode="&#xf1d1d;&#x331;" 
d="M641 704l-44 -222q-97 -482 -308 -482t-133 391h79q-63 -313 70 -313t214 404l44 222h78zM485 -77l-38 -188h-78l37 188h79z" />
    <glyph glyph-name="UkaliqPatternSegmentsBdef_UkaliqModifierDot" unicode="&#xf1d1e;&#x331;" 
d="M297 704l-44 -222q-81 -404 255 -404l-16 -78q-414 0 -317 482l44 222h78zM641 704l-78 -391h-78l78 391h78zM485 -77l-38 -188h-78l37 188h79z" />
    <glyph glyph-name="UkaliqPatternSegmentsBcdef_UkaliqModifierDot" unicode="&#xf1d1f;&#x331;" 
d="M297 704l-44 -222q-81 -404 52 -404t214 404l44 222h78l-44 -222q-97 -482 -308 -482t-114 482l44 222h78zM485 -77l-38 -188h-78l37 188h79z" />
    <glyph glyph-name="UkaliqPatternSegmentsA_UkaliqModifierDot" unicode="&#xf1d20;&#x331;" 
d="M485 -77l-38 -188h-78l37 188h79zM227 704h406l-15 -79h-407z" />
    <glyph glyph-name="UkaliqPatternSegmentsAc_UkaliqModifierDot" unicode="&#xf1d21;&#x331;" 
d="M578 391l-78 -391h-78l78 391h78zM485 -77l-38 -188h-78l37 188h79zM227 704h406l-15 -79h-407z" />
    <glyph glyph-name="UkaliqPatternSegmentsAf_UkaliqModifierDot" unicode="&#xf1d22;&#x331;" 
d="M618 625q-337 0 -399 -312h-78q78 391 492 391zM485 -77l-38 -188h-78l37 188h79z" />
    <glyph glyph-name="UkaliqPatternSegmentsAcf_UkaliqModifierDot" unicode="&#xf1d23;&#x331;" 
d="M578 391l-78 -391h-78l78 391h78zM618 625q-337 0 -399 -312h-78q78 391 492 391zM485 -77l-38 -188h-78l37 188h79z" />
    <glyph glyph-name="UkaliqPatternSegmentsAe_UkaliqModifierDot" unicode="&#xf1d24;&#x331;" 
d="M235 391l-79 -391h-78l78 391h79zM485 -77l-38 -188h-78l37 188h79zM227 704h406l-15 -79h-407z" />
    <glyph glyph-name="UkaliqPatternSegmentsAce_UkaliqModifierDot" unicode="&#xf1d25;&#x331;" 
d="M578 391l-78 -391h-78l78 391h78zM235 391l-79 -391h-78l78 391h79zM485 -77l-38 -188h-78l37 188h79zM227 704h406l-15 -79h-407z" />
    <glyph glyph-name="UkaliqPatternSegmentsAef_UkaliqModifierDot" unicode="&#xf1d26;&#x331;" 
d="M618 625q-337 0 -417 -404l-45 -221h-78l44 221q97 483 511 483zM485 -77l-38 -188h-78l37 188h79z" />
    <glyph glyph-name="UkaliqPatternSegmentsAcef_UkaliqModifierDot" unicode="&#xf1d27;&#x331;" 
d="M618 625q-337 0 -417 -404l-45 -221h-78l44 221q97 483 511 483zM578 391l-78 -391h-78l78 391h78zM485 -77l-38 -188h-78l37 188h79z" />
    <glyph glyph-name="UkaliqPatternSegmentsAb_UkaliqModifierDot" unicode="&#xf1d28;&#x331;" 
d="M227 704q414 0 336 -391h-78q62 312 -274 312zM485 -77l-38 -188h-78l37 188h79z" />
    <glyph glyph-name="UkaliqPatternSegmentsAbc_UkaliqModifierDot" unicode="&#xf1d29;&#x331;" 
d="M227 704q414 0 318 -483l-45 -221h-78l44 221q81 404 -255 404zM485 -77l-38 -188h-78l37 188h79z" />
    <glyph glyph-name="UkaliqPatternSegmentsAbf_UkaliqModifierDot" unicode="&#xf1d2a;&#x331;" 
d="M141 313q78 391 289 391t133 -391h-78q62 312 -71 312t-195 -312h-78zM485 -77l-38 -188h-78l37 188h79z" />
    <glyph glyph-name="UkaliqPatternSegmentsAbcf_UkaliqModifierDot" unicode="&#xf1d2b;&#x331;" 
d="M141 313q78 391 289 391t115 -483l-45 -221h-78l44 221q81 404 -52 404t-195 -312h-78zM485 -77l-38 -188h-78l37 188h79z" />
    <glyph glyph-name="UkaliqPatternSegmentsAbe_UkaliqModifierDot" unicode="&#xf1d2c;&#x331;" 
d="M227 704q414 0 336 -391h-78q62 312 -274 312zM235 391l-79 -391h-78l78 391h79zM485 -77l-38 -188h-78l37 188h79z" />
    <glyph glyph-name="UkaliqPatternSegmentsAbce_UkaliqModifierDot" unicode="&#xf1d2d;&#x331;" 
d="M227 704q414 0 318 -483l-45 -221h-78l44 221q81 404 -255 404zM235 391l-79 -391h-78l78 391h79zM485 -77l-38 -188h-78l37 188h79z" />
    <glyph glyph-name="UkaliqPatternSegmentsAbef_UkaliqModifierDot" unicode="&#xf1d2e;&#x331;" 
d="M485 313q62 312 -71 312t-213 -404l-45 -221h-78l44 221q97 483 308 483t133 -391h-78zM485 -77l-38 -188h-78l37 188h79z" />
    <glyph glyph-name="UkaliqPatternSegmentsAbcef_UkaliqModifierDot" unicode="&#xf1d2f;&#x331;" 
d="M78 0l44 221q97 483 308 483t115 -483l-45 -221h-78l44 221q81 404 -52 404t-213 -404l-45 -221h-78zM485 -77l-38 -188h-78l37 188h79z" />
    <glyph glyph-name="UkaliqPatternSegmentsAd_UkaliqModifierDot" unicode="&#xf1d30;&#x331;" 
d="M102 78h406l-16 -78h-406zM485 -77l-38 -188h-78l37 188h79zM227 704h406l-15 -79h-407z" />
    <glyph glyph-name="UkaliqPatternSegmentsAcd_UkaliqModifierDot" unicode="&#xf1d31;&#x331;" 
d="M485 -77l-38 -188h-78l37 188h79zM578 391q-78 -391 -492 -391l16 78q336 0 398 313h78zM227 704h406l-15 -79h-407z" />
    <glyph glyph-name="UkaliqPatternSegmentsAdf_UkaliqModifierDot" unicode="&#xf1d32;&#x331;" 
d="M102 78h406l-16 -78h-406zM618 625q-337 0 -399 -312h-78q78 391 492 391zM485 -77l-38 -188h-78l37 188h79z" />
    <glyph glyph-name="UkaliqPatternSegmentsAcdf_UkaliqModifierDot" unicode="&#xf1d33;&#x331;" 
d="M618 625q-337 0 -399 -312h-78q78 391 492 391zM485 -77l-38 -188h-78l37 188h79zM578 391q-78 -391 -492 -391l16 78q336 0 398 313h78z" />
    <glyph glyph-name="UkaliqPatternSegmentsAde_UkaliqModifierDot" unicode="&#xf1d34;&#x331;" 
d="M235 391q-63 -313 273 -313l-16 -78q-414 0 -336 391h79zM485 -77l-38 -188h-78l37 188h79zM227 704h406l-15 -79h-407z" />
    <glyph glyph-name="UkaliqPatternSegmentsAcde_UkaliqModifierDot" unicode="&#xf1d35;&#x331;" 
d="M235 391q-63 -313 70 -313t195 313h78q-78 -391 -289 -391t-133 391h79zM485 -77l-38 -188h-78l37 188h79zM227 704h406l-15 -79h-407z" />
    <glyph glyph-name="UkaliqPatternSegmentsAdef_UkaliqModifierDot" unicode="&#xf1d36;&#x331;" 
d="M618 625q-337 0 -391 -273q-55 -274 281 -274l-16 -78q-414 0 -343 352q70 352 484 352zM485 -77l-38 -188h-78l37 188h79z" />
    <glyph glyph-name="UkaliqPatternSegmentsAcdef_UkaliqModifierDot" unicode="&#xf1d37;&#x331;" 
d="M618 625q-337 0 -391 -273q-55 -274 78 -274t195 313h78q-78 -391 -289 -391t-140 352q70 352 484 352zM485 -77l-38 -188h-78l37 188h79z" />
    <glyph glyph-name="UkaliqPatternSegmentsAbd_UkaliqModifierDot" unicode="&#xf1d38;&#x331;" 
d="M102 78h406l-16 -78h-406zM227 704q414 0 336 -391h-78q62 312 -274 312zM485 -77l-38 -188h-78l37 188h79z" />
    <glyph glyph-name="UkaliqPatternSegmentsAbcd_UkaliqModifierDot" unicode="&#xf1d39;&#x331;" 
d="M227 704q414 0 344 -352q-71 -352 -485 -352l16 78q336 0 390 274q55 273 -281 273zM485 -77l-38 -188h-78l37 188h79z" />
    <glyph glyph-name="UkaliqPatternSegmentsAbdf_UkaliqModifierDot" unicode="&#xf1d3a;&#x331;" 
d="M102 78h406l-16 -78h-406zM141 313q78 391 289 391t133 -391h-78q62 312 -71 312t-195 -312h-78zM485 -77l-38 -188h-78l37 188h79z" />
    <glyph glyph-name="UkaliqPatternSegmentsAbcdf_UkaliqModifierDot" unicode="&#xf1d3b;&#x331;" 
d="M141 313q78 391 289 391t141 -352q-71 -352 -485 -352l16 78q336 0 390 274q55 273 -78 273t-195 -312h-78zM485 -77l-38 -188h-78l37 188h79z" />
    <glyph glyph-name="UkaliqPatternSegmentsAbde_UkaliqModifierDot" unicode="&#xf1d3c;&#x331;" 
d="M227 704q414 0 336 -391h-78q62 312 -274 312zM235 391q-63 -313 273 -313l-16 -78q-414 0 -336 391h79zM485 -77l-38 -188h-78l37 188h79z" />
    <glyph glyph-name="UkaliqPatternSegmentsAbcde_UkaliqModifierDot" unicode="&#xf1d3d;&#x331;" 
d="M227 704q414 0 344 -352q-71 -352 -282 -352t-133 391h79q-63 -313 70 -313t187 274q55 273 -281 273zM485 -77l-38 -188h-78l37 188h79z" />
    <glyph glyph-name="UkaliqPatternSegmentsAbdef_UkaliqModifierDot" unicode="&#xf1d3e;&#x331;" 
d="M485 313q62 312 -71 312t-187 -273q-55 -274 281 -274l-16 -78q-414 0 -343 352q70 352 281 352t133 -391h-78zM485 -77l-38 -188h-78l37 188h79z" />
    <glyph glyph-name="UkaliqPatternSegmentsAbcdef_UkaliqModifierDot" unicode="&#xf1d3f;&#x331;" 
d="M485 -77l-38 -188h-78l37 188h79zM227 352q-55 -274 78 -274t187 274q55 273 -78 273t-187 -273zM149 352q70 352 281 352t141 -352q-71 -352 -282 -352t-140 352z" />
    <glyph glyph-name="UkaliqPatternSegmentsG_UkaliqModifierDot" unicode="&#xf1d40;&#x331;" 
d="M164 391h407l-16 -78h-406zM485 -77l-38 -188h-78l37 188h79z" />
    <glyph glyph-name="UkaliqPatternSegmentsCg_UkaliqModifierDot" unicode="&#xf1d41;&#x331;" 
d="M164 391q414 0 336 -391h-78q63 313 -273 313zM485 -77l-38 -188h-78l37 188h79z" />
    <glyph glyph-name="UkaliqPatternSegmentsFg_UkaliqModifierDot" unicode="&#xf1d42;&#x331;" 
d="M297 704q-62 -313 274 -313l-16 -78q-414 0 -336 391h78zM485 -77l-38 -188h-78l37 188h79z" />
    <glyph glyph-name="UkaliqPatternSegmentsCfg_UkaliqModifierDot" unicode="&#xf1d43;&#x331;" 
d="M485 -77l-38 -188h-78l37 188h79zM297 704q-62 -313 185 -313q96 0 75 -110l-57 -281h-78l56 281q7 32 -12 32q-325 0 -247 391h78z" />
    <glyph glyph-name="UkaliqPatternSegmentsEg_UkaliqModifierDot" unicode="&#xf1d44;&#x331;" 
d="M555 313q-336 0 -399 -313h-78q78 391 493 391zM485 -77l-38 -188h-78l37 188h79z" />
    <glyph glyph-name="UkaliqPatternSegmentsCeg_UkaliqModifierDot" unicode="&#xf1d45;&#x331;" 
d="M78 0q78 391 289 391t133 -391h-78q63 313 -70 313t-196 -313h-78zM485 -77l-38 -188h-78l37 188h79z" />
    <glyph glyph-name="UkaliqPatternSegmentsEfg_UkaliqModifierDot" unicode="&#xf1d46;&#x331;" 
d="M485 -77l-38 -188h-78l37 188h79zM219 313l-63 -313h-78l71 352l70 352h78l-62 -313h336l-16 -78h-336z" />
    <glyph glyph-name="UkaliqPatternSegmentsCefg_UkaliqModifierDot" unicode="&#xf1d47;&#x331;" 
d="M485 -77l-38 -188h-78l37 188h79zM219 312l-63 -312h-78l71 352l70 352h78l-62 -314q339 -20 265 -390h-78q59 293 -203 312z" />
    <glyph glyph-name="UkaliqPatternSegmentsBg_UkaliqModifierDot" unicode="&#xf1d48;&#x331;" 
d="M641 704q-78 -391 -492 -391l15 78q336 0 399 313h78zM485 -77l-38 -188h-78l37 188h79z" />
    <glyph glyph-name="UkaliqPatternSegmentsBcg_UkaliqModifierDot" unicode="&#xf1d49;&#x331;" 
d="M641 704l-70 -352l-71 -352h-78l62 313h-335l15 78h336l63 313h78zM485 -77l-38 -188h-78l37 188h79z" />
    <glyph glyph-name="UkaliqPatternSegmentsBfg_UkaliqModifierDot" unicode="&#xf1d4a;&#x331;" 
d="M297 704q-62 -313 70 -313q133 0 196 313h78q-78 -391 -289 -391t-133 391h78zM485 -77l-38 -188h-78l37 188h79z" />
    <glyph glyph-name="UkaliqPatternSegmentsBcfg_UkaliqModifierDot" unicode="&#xf1d4b;&#x331;" 
d="M485 -77l-38 -188h-78l37 188h79zM297 704q-58 -292 203 -312l63 312h78l-70 -352l-71 -352h-78l62 314q-339 20 -265 390h78z" />
    <glyph glyph-name="UkaliqPatternSegmentsBeg_UkaliqModifierDot" unicode="&#xf1d4c;&#x331;" 
d="M641 704q-78 -391 -404 -391q-18 0 -24 -32l-57 -281h-78l56 281q22 110 119 110q247 0 310 313h78zM485 -77l-38 -188h-78l37 188h79z" />
    <glyph glyph-name="UkaliqPatternSegmentsBceg_UkaliqModifierDot" unicode="&#xf1d4d;&#x331;" 
d="M641 704l-70 -352l-71 -352h-78l62 312q-269 -20 -328 -312h-78q74 370 422 390l63 314h78zM485 -77l-38 -188h-78l37 188h79z" />
    <glyph glyph-name="UkaliqPatternSegmentsBefg_UkaliqModifierDot" unicode="&#xf1d4e;&#x331;" 
d="M485 -77l-38 -188h-78l37 188h79zM219 314l-63 -314h-78l71 352l70 352h78l-62 -312q269 20 328 312h78q-74 -371 -422 -390z" />
    <glyph glyph-name="UkaliqPatternSegmentsBcefg_UkaliqModifierDot" unicode="&#xf1d4f;&#x331;" 
d="M485 -77l-38 -188h-78l37 188h79zM641 704l-70 -352l-71 -352h-78l62 313h-265l-63 -313h-78l71 352l70 352h78l-62 -313h265l63 313h78z" />
    <glyph glyph-name="UkaliqPatternSegmentsDg_UkaliqModifierDot" unicode="&#xf1d50;&#x331;" 
d="M102 78h406l-16 -78h-406zM164 391h407l-16 -78h-406zM485 -77l-38 -188h-78l37 188h79z" />
    <glyph glyph-name="UkaliqPatternSegmentsCdg_UkaliqModifierDot" unicode="&#xf1d51;&#x331;" 
d="M164 391q414 0 375 -196q-39 -195 -453 -195l16 78q336 0 359 117q24 118 -312 118zM485 -77l-38 -188h-78l37 188h79z" />
    <glyph glyph-name="UkaliqPatternSegmentsDfg_UkaliqModifierDot" unicode="&#xf1d52;&#x331;" 
d="M297 704q-62 -313 274 -313l-16 -78q-414 0 -336 391h78zM102 78h406l-16 -78h-406zM485 -77l-38 -188h-78l37 188h79z" />
    <glyph glyph-name="UkaliqPatternSegmentsCdfg_UkaliqModifierDot" unicode="&#xf1d53;&#x331;" 
d="M485 -77l-38 -188h-78l37 188h79zM297 704q-62 -313 185 -313q96 0 78 -91q-60 -300 -474 -300l16 78q336 0 380 222q3 13 -16 13q-325 0 -247 391h78z" />
    <glyph glyph-name="UkaliqPatternSegmentsDeg_UkaliqModifierDot" unicode="&#xf1d54;&#x331;" 
d="M555 313q-336 0 -360 -118q-23 -117 313 -117l-16 -78q-414 0 -375 195q39 196 454 196zM485 -77l-38 -188h-78l37 188h79z" />
    <glyph glyph-name="UkaliqPatternSegmentsCdeg_UkaliqModifierDot" unicode="&#xf1d55;&#x331;" 
d="M485 -77l-38 -188h-78l37 188h79zM195 195q-23 -117 110 -117t156 117q24 118 -109 118t-157 -118zM117 195q39 196 250 196t172 -196q-39 -195 -250 -195t-172 195z" />
    <glyph glyph-name="UkaliqPatternSegmentsDefg_UkaliqModifierDot" unicode="&#xf1d56;&#x331;" 
d="M485 -77l-38 -188h-78l37 188h79zM221 313q-24 -235 287 -235l-16 -78q-414 0 -343 352l70 352h78l-62 -313h336l-16 -78h-334z" />
    <glyph glyph-name="UkaliqPatternSegmentsCdefg_UkaliqModifierDot" unicode="&#xf1d57;&#x331;" 
d="M485 -77l-38 -188h-78l37 188h79zM220 312q-38 -234 85 -234q133 0 156 117q23 110 -241 117zM235 390q341 -10 304 -195q-39 -195 -250 -195t-140 352l70 352h78z" />
    <glyph glyph-name="UkaliqPatternSegmentsBdg_UkaliqModifierDot" unicode="&#xf1d58;&#x331;" 
d="M102 78h406l-16 -78h-406zM641 704q-78 -391 -492 -391l15 78q336 0 399 313h78zM485 -77l-38 -188h-78l37 188h79z" />
    <glyph glyph-name="UkaliqPatternSegmentsBcdg_UkaliqModifierDot" unicode="&#xf1d59;&#x331;" 
d="M641 704l-70 -352q-71 -352 -485 -352l16 78q311 0 380 235h-333l15 78h336l63 313h78zM485 -77l-38 -188h-78l37 188h79z" />
    <glyph glyph-name="UkaliqPatternSegmentsBdfg_UkaliqModifierDot" unicode="&#xf1d5a;&#x331;" 
d="M297 704q-62 -313 70 -313q133 0 196 313h78q-78 -391 -289 -391t-133 391h78zM102 78h406l-16 -78h-406zM485 -77l-38 -188h-78l37 188h79z" />
    <glyph glyph-name="UkaliqPatternSegmentsBcdfg_UkaliqModifierDot" unicode="&#xf1d5b;&#x331;" 
d="M485 -77l-38 -188h-78l37 188h79zM297 704q-58 -292 203 -312l63 312h78l-70 -352q-71 -352 -485 -352l16 78q312 0 381 236q-337 21 -264 390h78z" />
    <glyph glyph-name="UkaliqPatternSegmentsBdeg_UkaliqModifierDot" unicode="&#xf1d5c;&#x331;" 
d="M641 704q-78 -391 -404 -391q-18 0 -21 -13q-44 -222 292 -222l-16 -78q-414 0 -354 300q18 91 115 91q247 0 310 313h78zM485 -77l-38 -188h-78l37 188h79z" />
    <glyph glyph-name="UkaliqPatternSegmentsBcdeg_UkaliqModifierDot" unicode="&#xf1d5d;&#x331;" 
d="M641 704l-70 -352q-71 -352 -282 -352t-172 195q37 186 383 195l63 314h78zM485 -77l-38 -188h-78l37 188h79zM483 312q-266 -8 -288 -117q-23 -117 110 -117q123 0 178 234z" />
    <glyph glyph-name="UkaliqPatternSegmentsBdefg_UkaliqModifierDot" unicode="&#xf1d5e;&#x331;" 
d="M485 -77l-38 -188h-78l37 188h79zM221 314q-25 -236 287 -236l-16 -78q-414 0 -343 352l70 352h78l-62 -312q269 20 328 312h78q-74 -370 -420 -390z" />
    <glyph glyph-name="UkaliqPatternSegmentsBcdefg_UkaliqModifierDot" unicode="&#xf1d5f;&#x331;" 
d="M485 -77l-38 -188h-78l37 188h79zM500 391l63 313h78l-70 -352q-71 -352 -282 -352t-140 352l70 352h78l-62 -313h265zM484 313h-264q-38 -235 85 -235q124 0 179 235z" />
    <glyph glyph-name="UkaliqPatternSegmentsAg_UkaliqModifierDot" unicode="&#xf1d60;&#x331;" 
d="M164 391h407l-16 -78h-406zM485 -77l-38 -188h-78l37 188h79zM227 704h406l-15 -79h-407z" />
    <glyph glyph-name="UkaliqPatternSegmentsAcg_UkaliqModifierDot" unicode="&#xf1d61;&#x331;" 
d="M164 391q414 0 336 -391h-78q63 313 -273 313zM485 -77l-38 -188h-78l37 188h79zM227 704h406l-15 -79h-407z" />
    <glyph glyph-name="UkaliqPatternSegmentsAfg_UkaliqModifierDot" unicode="&#xf1d62;&#x331;" 
d="M618 625q-337 0 -360 -117t313 -117l-16 -78q-414 0 -375 195q39 196 453 196zM485 -77l-38 -188h-78l37 188h79z" />
    <glyph glyph-name="UkaliqPatternSegmentsAcfg_UkaliqModifierDot" unicode="&#xf1d63;&#x331;" 
d="M485 -77l-38 -188h-78l37 188h79zM618 625q-337 0 -360 -117t224 -117q96 0 75 -110l-57 -281h-78l56 281q7 32 -12 32q-325 0 -286 195q39 196 453 196z" />
    <glyph glyph-name="UkaliqPatternSegmentsAeg_UkaliqModifierDot" unicode="&#xf1d64;&#x331;" 
d="M555 313q-336 0 -399 -313h-78q78 391 493 391zM485 -77l-38 -188h-78l37 188h79zM227 704h406l-15 -79h-407z" />
    <glyph glyph-name="UkaliqPatternSegmentsAceg_UkaliqModifierDot" unicode="&#xf1d65;&#x331;" 
d="M78 0q78 391 289 391t133 -391h-78q63 313 -70 313t-196 -313h-78zM485 -77l-38 -188h-78l37 188h79zM227 704h406l-15 -79h-407z" />
    <glyph glyph-name="UkaliqPatternSegmentsAefg_UkaliqModifierDot" unicode="&#xf1d66;&#x331;" 
d="M485 -77l-38 -188h-78l37 188h79zM219 313l-63 -313h-78l71 352q70 352 484 352l-15 -79q-312 0 -381 -234h334l-16 -78h-336z" />
    <glyph glyph-name="UkaliqPatternSegmentsAcefg_UkaliqModifierDot" unicode="&#xf1d67;&#x331;" 
d="M485 -77l-38 -188h-78l37 188h79zM219 312l-63 -312h-78l71 352q70 352 484 352l-15 -79q-313 0 -382 -235q337 -21 264 -390h-78q59 293 -203 312z" />
    <glyph glyph-name="UkaliqPatternSegmentsAbg_UkaliqModifierDot" unicode="&#xf1d68;&#x331;" 
d="M227 704q414 0 375 -196q-39 -195 -453 -195l15 78q336 0 360 117q23 117 -313 117zM485 -77l-38 -188h-78l37 188h79z" />
    <glyph glyph-name="UkaliqPatternSegmentsAbcg_UkaliqModifierDot" unicode="&#xf1d69;&#x331;" 
d="M227 704q414 0 344 -352l-71 -352h-78l62 313h-335l15 78h334q24 234 -287 234zM485 -77l-38 -188h-78l37 188h79z" />
    <glyph glyph-name="UkaliqPatternSegmentsAbfg_UkaliqModifierDot" unicode="&#xf1d6a;&#x331;" 
d="M485 -77l-38 -188h-78l37 188h79zM258 508q-23 -117 109 -117q133 0 157 117q23 117 -110 117t-156 -117zM180 508q39 196 250 196t172 -196q-39 -195 -250 -195t-172 195z" />
    <glyph glyph-name="UkaliqPatternSegmentsAbcfg_UkaliqModifierDot" unicode="&#xf1d6b;&#x331;" 
d="M485 -77l-38 -188h-78l37 188h79zM499 392q38 233 -85 233q-133 0 -156 -117q-22 -109 241 -116zM484 314q-341 10 -304 194q39 196 250 196t141 -352l-71 -352h-78z" />
    <glyph glyph-name="UkaliqPatternSegmentsAbeg_UkaliqModifierDot" unicode="&#xf1d6c;&#x331;" 
d="M227 704q414 0 375 -196q-39 -195 -365 -195q-18 0 -24 -32l-57 -281h-78l56 281q22 110 119 110q247 0 271 117q23 117 -313 117zM485 -77l-38 -188h-78l37 188h79z" />
    <glyph glyph-name="UkaliqPatternSegmentsAbceg_UkaliqModifierDot" unicode="&#xf1d6d;&#x331;" 
d="M227 704q414 0 344 -352l-71 -352h-78l62 312q-269 -20 -328 -312h-78q74 370 420 390q25 235 -287 235zM485 -77l-38 -188h-78l37 188h79z" />
    <glyph glyph-name="UkaliqPatternSegmentsAbefg_UkaliqModifierDot" unicode="&#xf1d6e;&#x331;" 
d="M485 -77l-38 -188h-78l37 188h79zM219 314l-63 -314h-78l71 352q70 352 281 352t172 -196q-37 -184 -383 -194zM236 392q266 7 288 116q23 117 -110 117q-123 0 -178 -233z" />
    <glyph glyph-name="UkaliqPatternSegmentsAbcefg_UkaliqModifierDot" unicode="&#xf1d6f;&#x331;" 
d="M485 -77l-38 -188h-78l37 188h79zM78 0l71 352q70 352 281 352t141 -352l-71 -352h-78l62 313h-265l-63 -313h-78zM235 391h264q38 234 -85 234q-124 0 -179 -234z" />
    <glyph glyph-name="UkaliqPatternSegmentsAdg_UkaliqModifierDot" unicode="&#xf1d70;&#x331;" 
d="M102 78h406l-16 -78h-406zM164 391h407l-16 -78h-406zM485 -77l-38 -188h-78l37 188h79zM227 704h406l-15 -79h-407z" />
    <glyph glyph-name="UkaliqPatternSegmentsAcdg_UkaliqModifierDot" unicode="&#xf1d71;&#x331;" 
d="M164 391q414 0 375 -196q-39 -195 -453 -195l16 78q336 0 359 117q24 118 -312 118zM485 -77l-38 -188h-78l37 188h79zM227 704h406l-15 -79h-407z" />
    <glyph glyph-name="UkaliqPatternSegmentsAdfg_UkaliqModifierDot" unicode="&#xf1d72;&#x331;" 
d="M618 625q-337 0 -360 -117t313 -117l-16 -78q-414 0 -375 195q39 196 453 196zM102 78h406l-16 -78h-406zM485 -77l-38 -188h-78l37 188h79z" />
    <glyph glyph-name="UkaliqPatternSegmentsAcdfg_UkaliqModifierDot" unicode="&#xf1d73;&#x331;" 
d="M485 -77l-38 -188h-78l37 188h79zM618 625q-337 0 -360 -117t224 -117q96 0 78 -91q-60 -300 -474 -300l16 78q336 0 380 222q3 13 -16 13q-325 0 -286 195q39 196 453 196z" />
    <glyph glyph-name="UkaliqPatternSegmentsAdeg_UkaliqModifierDot" unicode="&#xf1d74;&#x331;" 
d="M555 313q-336 0 -360 -118q-23 -117 313 -117l-16 -78q-414 0 -375 195q39 196 454 196zM485 -77l-38 -188h-78l37 188h79zM227 704h406l-15 -79h-407z" />
    <glyph glyph-name="UkaliqPatternSegmentsAcdeg_UkaliqModifierDot" unicode="&#xf1d75;&#x331;" 
d="M485 -77l-38 -188h-78l37 188h79zM227 704h406l-15 -79h-407zM195 195q-23 -117 110 -117t156 117q24 118 -109 118t-157 -118zM117 195q39 196 250 196t172 -196q-39 -195 -250 -195t-172 195z" />
    <glyph glyph-name="UkaliqPatternSegmentsAdefg_UkaliqModifierDot" unicode="&#xf1d76;&#x331;" 
d="M485 -77l-38 -188h-78l37 188h79zM221 313q-24 -235 287 -235l-16 -78q-414 0 -343 352q70 352 484 352l-15 -79q-312 0 -381 -234h334l-16 -78h-334z" />
    <glyph glyph-name="UkaliqPatternSegmentsAcdefg_UkaliqModifierDot" unicode="&#xf1d77;&#x331;" 
d="M485 -77l-38 -188h-78l37 188h79zM220 312q-38 -234 85 -234q133 0 156 117q23 110 -241 117zM236 390q339 -10 303 -195q-39 -195 -250 -195t-140 352q70 352 484 352l-15 -79q-313 0 -382 -235z" />
    <glyph glyph-name="UkaliqPatternSegmentsAbdg_UkaliqModifierDot" unicode="&#xf1d78;&#x331;" 
d="M102 78h406l-16 -78h-406zM227 704q414 0 375 -196q-39 -195 -453 -195l15 78q336 0 360 117q23 117 -313 117zM485 -77l-38 -188h-78l37 188h79z" />
    <glyph glyph-name="UkaliqPatternSegmentsAbcdg_UkaliqModifierDot" unicode="&#xf1d79;&#x331;" 
d="M227 704q414 0 344 -352q-71 -352 -485 -352l16 78q311 0 380 235h-333l15 78h334q24 234 -287 234zM485 -77l-38 -188h-78l37 188h79z" />
    <glyph glyph-name="UkaliqPatternSegmentsAbdfg_UkaliqModifierDot" unicode="&#xf1d7a;&#x331;" 
d="M102 78h406l-16 -78h-406zM485 -77l-38 -188h-78l37 188h79zM258 508q-23 -117 109 -117q133 0 157 117q23 117 -110 117t-156 -117zM180 508q39 196 250 196t172 -196q-39 -195 -250 -195t-172 195z" />
    <glyph glyph-name="UkaliqPatternSegmentsAbcdfg_UkaliqModifierDot" unicode="&#xf1d7b;&#x331;" 
d="M485 -77l-38 -188h-78l37 188h79zM499 392q38 233 -85 233q-133 0 -156 -117q-22 -109 241 -116zM483 314q-339 10 -303 194q39 196 250 196t141 -352q-71 -352 -485 -352l16 78q312 0 381 236z" />
    <glyph glyph-name="UkaliqPatternSegmentsAbdeg_UkaliqModifierDot" unicode="&#xf1d7c;&#x331;" 
d="M227 704q414 0 375 -196q-39 -195 -365 -195q-18 0 -21 -13q-44 -222 292 -222l-16 -78q-414 0 -354 300q18 91 115 91q247 0 271 117q23 117 -313 117zM485 -77l-38 -188h-78l37 188h79z" />
    <glyph glyph-name="UkaliqPatternSegmentsAbcdeg_UkaliqModifierDot" unicode="&#xf1d7d;&#x331;" 
d="M227 704q414 0 344 -352q-71 -352 -282 -352t-172 195q37 185 381 195q25 235 -287 235zM485 -77l-38 -188h-78l37 188h79zM483 312q-266 -8 -288 -117q-23 -117 110 -117q123 0 178 234z" />
    <glyph glyph-name="UkaliqPatternSegmentsAbdefg_UkaliqModifierDot" unicode="&#xf1d7e;&#x331;" 
d="M485 -77l-38 -188h-78l37 188h79zM221 314q-25 -236 287 -236l-16 -78q-414 0 -343 352q70 352 281 352t172 -196q-37 -184 -381 -194zM236 392q266 7 288 116q23 117 -110 117q-123 0 -178 -233z" />
    <glyph glyph-name="UkaliqPatternSegmentsAbcdefg_UkaliqModifierDot" unicode="&#xf1d7f;&#x331;" 
d="M485 -77l-38 -188h-78l37 188h79zM235 391h264q38 234 -85 234q-124 0 -179 -234zM484 313h-264q-38 -235 85 -235q124 0 179 235zM149 352q70 352 281 352t141 -352q-71 -352 -282 -352t-140 352z" />
    <glyph glyph-name=".notdef" 
d="M102 78h406l-16 -78h-406zM485 -77l-38 -188h-78l37 188h79z" />
    <glyph glyph-name="NULL" horiz-adv-x="0" 
 />
    <glyph glyph-name="uni000D" unicode="&#xd;" horiz-adv-x="0" 
 />
    <glyph glyph-name="uni200D" unicode="&#x200d;" horiz-adv-x="0" 
 />
    <glyph glyph-name="uni200B" unicode="&#x200b;" horiz-adv-x="0" 
 />
    <glyph glyph-name="uni200C" unicode="&#x200c;" horiz-adv-x="0" 
 />
    <glyph glyph-name="uniFEFF" unicode="&#xfeff;" horiz-adv-x="0" 
 />
    <glyph glyph-name="space" unicode=" " 
 />
    <glyph glyph-name="uni00A0" unicode="&#xa0;" 
 />
    <glyph glyph-name="UkaliqModifierDot" unicode="&#x331;" 
d="M485 -77l-38 -188h-78l37 188h79z" />
    <glyph glyph-name="uni2002" unicode="&#x2002;" 
 />
    <glyph glyph-name="uni2007" unicode="&#x2007;" 
 />
    <glyph glyph-name="uni2B1B" unicode="&#x2b1b;" 
d="M0 946h578v-1242h-578v1242z" />
    <glyph glyph-name="UkaliqSpace" unicode="&#xee00;" 
 />
    <glyph glyph-name="UkaliqNumber" unicode="&#xee01;" 
d="M578 391l-78 -391h-78l78 391h78z" />
    <glyph glyph-name="UkaliqRightSingleQuotationMark" unicode="&#xee02;" 
d="M297 704l-78 -391h-78l78 391h78z" />
    <glyph glyph-name="UkaliqColon" unicode="&#xee03;" 
d="M578 391l-78 -391h-78l78 391h78zM297 704l-78 -391h-78l78 391h78z" />
    <glyph glyph-name="UkaliqFullStop" unicode="&#xee04;" 
d="M235 391l-79 -391h-78l78 391h79z" />
    <glyph glyph-name="UkaliqComma" unicode="&#xee05;" 
d="M578 391l-78 -391h-78l78 391h78zM235 391l-79 -391h-78l78 391h79z" />
    <glyph glyph-name="UkaliqRightParenthesis" unicode="&#xee06;" 
d="M297 704l-141 -704h-78l141 704h78z" />
    <glyph glyph-name="UkaliqExclamationMark" unicode="&#xee07;" 
d="M297 704l-141 -704h-78l141 704h78zM578 391l-78 -391h-78l78 391h78z" />
    <glyph glyph-name="UkaliqLeftSingleQuotationMark" unicode="&#xee08;" 
d="M641 704l-78 -391h-78l78 391h78z" />
    <glyph glyph-name="UkaliqLeftParenthesis" unicode="&#xee09;" 
d="M641 704l-141 -704h-78l141 704h78z" />
    <glyph glyph-name="UkaliqDoubleQuotationMark" unicode="&#xee0a;" 
d="M297 704l-78 -391h-78l78 391h78zM641 704l-78 -391h-78l78 391h78z" />
    <glyph glyph-name="UkaliqReversedQuestionMark" unicode="&#xee0b;" 
d="M641 704l-141 -704h-78l141 704h78zM297 704l-78 -391h-78l78 391h78z" />
    <glyph glyph-name="UkaliqSemicolon" unicode="&#xee0c;" 
d="M641 704l-78 -391h-78l78 391h78zM235 391l-79 -391h-78l78 391h79z" />
    <glyph glyph-name="UkaliqReversedExclamationMark" unicode="&#xee0d;" 
d="M641 704l-141 -704h-78l141 704h78zM235 391l-79 -391h-78l78 391h79z" />
    <glyph glyph-name="UkaliqQuestionMark" unicode="&#xee0e;" 
d="M297 704l-141 -704h-78l141 704h78zM641 704l-78 -391h-78l78 391h78z" />
    <glyph glyph-name="UkaliqEquals" unicode="&#xee0f;" 
d="M641 704l-141 -704h-78l141 704h78zM297 704l-141 -704h-78l141 704h78z" />
    <glyph glyph-name="UkaliqHyphen" unicode="&#xee10;" 
d="M102 78h406l-16 -78h-406z" />
    <glyph glyph-name="UkaliqLetterOzo" unicode="&#xee11;" 
d="M578 391q-78 -391 -492 -391l16 78q336 0 398 313h78z" />
    <glyph glyph-name="UkaliqGreaterThan" unicode="&#xee12;" 
d="M102 78h406l-16 -78h-406zM297 704l-78 -391h-78l78 391h78z" />
    <glyph glyph-name="UkaliqLetterAtlha" unicode="&#xee13;" 
d="M297 704l-78 -391h-78l78 391h78zM578 391q-78 -391 -492 -391l16 78q336 0 398 313h78z" />
    <glyph glyph-name="UkaliqLetterEdzre" unicode="&#xee14;" 
d="M235 391q-63 -313 273 -313l-16 -78q-414 0 -336 391h79z" />
    <glyph glyph-name="UkaliqOr" unicode="&#xee15;" 
d="M235 391q-63 -313 70 -313t195 313h78q-78 -391 -289 -391t-133 391h79z" />
    <glyph glyph-name="UkaliqLetterIdzji" unicode="&#xee16;" 
d="M297 704l-44 -222q-81 -404 255 -404l-16 -78q-414 0 -317 482l44 222h78z" />
    <glyph glyph-name="UkaliqLetterOdzo" unicode="&#xee17;" 
d="M297 704l-44 -222q-81 -404 52 -404t195 313h78q-78 -391 -289 -391t-114 482l44 222h78z" />
    <glyph glyph-name="UkaliqLessThan" unicode="&#xee18;" 
d="M102 78h406l-16 -78h-406zM641 704l-78 -391h-78l78 391h78z" />
    <glyph glyph-name="UkaliqLetterOso" unicode="&#xee19;" 
d="M641 704l-44 -222q-97 -482 -511 -482l16 78q336 0 417 404l44 222h78z" />
    <glyph glyph-name="UkaliqMultiplication" unicode="&#xee1a;" 
d="M102 78h406l-16 -78h-406zM297 704l-78 -391h-78l78 391h78zM641 704l-78 -391h-78l78 391h78z" />
    <glyph glyph-name="UkaliqLetterApfa" unicode="&#xee1b;" 
d="M297 704l-78 -391h-78l78 391h78zM641 704l-44 -222q-97 -482 -511 -482l16 78q336 0 417 404l44 222h78z" />
    <glyph glyph-name="UkaliqLetterEtsre" unicode="&#xee1c;" 
d="M235 391q-63 -313 273 -313l-16 -78q-414 0 -336 391h79zM641 704l-78 -391h-78l78 391h78z" />
    <glyph glyph-name="UkaliqLetterUkkhu" unicode="&#xee1d;" 
d="M641 704l-44 -222q-97 -482 -308 -482t-133 391h79q-63 -313 70 -313t214 404l44 222h78z" />
    <glyph glyph-name="UkaliqLetterItsji" unicode="&#xee1e;" 
d="M297 704l-44 -222q-81 -404 255 -404l-16 -78q-414 0 -317 482l44 222h78zM641 704l-78 -391h-78l78 391h78z" />
    <glyph glyph-name="UkaliqLetterOtso" unicode="&#xee1f;" 
d="M297 704l-44 -222q-81 -404 52 -404t214 404l44 222h78l-44 -222q-97 -482 -308 -482t-114 482l44 222h78z" />
    <glyph glyph-name="UkaliqRange" unicode="&#xee20;" 
d="M227 704h406l-15 -79h-407z" />
    <glyph glyph-name="UkaliqLetterEo" unicode="&#xee21;" 
d="M578 391l-78 -391h-78l78 391h78zM227 704h406l-15 -79h-407z" />
    <glyph glyph-name="UkaliqLetterUh" unicode="&#xee22;" 
d="M618 625q-337 0 -399 -312h-78q78 391 492 391z" />
    <glyph glyph-name="UkaliqLetterEu" unicode="&#xee23;" 
d="M578 391l-78 -391h-78l78 391h78zM618 625q-337 0 -399 -312h-78q78 391 492 391z" />
    <glyph glyph-name="UkaliqLetterOe" unicode="&#xee24;" 
d="M235 391l-79 -391h-78l78 391h79zM227 704h406l-15 -79h-407z" />
    <glyph glyph-name="UkaliqLetterOeh" unicode="&#xee25;" 
d="M578 391l-78 -391h-78l78 391h78zM235 391l-79 -391h-78l78 391h79zM227 704h406l-15 -79h-407z" />
    <glyph glyph-name="UkaliqLetterUi" unicode="&#xee26;" 
d="M618 625q-337 0 -417 -404l-45 -221h-78l44 221q97 483 511 483z" />
    <glyph glyph-name="UkaliqLetterAh" unicode="&#xee27;" 
d="M618 625q-337 0 -417 -404l-45 -221h-78l44 221q97 483 511 483zM578 391l-78 -391h-78l78 391h78z" />
    <glyph glyph-name="UkaliqLetterAe" unicode="&#xee28;" 
d="M227 704q414 0 336 -391h-78q62 312 -274 312z" />
    <glyph glyph-name="UkaliqLetterO" unicode="&#xee29;" 
d="M227 704q414 0 318 -483l-45 -221h-78l44 221q81 404 -255 404z" />
    <glyph glyph-name="UkaliqLetterIh" unicode="&#xee2a;" 
d="M141 313q78 391 289 391t133 -391h-78q62 312 -71 312t-195 -312h-78z" />
    <glyph glyph-name="UkaliqLetterU" unicode="&#xee2b;" 
d="M141 313q78 391 289 391t115 -483l-45 -221h-78l44 221q81 404 -52 404t-195 -312h-78z" />
    <glyph glyph-name="UkaliqLetterE" unicode="&#xee2c;" 
d="M227 704q414 0 336 -391h-78q62 312 -274 312zM235 391l-79 -391h-78l78 391h79z" />
    <glyph glyph-name="UkaliqLetterEh" unicode="&#xee2d;" 
d="M227 704q414 0 318 -483l-45 -221h-78l44 221q81 404 -255 404zM235 391l-79 -391h-78l78 391h79z" />
    <glyph glyph-name="UkaliqLetterI" unicode="&#xee2e;" 
d="M485 313q62 312 -71 312t-213 -404l-45 -221h-78l44 221q97 483 308 483t133 -391h-78z" />
    <glyph glyph-name="UkaliqLetterOh" unicode="&#xee2f;" 
d="M78 0l44 221q97 483 308 483t115 -483l-45 -221h-78l44 221q81 404 -52 404t-213 -404l-45 -221h-78z" />
    <glyph glyph-name="UkaliqPlus" unicode="&#xee30;" 
d="M102 78h406l-16 -78h-406zM227 704h406l-15 -79h-407z" />
    <glyph glyph-name="UkaliqCurrency" unicode="&#xee31;" 
d="M578 391q-78 -391 -492 -391l16 78q336 0 398 313h78zM227 704h406l-15 -79h-407z" />
    <glyph glyph-name="UkaliqAt" unicode="&#xee32;" 
d="M102 78h406l-16 -78h-406zM618 625q-337 0 -399 -312h-78q78 391 492 391z" />
    <glyph glyph-name="UkaliqLetterAlha" unicode="&#xee33;" 
d="M618 625q-337 0 -399 -312h-78q78 391 492 391zM578 391q-78 -391 -492 -391l16 78q336 0 398 313h78z" />
    <glyph glyph-name="UkaliqLetterElre" unicode="&#xee34;" 
d="M235 391q-63 -313 273 -313l-16 -78q-414 0 -336 391h79zM227 704h406l-15 -79h-407z" />
    <glyph glyph-name="UkaliqLetterUlgu" unicode="&#xee35;" 
d="M235 391q-63 -313 70 -313t195 313h78q-78 -391 -289 -391t-133 391h79zM227 704h406l-15 -79h-407z" />
    <glyph glyph-name="UkaliqLetterIlji" unicode="&#xee36;" 
d="M618 625q-337 0 -391 -273q-55 -274 281 -274l-16 -78q-414 0 -343 352q70 352 484 352z" />
    <glyph glyph-name="UkaliqLetterOlo" unicode="&#xee37;" 
d="M618 625q-337 0 -391 -273q-55 -274 78 -274t195 313h78q-78 -391 -289 -391t-140 352q70 352 484 352z" />
    <glyph glyph-name="UkaliqDegree" unicode="&#xee38;" 
d="M102 78h406l-16 -78h-406zM227 704q414 0 336 -391h-78q62 312 -274 312z" />
    <glyph glyph-name="UkaliqLetterHbat" unicode="&#xee39;" 
d="M227 704q414 0 344 -352q-71 -352 -485 -352l16 78q336 0 390 274q55 273 -281 273z" />
    <glyph glyph-name="UkaliqLetterAnqa" unicode="&#xee3a;" 
d="M102 78h406l-16 -78h-406zM141 313q78 391 289 391t133 -391h-78q62 312 -71 312t-195 -312h-78z" />
    <glyph glyph-name="UkaliqLetterAma" unicode="&#xee3b;" 
d="M141 313q78 391 289 391t141 -352q-71 -352 -485 -352l16 78q336 0 390 274q55 273 -78 273t-195 -312h-78z" />
    <glyph glyph-name="UkaliqLetterEnre" unicode="&#xee3c;" 
d="M227 704q414 0 336 -391h-78q62 312 -274 312zM235 391q-63 -313 273 -313l-16 -78q-414 0 -336 391h79z" />
    <glyph glyph-name="UkaliqLetterUngu" unicode="&#xee3d;" 
d="M227 704q414 0 344 -352q-71 -352 -282 -352t-133 391h79q-63 -313 70 -313t187 274q55 273 -281 273z" />
    <glyph glyph-name="UkaliqLetterInji" unicode="&#xee3e;" 
d="M485 313q62 312 -71 312t-187 -273q-55 -274 281 -274l-16 -78q-414 0 -343 352q70 352 281 352t133 -391h-78z" />
    <glyph glyph-name="UkaliqLetterOno" unicode="&#xee3f;" 
d="M227 352q-55 -274 78 -274t187 274q55 273 -78 273t-187 -273zM149 352q70 352 281 352t141 -352q-71 -352 -282 -352t-140 352z" />
    <glyph glyph-name="UkaliqDash" unicode="&#xee40;" 
d="M164 391h407l-16 -78h-406z" />
    <glyph glyph-name="UkaliqLetterA" unicode="&#xee41;" 
d="M164 391q414 0 336 -391h-78q63 313 -273 313z" />
    <glyph glyph-name="UkaliqMinus" unicode="&#xee42;" 
d="M297 704q-62 -313 274 -313l-16 -78q-414 0 -336 391h78z" />
    <glyph glyph-name="UkaliqLetterAwa" unicode="&#xee43;" 
d="M297 704q-62 -313 185 -313q96 0 75 -110l-57 -281h-78l56 281q7 32 -12 32q-325 0 -247 391h78z" />
    <glyph glyph-name="UkaliqLetterErre" unicode="&#xee44;" 
d="M555 313q-336 0 -399 -313h-78q78 391 493 391z" />
    <glyph glyph-name="UkaliqAnd" unicode="&#xee45;" 
d="M78 0q78 391 289 391t133 -391h-78q63 313 -70 313t-196 -313h-78z" />
    <glyph glyph-name="UkaliqLetterIzji" unicode="&#xee46;" 
d="M219 313l-63 -313h-78l71 352l70 352h78l-62 -313h336l-16 -78h-336z" />
    <glyph glyph-name="UkaliqLetterOro" unicode="&#xee47;" 
d="M219 312l-63 -312h-78l71 352l70 352h78l-62 -314q339 -20 265 -390h-78q59 293 -203 312z" />
    <glyph glyph-name="UkaliqNot" unicode="&#xee48;" 
d="M641 704q-78 -391 -492 -391l15 78q336 0 399 313h78z" />
    <glyph glyph-name="UkaliqDivision" unicode="&#xee49;" 
d="M641 704l-70 -352l-71 -352h-78l62 313h-335l15 78h336l63 313h78z" />
    <glyph glyph-name="UkaliqXor" unicode="&#xee4a;" 
d="M297 704q-62 -313 70 -313q133 0 196 313h78q-78 -391 -289 -391t-133 391h78z" />
    <glyph glyph-name="uniEE4B" unicode="&#xee4b;" 
d="M297 704q-58 -292 203 -312l63 312h78l-70 -352l-71 -352h-78l62 314q-339 20 -265 390h78z" />
    <glyph glyph-name="UkaliqLetterIji" unicode="&#xee4c;" 
d="M641 704q-78 -391 -404 -391q-18 0 -24 -32l-57 -281h-78l56 281q22 110 119 110q247 0 310 313h78z" />
    <glyph glyph-name="UkaliqLetterTkot" unicode="&#xee4d;" 
d="M641 704l-70 -352l-71 -352h-78l62 312q-269 -20 -328 -312h-78q74 370 422 390l63 314h78z" />
    <glyph glyph-name="UkaliqLetterIsji" unicode="&#xee4e;" 
d="M219 314l-63 -314h-78l71 352l70 352h78l-62 -312q269 20 328 312h78q-74 -371 -422 -390z" />
    <glyph glyph-name="UkaliqLetterOrro" unicode="&#xee4f;" 
d="M641 704l-70 -352l-71 -352h-78l62 313h-265l-63 -313h-78l71 352l70 352h78l-62 -313h265l63 313h78z" />
    <glyph glyph-name="UkaliqDigitZero" unicode="&#xee50;" 
d="M102 78h406l-16 -78h-406zM164 391h407l-16 -78h-406z" />
    <glyph glyph-name="UkaliqDigitOne" unicode="&#xee51;" 
d="M164 391q414 0 375 -196q-39 -195 -453 -195l16 78q336 0 359 117q24 118 -312 118z" />
    <glyph glyph-name="UkaliqDigitTwo" unicode="&#xee52;" 
d="M297 704q-62 -313 274 -313l-16 -78q-414 0 -336 391h78zM102 78h406l-16 -78h-406z" />
    <glyph glyph-name="UkaliqDigitThree" unicode="&#xee53;" 
d="M297 704q-62 -313 185 -313q96 0 78 -91q-60 -300 -474 -300l16 78q336 0 380 222q3 13 -16 13q-325 0 -247 391h78z" />
    <glyph glyph-name="UkaliqDigitFour" unicode="&#xee54;" 
d="M555 313q-336 0 -360 -118q-23 -117 313 -117l-16 -78q-414 0 -375 195q39 196 454 196z" />
    <glyph glyph-name="UkaliqDigitFive" unicode="&#xee55;" 
d="M195 195q-23 -117 110 -117t156 117q24 118 -109 118t-157 -118zM117 195q39 196 250 196t172 -196q-39 -195 -250 -195t-172 195z" />
    <glyph glyph-name="UkaliqDigitSix" unicode="&#xee56;" 
d="M221 313q-24 -235 287 -235l-16 -78q-414 0 -343 352l70 352h78l-62 -313h336l-16 -78h-334z" />
    <glyph glyph-name="UkaliqDigitSeven" unicode="&#xee57;" 
d="M220 312q-38 -234 85 -234q133 0 156 117q23 110 -241 117zM235 390q341 -10 304 -195q-39 -195 -250 -195t-140 352l70 352h78z" />
    <glyph glyph-name="UkaliqDigitEight" unicode="&#xee58;" 
d="M102 78h406l-16 -78h-406zM641 704q-78 -391 -492 -391l15 78q336 0 399 313h78z" />
    <glyph glyph-name="UkaliqDigitNine" unicode="&#xee59;" 
d="M641 704l-70 -352q-71 -352 -485 -352l16 78q311 0 380 235h-333l15 78h336l63 313h78z" />
    <glyph glyph-name="UkaliqDigitTen" unicode="&#xee5a;" 
d="M297 704q-62 -313 70 -313q133 0 196 313h78q-78 -391 -289 -391t-133 391h78zM102 78h406l-16 -78h-406z" />
    <glyph glyph-name="UkaliqDigitEleven" unicode="&#xee5b;" 
d="M297 704q-58 -292 203 -312l63 312h78l-70 -352q-71 -352 -485 -352l16 78q312 0 381 236q-337 21 -264 390h78z" />
    <glyph glyph-name="UkaliqDigitTwelve" unicode="&#xee5c;" 
d="M641 704q-78 -391 -404 -391q-18 0 -21 -13q-44 -222 292 -222l-16 -78q-414 0 -354 300q18 91 115 91q247 0 310 313h78z" />
    <glyph glyph-name="UkaliqDigitThirteen" unicode="&#xee5d;" 
d="M641 704l-70 -352q-71 -352 -282 -352t-172 195q37 186 383 195l63 314h78zM483 312q-266 -8 -288 -117q-23 -117 110 -117q123 0 178 234z" />
    <glyph glyph-name="UkaliqDigitFourteen" unicode="&#xee5e;" 
d="M221 314q-25 -236 287 -236l-16 -78q-414 0 -343 352l70 352h78l-62 -312q269 20 328 312h78q-74 -370 -420 -390z" />
    <glyph glyph-name="UkaliqDigitFifteen" unicode="&#xee5f;" 
d="M500 391l63 313h78l-70 -352q-71 -352 -282 -352t-140 352l70 352h78l-62 -313h265zM484 313h-264q-38 -235 85 -235q124 0 179 235z" />
    <glyph glyph-name="UkaliqLetterSchwa" unicode="&#xee60;" 
d="M164 391h407l-16 -78h-406zM227 704h406l-15 -79h-407z" />
    <glyph glyph-name="UkaliqLetterOhgo" unicode="&#xee61;" 
d="M164 391q414 0 336 -391h-78q63 313 -273 313zM227 704h406l-15 -79h-407z" />
    <glyph glyph-name="UkaliqLetterArha" unicode="&#xee62;" 
d="M618 625q-337 0 -360 -117t313 -117l-16 -78q-414 0 -375 195q39 196 453 196z" />
    <glyph glyph-name="UkaliqLetterAva" unicode="&#xee63;" 
d="M618 625q-337 0 -360 -117t224 -117q96 0 75 -110l-57 -281h-78l56 281q7 32 -12 32q-325 0 -286 195q39 196 453 196z" />
    <glyph glyph-name="UkaliqLetterEzre" unicode="&#xee64;" 
d="M555 313q-336 0 -399 -313h-78q78 391 493 391zM227 704h406l-15 -79h-407z" />
    <glyph glyph-name="UkaliqLetterUghu" unicode="&#xee65;" 
d="M78 0q78 391 289 391t133 -391h-78q63 313 -70 313t-196 -313h-78zM227 704h406l-15 -79h-407z" />
    <glyph glyph-name="UkaliqLetterIjji" unicode="&#xee66;" 
d="M219 313l-63 -313h-78l71 352q70 352 484 352l-15 -79q-312 0 -381 -234h334l-16 -78h-336z" />
    <glyph glyph-name="UkaliqLetterOdho" unicode="&#xee67;" 
d="M219 312l-63 -312h-78l71 352q70 352 484 352l-15 -79q-313 0 -382 -235q337 -21 264 -390h-78q59 293 -203 312z" />
    <glyph glyph-name="UkaliqLetterOhho" unicode="&#xee68;" 
d="M227 704q414 0 375 -196q-39 -195 -453 -195l15 78q336 0 360 117q23 117 -313 117z" />
    <glyph glyph-name="UkaliqLetterAha" unicode="&#xee69;" 
d="M227 704q414 0 344 -352l-71 -352h-78l62 313h-335l15 78h334q24 234 -287 234z" />
    <glyph glyph-name="UkaliqLetterAqha" unicode="&#xee6a;" 
d="M258 508q-23 -117 109 -117q133 0 157 117q23 117 -110 117t-156 -117zM180 508q39 196 250 196t172 -196q-39 -195 -250 -195t-172 195z" />
    <glyph glyph-name="UkaliqLetterAfa" unicode="&#xee6b;" 
d="M499 392q38 233 -85 233q-133 0 -156 -117q-22 -109 241 -116zM484 314q-341 10 -304 194q39 196 250 196t141 -352l-71 -352h-78z" />
    <glyph glyph-name="UkaliqLetterEsre" unicode="&#xee6c;" 
d="M227 704q414 0 375 -196q-39 -195 -365 -195q-18 0 -24 -32l-57 -281h-78l56 281q22 110 119 110q247 0 271 117q23 117 -313 117z" />
    <glyph glyph-name="UkaliqLetterUkhu" unicode="&#xee6d;" 
d="M227 704q414 0 344 -352l-71 -352h-78l62 312q-269 -20 -328 -312h-78q74 370 420 390q25 235 -287 235z" />
    <glyph glyph-name="UkaliqLetterIcji" unicode="&#xee6e;" 
d="M219 314l-63 -314h-78l71 352q70 352 281 352t172 -196q-37 -184 -383 -194zM236 392q266 7 288 116q23 117 -110 117q-123 0 -178 -233z" />
    <glyph glyph-name="UkaliqLetterOtho" unicode="&#xee6f;" 
d="M78 0l71 352q70 352 281 352t141 -352l-71 -352h-78l62 313h-265l-63 -313h-78zM235 391h264q38 234 -85 234q-124 0 -179 -234z" />
    <glyph glyph-name="UkaliqIterationMark" unicode="&#xee70;" 
d="M102 78h406l-16 -78h-406zM164 391h407l-16 -78h-406zM227 704h406l-15 -79h-407z" />
    <glyph glyph-name="UkaliqPercent" unicode="&#xee71;" 
d="M164 391q414 0 375 -196q-39 -195 -453 -195l16 78q336 0 359 117q24 118 -312 118zM227 704h406l-15 -79h-407z" />
    <glyph glyph-name="UkaliqLetterAgqa" unicode="&#xee72;" 
d="M618 625q-337 0 -360 -117t313 -117l-16 -78q-414 0 -375 195q39 196 453 196zM102 78h406l-16 -78h-406z" />
    <glyph glyph-name="UkaliqLetterAba" unicode="&#xee73;" 
d="M618 625q-337 0 -360 -117t224 -117q96 0 78 -91q-60 -300 -474 -300l16 78q336 0 380 222q3 13 -16 13q-325 0 -286 195q39 196 453 196z" />
    <glyph glyph-name="UkaliqLetterEdre" unicode="&#xee74;" 
d="M555 313q-336 0 -360 -118q-23 -117 313 -117l-16 -78q-414 0 -375 195q39 196 454 196zM227 704h406l-15 -79h-407z" />
    <glyph glyph-name="UkaliqLetterUgu" unicode="&#xee75;" 
d="M227 704h406l-15 -79h-407zM195 195q-23 -117 110 -117t156 117q24 118 -109 118t-157 -118zM117 195q39 196 250 196t172 -196q-39 -195 -250 -195t-172 195z" />
    <glyph glyph-name="UkaliqLetterIgji" unicode="&#xee76;" 
d="M221 313q-24 -235 287 -235l-16 -78q-414 0 -343 352q70 352 484 352l-15 -79q-312 0 -381 -234h334l-16 -78h-334z" />
    <glyph glyph-name="UkaliqLetterOdo" unicode="&#xee77;" 
d="M220 312q-38 -234 85 -234q133 0 156 117q23 110 -241 117zM236 390q339 -10 303 -195q-39 -195 -250 -195t-140 352q70 352 484 352l-15 -79q-313 0 -382 -235z" />
    <glyph glyph-name="UkaliqLetterOhhko" unicode="&#xee78;" 
d="M102 78h406l-16 -78h-406zM227 704q414 0 375 -196q-39 -195 -453 -195l15 78q336 0 360 117q23 117 -313 117z" />
    <glyph glyph-name="UkaliqLetterAhka" unicode="&#xee79;" 
d="M227 704q414 0 344 -352q-71 -352 -485 -352l16 78q311 0 380 235h-333l15 78h334q24 234 -287 234z" />
    <glyph glyph-name="UkaliqLetterAqa" unicode="&#xee7a;" 
d="M102 78h406l-16 -78h-406zM258 508q-23 -117 109 -117q133 0 157 117q23 117 -110 117t-156 -117zM180 508q39 196 250 196t172 -196q-39 -195 -250 -195t-172 195z" />
    <glyph glyph-name="UkaliqLetterApa" unicode="&#xee7b;" 
d="M499 392q38 233 -85 233q-133 0 -156 -117q-22 -109 241 -116zM483 314q-339 10 -303 194q39 196 250 196t141 -352q-71 -352 -485 -352l16 78q312 0 381 236z" />
    <glyph glyph-name="UkaliqLetterEtre" unicode="&#xee7c;" 
d="M227 704q414 0 375 -196q-39 -195 -365 -195q-18 0 -21 -13q-44 -222 292 -222l-16 -78q-414 0 -354 300q18 91 115 91q247 0 271 117q23 117 -313 117z" />
    <glyph glyph-name="UkaliqLetterUku" unicode="&#xee7d;" 
d="M227 704q414 0 344 -352q-71 -352 -282 -352t-172 195q37 185 381 195q25 235 -287 235zM483 312q-266 -8 -288 -117q-23 -117 110 -117q123 0 178 234z" />
    <glyph glyph-name="UkaliqLetterIci" unicode="&#xee7e;" 
d="M221 314q-25 -236 287 -236l-16 -78q-414 0 -343 352q70 352 281 352t172 -196q-37 -184 -381 -194zM236 392q266 7 288 116q23 117 -110 117q-123 0 -178 -233z" />
    <glyph glyph-name="UkaliqLetterOto" unicode="&#xee7f;" 
d="M235 391h264q38 234 -85 234q-124 0 -179 -234zM484 313h-264q-38 -235 85 -235q124 0 179 235zM149 352q70 352 281 352t141 -352q-71 -352 -282 -352t-140 352z" />
    <glyph glyph-name="UkaliqDot" unicode="&#xee80;" 
d="M485 -77l-38 -188h-78l37 188h79z" />
    <glyph glyph-name="UkaliqNumberWithDot" unicode="&#xee81;" 
d="M578 391l-78 -391h-78l78 391h78zM485 -77l-38 -188h-78l37 188h79z" />
    <glyph glyph-name="UkaliqRightSingleQuotationMarkWithDot" unicode="&#xee82;" 
d="M297 704l-78 -391h-78l78 391h78zM485 -77l-38 -188h-78l37 188h79z" />
    <glyph glyph-name="UkaliqColonWithDot" unicode="&#xee83;" 
d="M578 391l-78 -391h-78l78 391h78zM297 704l-78 -391h-78l78 391h78zM485 -77l-38 -188h-78l37 188h79z" />
    <glyph glyph-name="UkaliqFullStopWithDot" unicode="&#xee84;" 
d="M235 391l-79 -391h-78l78 391h79zM485 -77l-38 -188h-78l37 188h79z" />
    <glyph glyph-name="UkaliqCommaWithDot" unicode="&#xee85;" 
d="M578 391l-78 -391h-78l78 391h78zM235 391l-79 -391h-78l78 391h79zM485 -77l-38 -188h-78l37 188h79z" />
    <glyph glyph-name="UkaliqRightParenthesisWithDot" unicode="&#xee86;" 
d="M297 704l-141 -704h-78l141 704h78zM485 -77l-38 -188h-78l37 188h79z" />
    <glyph glyph-name="UkaliqExclamationMarkWithDot" unicode="&#xee87;" 
d="M297 704l-141 -704h-78l141 704h78zM578 391l-78 -391h-78l78 391h78zM485 -77l-38 -188h-78l37 188h79z" />
    <glyph glyph-name="UkaliqLeftSingleQuotationMarkWithDot" unicode="&#xee88;" 
d="M641 704l-78 -391h-78l78 391h78zM485 -77l-38 -188h-78l37 188h79z" />
    <glyph glyph-name="UkaliqLeftParenthesisWithDot" unicode="&#xee89;" 
d="M641 704l-141 -704h-78l141 704h78zM485 -77l-38 -188h-78l37 188h79z" />
    <glyph glyph-name="UkaliqDoubleQuotationMarkWithDot" unicode="&#xee8a;" 
d="M297 704l-78 -391h-78l78 391h78zM641 704l-78 -391h-78l78 391h78zM485 -77l-38 -188h-78l37 188h79z" />
    <glyph glyph-name="UkaliqReversedQuestionMarkWithDot" unicode="&#xee8b;" 
d="M641 704l-141 -704h-78l141 704h78zM297 704l-78 -391h-78l78 391h78zM485 -77l-38 -188h-78l37 188h79z" />
    <glyph glyph-name="UkaliqSemicolonWithDot" unicode="&#xee8c;" 
d="M641 704l-78 -391h-78l78 391h78zM235 391l-79 -391h-78l78 391h79zM485 -77l-38 -188h-78l37 188h79z" />
    <glyph glyph-name="UkaliqReversedExclamationMarkWithDot" unicode="&#xee8d;" 
d="M641 704l-141 -704h-78l141 704h78zM235 391l-79 -391h-78l78 391h79zM485 -77l-38 -188h-78l37 188h79z" />
    <glyph glyph-name="UkaliqQuestionMarkWithDot" unicode="&#xee8e;" 
d="M297 704l-141 -704h-78l141 704h78zM641 704l-78 -391h-78l78 391h78zM485 -77l-38 -188h-78l37 188h79z" />
    <glyph glyph-name="UkaliqEqualsWithDot" unicode="&#xee8f;" 
d="M641 704l-141 -704h-78l141 704h78zM297 704l-141 -704h-78l141 704h78zM485 -77l-38 -188h-78l37 188h79z" />
    <glyph glyph-name="UkaliqHyphenWithDot" unicode="&#xee90;" 
d="M102 78h406l-16 -78h-406zM485 -77l-38 -188h-78l37 188h79z" />
    <glyph glyph-name="UkaliqLetterOzoWithDot" unicode="&#xee91;" 
d="M485 -77l-38 -188h-78l37 188h79zM578 391q-78 -391 -492 -391l16 78q336 0 398 313h78z" />
    <glyph glyph-name="UkaliqGreaterThanWithDot" unicode="&#xee92;" 
d="M102 78h406l-16 -78h-406zM297 704l-78 -391h-78l78 391h78zM485 -77l-38 -188h-78l37 188h79z" />
    <glyph glyph-name="UkaliqLetterAtlhaWithDot" unicode="&#xee93;" 
d="M297 704l-78 -391h-78l78 391h78zM485 -77l-38 -188h-78l37 188h79zM578 391q-78 -391 -492 -391l16 78q336 0 398 313h78z" />
    <glyph glyph-name="UkaliqLetterEdzreWithDot" unicode="&#xee94;" 
d="M235 391q-63 -313 273 -313l-16 -78q-414 0 -336 391h79zM485 -77l-38 -188h-78l37 188h79z" />
    <glyph glyph-name="UkaliqOrWithDot" unicode="&#xee95;" 
d="M235 391q-63 -313 70 -313t195 313h78q-78 -391 -289 -391t-133 391h79zM485 -77l-38 -188h-78l37 188h79z" />
    <glyph glyph-name="UkaliqLetterIdzjiWithDot" unicode="&#xee96;" 
d="M297 704l-44 -222q-81 -404 255 -404l-16 -78q-414 0 -317 482l44 222h78zM485 -77l-38 -188h-78l37 188h79z" />
    <glyph glyph-name="UkaliqLetterOdzoWithDot" unicode="&#xee97;" 
d="M297 704l-44 -222q-81 -404 52 -404t195 313h78q-78 -391 -289 -391t-114 482l44 222h78zM485 -77l-38 -188h-78l37 188h79z" />
    <glyph glyph-name="UkaliqLessThanWithDot" unicode="&#xee98;" 
d="M102 78h406l-16 -78h-406zM641 704l-78 -391h-78l78 391h78zM485 -77l-38 -188h-78l37 188h79z" />
    <glyph glyph-name="UkaliqLetterOsoWithDot" unicode="&#xee99;" 
d="M641 704l-44 -222q-97 -482 -511 -482l16 78q336 0 417 404l44 222h78zM485 -77l-38 -188h-78l37 188h79z" />
    <glyph glyph-name="UkaliqMultiplicationWithDot" unicode="&#xee9a;" 
d="M102 78h406l-16 -78h-406zM297 704l-78 -391h-78l78 391h78zM641 704l-78 -391h-78l78 391h78zM485 -77l-38 -188h-78l37 188h79z" />
    <glyph glyph-name="UkaliqLetterApfaWithDot" unicode="&#xee9b;" 
d="M297 704l-78 -391h-78l78 391h78zM641 704l-44 -222q-97 -482 -511 -482l16 78q336 0 417 404l44 222h78zM485 -77l-38 -188h-78l37 188h79z" />
    <glyph glyph-name="UkaliqLetterEtsreWithDot" unicode="&#xee9c;" 
d="M235 391q-63 -313 273 -313l-16 -78q-414 0 -336 391h79zM641 704l-78 -391h-78l78 391h78zM485 -77l-38 -188h-78l37 188h79z" />
    <glyph glyph-name="UkaliqLetterUkkhuWithDot" unicode="&#xee9d;" 
d="M641 704l-44 -222q-97 -482 -308 -482t-133 391h79q-63 -313 70 -313t214 404l44 222h78zM485 -77l-38 -188h-78l37 188h79z" />
    <glyph glyph-name="UkaliqLetterItsjiWithDot" unicode="&#xee9e;" 
d="M297 704l-44 -222q-81 -404 255 -404l-16 -78q-414 0 -317 482l44 222h78zM641 704l-78 -391h-78l78 391h78zM485 -77l-38 -188h-78l37 188h79z" />
    <glyph glyph-name="UkaliqLetterOtsoWithDot" unicode="&#xee9f;" 
d="M297 704l-44 -222q-81 -404 52 -404t214 404l44 222h78l-44 -222q-97 -482 -308 -482t-114 482l44 222h78zM485 -77l-38 -188h-78l37 188h79z" />
    <glyph glyph-name="UkaliqRangeWithDot" unicode="&#xeea0;" 
d="M485 -77l-38 -188h-78l37 188h79zM227 704h406l-15 -79h-407z" />
    <glyph glyph-name="UkaliqLetterEoWithDot" unicode="&#xeea1;" 
d="M578 391l-78 -391h-78l78 391h78zM485 -77l-38 -188h-78l37 188h79zM227 704h406l-15 -79h-407z" />
    <glyph glyph-name="UkaliqLetterUhWithDot" unicode="&#xeea2;" 
d="M618 625q-337 0 -399 -312h-78q78 391 492 391zM485 -77l-38 -188h-78l37 188h79z" />
    <glyph glyph-name="UkaliqLetterEuWithDot" unicode="&#xeea3;" 
d="M578 391l-78 -391h-78l78 391h78zM618 625q-337 0 -399 -312h-78q78 391 492 391zM485 -77l-38 -188h-78l37 188h79z" />
    <glyph glyph-name="UkaliqLetterOeWithDot" unicode="&#xeea4;" 
d="M235 391l-79 -391h-78l78 391h79zM485 -77l-38 -188h-78l37 188h79zM227 704h406l-15 -79h-407z" />
    <glyph glyph-name="UkaliqLetterOehWithDot" unicode="&#xeea5;" 
d="M578 391l-78 -391h-78l78 391h78zM235 391l-79 -391h-78l78 391h79zM485 -77l-38 -188h-78l37 188h79zM227 704h406l-15 -79h-407z" />
    <glyph glyph-name="UkaliqLetterUiWithDot" unicode="&#xeea6;" 
d="M618 625q-337 0 -417 -404l-45 -221h-78l44 221q97 483 511 483zM485 -77l-38 -188h-78l37 188h79z" />
    <glyph glyph-name="UkaliqLetterAhWithDot" unicode="&#xeea7;" 
d="M618 625q-337 0 -417 -404l-45 -221h-78l44 221q97 483 511 483zM578 391l-78 -391h-78l78 391h78zM485 -77l-38 -188h-78l37 188h79z" />
    <glyph glyph-name="UkaliqLetterAeWithDot" unicode="&#xeea8;" 
d="M227 704q414 0 336 -391h-78q62 312 -274 312zM485 -77l-38 -188h-78l37 188h79z" />
    <glyph glyph-name="UkaliqLetterOWithDot" unicode="&#xeea9;" 
d="M227 704q414 0 318 -483l-45 -221h-78l44 221q81 404 -255 404zM485 -77l-38 -188h-78l37 188h79z" />
    <glyph glyph-name="UkaliqLetterIhWithDot" unicode="&#xeeaa;" 
d="M141 313q78 391 289 391t133 -391h-78q62 312 -71 312t-195 -312h-78zM485 -77l-38 -188h-78l37 188h79z" />
    <glyph glyph-name="UkaliqLetterUWithDot" unicode="&#xeeab;" 
d="M141 313q78 391 289 391t115 -483l-45 -221h-78l44 221q81 404 -52 404t-195 -312h-78zM485 -77l-38 -188h-78l37 188h79z" />
    <glyph glyph-name="UkaliqLetterEWithDot" unicode="&#xeeac;" 
d="M227 704q414 0 336 -391h-78q62 312 -274 312zM235 391l-79 -391h-78l78 391h79zM485 -77l-38 -188h-78l37 188h79z" />
    <glyph glyph-name="UkaliqLetterEhWithDot" unicode="&#xeead;" 
d="M227 704q414 0 318 -483l-45 -221h-78l44 221q81 404 -255 404zM235 391l-79 -391h-78l78 391h79zM485 -77l-38 -188h-78l37 188h79z" />
    <glyph glyph-name="UkaliqLetterIWithDot" unicode="&#xeeae;" 
d="M485 313q62 312 -71 312t-213 -404l-45 -221h-78l44 221q97 483 308 483t133 -391h-78zM485 -77l-38 -188h-78l37 188h79z" />
    <glyph glyph-name="UkaliqLetterOhWithDot" unicode="&#xeeaf;" 
d="M78 0l44 221q97 483 308 483t115 -483l-45 -221h-78l44 221q81 404 -52 404t-213 -404l-45 -221h-78zM485 -77l-38 -188h-78l37 188h79z" />
    <glyph glyph-name="UkaliqPlusWithDot" unicode="&#xeeb0;" 
d="M102 78h406l-16 -78h-406zM485 -77l-38 -188h-78l37 188h79zM227 704h406l-15 -79h-407z" />
    <glyph glyph-name="UkaliqCurrencyWithDot" unicode="&#xeeb1;" 
d="M485 -77l-38 -188h-78l37 188h79zM578 391q-78 -391 -492 -391l16 78q336 0 398 313h78zM227 704h406l-15 -79h-407z" />
    <glyph glyph-name="UkaliqAtWithDot" unicode="&#xeeb2;" 
d="M102 78h406l-16 -78h-406zM618 625q-337 0 -399 -312h-78q78 391 492 391zM485 -77l-38 -188h-78l37 188h79z" />
    <glyph glyph-name="UkaliqLetterAlhaWithDot" unicode="&#xeeb3;" 
d="M618 625q-337 0 -399 -312h-78q78 391 492 391zM485 -77l-38 -188h-78l37 188h79zM578 391q-78 -391 -492 -391l16 78q336 0 398 313h78z" />
    <glyph glyph-name="UkaliqLetterElreWithDot" unicode="&#xeeb4;" 
d="M235 391q-63 -313 273 -313l-16 -78q-414 0 -336 391h79zM485 -77l-38 -188h-78l37 188h79zM227 704h406l-15 -79h-407z" />
    <glyph glyph-name="UkaliqLetterUlguWithDot" unicode="&#xeeb5;" 
d="M235 391q-63 -313 70 -313t195 313h78q-78 -391 -289 -391t-133 391h79zM485 -77l-38 -188h-78l37 188h79zM227 704h406l-15 -79h-407z" />
    <glyph glyph-name="UkaliqLetterIljiWithDot" unicode="&#xeeb6;" 
d="M618 625q-337 0 -391 -273q-55 -274 281 -274l-16 -78q-414 0 -343 352q70 352 484 352zM485 -77l-38 -188h-78l37 188h79z" />
    <glyph glyph-name="UkaliqLetterOloWithDot" unicode="&#xeeb7;" 
d="M618 625q-337 0 -391 -273q-55 -274 78 -274t195 313h78q-78 -391 -289 -391t-140 352q70 352 484 352zM485 -77l-38 -188h-78l37 188h79z" />
    <glyph glyph-name="UkaliqDegreeWithDot" unicode="&#xeeb8;" 
d="M102 78h406l-16 -78h-406zM227 704q414 0 336 -391h-78q62 312 -274 312zM485 -77l-38 -188h-78l37 188h79z" />
    <glyph glyph-name="UkaliqLetterHbatWithDot" unicode="&#xeeb9;" 
d="M227 704q414 0 344 -352q-71 -352 -485 -352l16 78q336 0 390 274q55 273 -281 273zM485 -77l-38 -188h-78l37 188h79z" />
    <glyph glyph-name="UkaliqLetterAnqaWithDot" unicode="&#xeeba;" 
d="M102 78h406l-16 -78h-406zM141 313q78 391 289 391t133 -391h-78q62 312 -71 312t-195 -312h-78zM485 -77l-38 -188h-78l37 188h79z" />
    <glyph glyph-name="UkaliqLetterAmaWithDot" unicode="&#xeebb;" 
d="M141 313q78 391 289 391t141 -352q-71 -352 -485 -352l16 78q336 0 390 274q55 273 -78 273t-195 -312h-78zM485 -77l-38 -188h-78l37 188h79z" />
    <glyph glyph-name="UkaliqLetterEnreWithDot" unicode="&#xeebc;" 
d="M227 704q414 0 336 -391h-78q62 312 -274 312zM235 391q-63 -313 273 -313l-16 -78q-414 0 -336 391h79zM485 -77l-38 -188h-78l37 188h79z" />
    <glyph glyph-name="UkaliqLetterUnguWithDot" unicode="&#xeebd;" 
d="M227 704q414 0 344 -352q-71 -352 -282 -352t-133 391h79q-63 -313 70 -313t187 274q55 273 -281 273zM485 -77l-38 -188h-78l37 188h79z" />
    <glyph glyph-name="UkaliqLetterInjiWithDot" unicode="&#xeebe;" 
d="M485 313q62 312 -71 312t-187 -273q-55 -274 281 -274l-16 -78q-414 0 -343 352q70 352 281 352t133 -391h-78zM485 -77l-38 -188h-78l37 188h79z" />
    <glyph glyph-name="UkaliqLetterOnoWithDot" unicode="&#xeebf;" 
d="M485 -77l-38 -188h-78l37 188h79zM227 352q-55 -274 78 -274t187 274q55 273 -78 273t-187 -273zM149 352q70 352 281 352t141 -352q-71 -352 -282 -352t-140 352z" />
    <glyph glyph-name="UkaliqDashWithDot" unicode="&#xeec0;" 
d="M164 391h407l-16 -78h-406zM485 -77l-38 -188h-78l37 188h79z" />
    <glyph glyph-name="UkaliqLetterAWithDot" unicode="&#xeec1;" 
d="M164 391q414 0 336 -391h-78q63 313 -273 313zM485 -77l-38 -188h-78l37 188h79z" />
    <glyph glyph-name="UkaliqMinusWithDot" unicode="&#xeec2;" 
d="M297 704q-62 -313 274 -313l-16 -78q-414 0 -336 391h78zM485 -77l-38 -188h-78l37 188h79z" />
    <glyph glyph-name="UkaliqLetterAwaWithDot" unicode="&#xeec3;" 
d="M485 -77l-38 -188h-78l37 188h79zM297 704q-62 -313 185 -313q96 0 75 -110l-57 -281h-78l56 281q7 32 -12 32q-325 0 -247 391h78z" />
    <glyph glyph-name="UkaliqLetterErreWithDot" unicode="&#xeec4;" 
d="M555 313q-336 0 -399 -313h-78q78 391 493 391zM485 -77l-38 -188h-78l37 188h79z" />
    <glyph glyph-name="UkaliqAndWithDot" unicode="&#xeec5;" 
d="M78 0q78 391 289 391t133 -391h-78q63 313 -70 313t-196 -313h-78zM485 -77l-38 -188h-78l37 188h79z" />
    <glyph glyph-name="UkaliqLetterIzjiWithDot" unicode="&#xeec6;" 
d="M485 -77l-38 -188h-78l37 188h79zM219 313l-63 -313h-78l71 352l70 352h78l-62 -313h336l-16 -78h-336z" />
    <glyph glyph-name="UkaliqLetterOroWithDot" unicode="&#xeec7;" 
d="M485 -77l-38 -188h-78l37 188h79zM219 312l-63 -312h-78l71 352l70 352h78l-62 -314q339 -20 265 -390h-78q59 293 -203 312z" />
    <glyph glyph-name="UkaliqNotWithDot" unicode="&#xeec8;" 
d="M641 704q-78 -391 -492 -391l15 78q336 0 399 313h78zM485 -77l-38 -188h-78l37 188h79z" />
    <glyph glyph-name="UkaliqDivisionWithDot" unicode="&#xeec9;" 
d="M641 704l-70 -352l-71 -352h-78l62 313h-335l15 78h336l63 313h78zM485 -77l-38 -188h-78l37 188h79z" />
    <glyph glyph-name="UkaliqXorWithDot" unicode="&#xeeca;" 
d="M297 704q-62 -313 70 -313q133 0 196 313h78q-78 -391 -289 -391t-133 391h78zM485 -77l-38 -188h-78l37 188h79z" />
    <glyph glyph-name="uniEECB" unicode="&#xeecb;" 
d="M485 -77l-38 -188h-78l37 188h79zM297 704q-58 -292 203 -312l63 312h78l-70 -352l-71 -352h-78l62 314q-339 20 -265 390h78z" />
    <glyph glyph-name="UkaliqLetterIjiWithDot" unicode="&#xeecc;" 
d="M641 704q-78 -391 -404 -391q-18 0 -24 -32l-57 -281h-78l56 281q22 110 119 110q247 0 310 313h78zM485 -77l-38 -188h-78l37 188h79z" />
    <glyph glyph-name="UkaliqLetterTkotWithDot" unicode="&#xeecd;" 
d="M641 704l-70 -352l-71 -352h-78l62 312q-269 -20 -328 -312h-78q74 370 422 390l63 314h78zM485 -77l-38 -188h-78l37 188h79z" />
    <glyph glyph-name="UkaliqLetterIsjiWithDot" unicode="&#xeece;" 
d="M485 -77l-38 -188h-78l37 188h79zM219 314l-63 -314h-78l71 352l70 352h78l-62 -312q269 20 328 312h78q-74 -371 -422 -390z" />
    <glyph glyph-name="UkaliqLetterOrroWithDot" unicode="&#xeecf;" 
d="M485 -77l-38 -188h-78l37 188h79zM641 704l-70 -352l-71 -352h-78l62 313h-265l-63 -313h-78l71 352l70 352h78l-62 -313h265l63 313h78z" />
    <glyph glyph-name="UkaliqBaseSixteen" unicode="&#xeed0;" 
d="M102 78h406l-16 -78h-406zM164 391h407l-16 -78h-406zM485 -77l-38 -188h-78l37 188h79z" />
    <glyph glyph-name="UkaliqBaseNegativeTwo" unicode="&#xeed1;" 
d="M164 391q414 0 375 -196q-39 -195 -453 -195l16 78q336 0 359 117q24 118 -312 118zM485 -77l-38 -188h-78l37 188h79z" />
    <glyph glyph-name="UkaliqBaseTwo" unicode="&#xeed2;" 
d="M297 704q-62 -313 274 -313l-16 -78q-414 0 -336 391h78zM102 78h406l-16 -78h-406zM485 -77l-38 -188h-78l37 188h79z" />
    <glyph glyph-name="UkaliqBaseThree" unicode="&#xeed3;" 
d="M485 -77l-38 -188h-78l37 188h79zM297 704q-62 -313 185 -313q96 0 78 -91q-60 -300 -474 -300l16 78q336 0 380 222q3 13 -16 13q-325 0 -247 391h78z" />
    <glyph glyph-name="UkaliqBaseFour" unicode="&#xeed4;" 
d="M555 313q-336 0 -360 -118q-23 -117 313 -117l-16 -78q-414 0 -375 195q39 196 454 196zM485 -77l-38 -188h-78l37 188h79z" />
    <glyph glyph-name="UkaliqBaseFive" unicode="&#xeed5;" 
d="M485 -77l-38 -188h-78l37 188h79zM195 195q-23 -117 110 -117t156 117q24 118 -109 118t-157 -118zM117 195q39 196 250 196t172 -196q-39 -195 -250 -195t-172 195z" />
    <glyph glyph-name="UkaliqBaseSix" unicode="&#xeed6;" 
d="M485 -77l-38 -188h-78l37 188h79zM221 313q-24 -235 287 -235l-16 -78q-414 0 -343 352l70 352h78l-62 -313h336l-16 -78h-334z" />
    <glyph glyph-name="UkaliqBaseNegativeEight" unicode="&#xeed7;" 
d="M485 -77l-38 -188h-78l37 188h79zM220 312q-38 -234 85 -234q133 0 156 117q23 110 -241 117zM235 390q341 -10 304 -195q-39 -195 -250 -195t-140 352l70 352h78z" />
    <glyph glyph-name="UkaliqBaseEight" unicode="&#xeed8;" 
d="M102 78h406l-16 -78h-406zM641 704q-78 -391 -492 -391l15 78q336 0 399 313h78zM485 -77l-38 -188h-78l37 188h79z" />
    <glyph glyph-name="UkaliqBaseNegativeTen" unicode="&#xeed9;" 
d="M641 704l-70 -352q-71 -352 -485 -352l16 78q311 0 380 235h-333l15 78h336l63 313h78zM485 -77l-38 -188h-78l37 188h79z" />
    <glyph glyph-name="UkaliqBaseTen" unicode="&#xeeda;" 
d="M297 704q-62 -313 70 -313q133 0 196 313h78q-78 -391 -289 -391t-133 391h78zM102 78h406l-16 -78h-406zM485 -77l-38 -188h-78l37 188h79z" />
    <glyph glyph-name="UkaliqBaseNegativeThree" unicode="&#xeedb;" 
d="M485 -77l-38 -188h-78l37 188h79zM297 704q-58 -292 203 -312l63 312h78l-70 -352q-71 -352 -485 -352l16 78q312 0 381 236q-337 21 -264 390h78z" />
    <glyph glyph-name="UkaliqBaseNegativeFour" unicode="&#xeedc;" 
d="M641 704q-78 -391 -404 -391q-18 0 -21 -13q-44 -222 292 -222l-16 -78q-414 0 -354 300q18 91 115 91q247 0 310 313h78zM485 -77l-38 -188h-78l37 188h79z" />
    <glyph glyph-name="UkaliqBaseNegativeFive" unicode="&#xeedd;" 
d="M641 704l-70 -352q-71 -352 -282 -352t-172 195q37 186 383 195l63 314h78zM485 -77l-38 -188h-78l37 188h79zM483 312q-266 -8 -288 -117q-23 -117 110 -117q123 0 178 234z" />
    <glyph glyph-name="UkaliqBaseNegativeSix" unicode="&#xeede;" 
d="M485 -77l-38 -188h-78l37 188h79zM221 314q-25 -236 287 -236l-16 -78q-414 0 -343 352l70 352h78l-62 -312q269 20 328 312h78q-74 -370 -420 -390z" />
    <glyph glyph-name="UkaliqBaseNegativeSixteen" unicode="&#xeedf;" 
d="M485 -77l-38 -188h-78l37 188h79zM500 391l63 313h78l-70 -352q-71 -352 -282 -352t-140 352l70 352h78l-62 -313h265zM484 313h-264q-38 -235 85 -235q124 0 179 235z" />
    <glyph glyph-name="UkaliqLetterSchwaWithDot" unicode="&#xeee0;" 
d="M164 391h407l-16 -78h-406zM485 -77l-38 -188h-78l37 188h79zM227 704h406l-15 -79h-407z" />
    <glyph glyph-name="UkaliqLetterOhgoWithDot" unicode="&#xeee1;" 
d="M164 391q414 0 336 -391h-78q63 313 -273 313zM485 -77l-38 -188h-78l37 188h79zM227 704h406l-15 -79h-407z" />
    <glyph glyph-name="UkaliqLetterArhaWithDot" unicode="&#xeee2;" 
d="M618 625q-337 0 -360 -117t313 -117l-16 -78q-414 0 -375 195q39 196 453 196zM485 -77l-38 -188h-78l37 188h79z" />
    <glyph glyph-name="UkaliqLetterAvaWithDot" unicode="&#xeee3;" 
d="M485 -77l-38 -188h-78l37 188h79zM618 625q-337 0 -360 -117t224 -117q96 0 75 -110l-57 -281h-78l56 281q7 32 -12 32q-325 0 -286 195q39 196 453 196z" />
    <glyph glyph-name="UkaliqLetterEzreWithDot" unicode="&#xeee4;" 
d="M555 313q-336 0 -399 -313h-78q78 391 493 391zM485 -77l-38 -188h-78l37 188h79zM227 704h406l-15 -79h-407z" />
    <glyph glyph-name="UkaliqLetterUghuWithDot" unicode="&#xeee5;" 
d="M78 0q78 391 289 391t133 -391h-78q63 313 -70 313t-196 -313h-78zM485 -77l-38 -188h-78l37 188h79zM227 704h406l-15 -79h-407z" />
    <glyph glyph-name="UkaliqLetterIjjiWithDot" unicode="&#xeee6;" 
d="M485 -77l-38 -188h-78l37 188h79zM219 313l-63 -313h-78l71 352q70 352 484 352l-15 -79q-312 0 -381 -234h334l-16 -78h-336z" />
    <glyph glyph-name="UkaliqLetterOdhoWithDot" unicode="&#xeee7;" 
d="M485 -77l-38 -188h-78l37 188h79zM219 312l-63 -312h-78l71 352q70 352 484 352l-15 -79q-313 0 -382 -235q337 -21 264 -390h-78q59 293 -203 312z" />
    <glyph glyph-name="UkaliqLetterOhhoWithDot" unicode="&#xeee8;" 
d="M227 704q414 0 375 -196q-39 -195 -453 -195l15 78q336 0 360 117q23 117 -313 117zM485 -77l-38 -188h-78l37 188h79z" />
    <glyph glyph-name="UkaliqLetterAhaWithDot" unicode="&#xeee9;" 
d="M227 704q414 0 344 -352l-71 -352h-78l62 313h-335l15 78h334q24 234 -287 234zM485 -77l-38 -188h-78l37 188h79z" />
    <glyph glyph-name="UkaliqLetterAqhaWithDot" unicode="&#xeeea;" 
d="M485 -77l-38 -188h-78l37 188h79zM258 508q-23 -117 109 -117q133 0 157 117q23 117 -110 117t-156 -117zM180 508q39 196 250 196t172 -196q-39 -195 -250 -195t-172 195z" />
    <glyph glyph-name="UkaliqLetterAfaWithDot" unicode="&#xeeeb;" 
d="M485 -77l-38 -188h-78l37 188h79zM499 392q38 233 -85 233q-133 0 -156 -117q-22 -109 241 -116zM484 314q-341 10 -304 194q39 196 250 196t141 -352l-71 -352h-78z" />
    <glyph glyph-name="UkaliqLetterEsreWithDot" unicode="&#xeeec;" 
d="M227 704q414 0 375 -196q-39 -195 -365 -195q-18 0 -24 -32l-57 -281h-78l56 281q22 110 119 110q247 0 271 117q23 117 -313 117zM485 -77l-38 -188h-78l37 188h79z" />
    <glyph glyph-name="UkaliqLetterUkhuWithDot" unicode="&#xeeed;" 
d="M227 704q414 0 344 -352l-71 -352h-78l62 312q-269 -20 -328 -312h-78q74 370 420 390q25 235 -287 235zM485 -77l-38 -188h-78l37 188h79z" />
    <glyph glyph-name="UkaliqLetterIcjiWithDot" unicode="&#xeeee;" 
d="M485 -77l-38 -188h-78l37 188h79zM219 314l-63 -314h-78l71 352q70 352 281 352t172 -196q-37 -184 -383 -194zM236 392q266 7 288 116q23 117 -110 117q-123 0 -178 -233z" />
    <glyph glyph-name="UkaliqLetterOthoWithDot" unicode="&#xeeef;" 
d="M485 -77l-38 -188h-78l37 188h79zM78 0l71 352q70 352 281 352t141 -352l-71 -352h-78l62 313h-265l-63 -313h-78zM235 391h264q38 234 -85 234q-124 0 -179 -234z" />
    <glyph glyph-name="UkaliqIterationMarkWithDot" unicode="&#xeef0;" 
d="M102 78h406l-16 -78h-406zM164 391h407l-16 -78h-406zM485 -77l-38 -188h-78l37 188h79zM227 704h406l-15 -79h-407z" />
    <glyph glyph-name="UkaliqPercentWithDot" unicode="&#xeef1;" 
d="M164 391q414 0 375 -196q-39 -195 -453 -195l16 78q336 0 359 117q24 118 -312 118zM485 -77l-38 -188h-78l37 188h79zM227 704h406l-15 -79h-407z" />
    <glyph glyph-name="UkaliqLetterAgqaWithDot" unicode="&#xeef2;" 
d="M618 625q-337 0 -360 -117t313 -117l-16 -78q-414 0 -375 195q39 196 453 196zM102 78h406l-16 -78h-406zM485 -77l-38 -188h-78l37 188h79z" />
    <glyph glyph-name="UkaliqLetterAbaWithDot" unicode="&#xeef3;" 
d="M485 -77l-38 -188h-78l37 188h79zM618 625q-337 0 -360 -117t224 -117q96 0 78 -91q-60 -300 -474 -300l16 78q336 0 380 222q3 13 -16 13q-325 0 -286 195q39 196 453 196z" />
    <glyph glyph-name="UkaliqLetterEdreWithDot" unicode="&#xeef4;" 
d="M555 313q-336 0 -360 -118q-23 -117 313 -117l-16 -78q-414 0 -375 195q39 196 454 196zM485 -77l-38 -188h-78l37 188h79zM227 704h406l-15 -79h-407z" />
    <glyph glyph-name="UkaliqLetterUguWithDot" unicode="&#xeef5;" 
d="M485 -77l-38 -188h-78l37 188h79zM227 704h406l-15 -79h-407zM195 195q-23 -117 110 -117t156 117q24 118 -109 118t-157 -118zM117 195q39 196 250 196t172 -196q-39 -195 -250 -195t-172 195z" />
    <glyph glyph-name="UkaliqLetterIgjiWithDot" unicode="&#xeef6;" 
d="M485 -77l-38 -188h-78l37 188h79zM221 313q-24 -235 287 -235l-16 -78q-414 0 -343 352q70 352 484 352l-15 -79q-312 0 -381 -234h334l-16 -78h-334z" />
    <glyph glyph-name="UkaliqLetterOdoWithDot" unicode="&#xeef7;" 
d="M485 -77l-38 -188h-78l37 188h79zM220 312q-38 -234 85 -234q133 0 156 117q23 110 -241 117zM236 390q339 -10 303 -195q-39 -195 -250 -195t-140 352q70 352 484 352l-15 -79q-313 0 -382 -235z" />
    <glyph glyph-name="UkaliqLetterOhhkoWithDot" unicode="&#xeef8;" 
d="M102 78h406l-16 -78h-406zM227 704q414 0 375 -196q-39 -195 -453 -195l15 78q336 0 360 117q23 117 -313 117zM485 -77l-38 -188h-78l37 188h79z" />
    <glyph glyph-name="UkaliqLetterAhkaWithDot" unicode="&#xeef9;" 
d="M227 704q414 0 344 -352q-71 -352 -485 -352l16 78q311 0 380 235h-333l15 78h334q24 234 -287 234zM485 -77l-38 -188h-78l37 188h79z" />
    <glyph glyph-name="UkaliqLetterAqaWithDot" unicode="&#xeefa;" 
d="M102 78h406l-16 -78h-406zM485 -77l-38 -188h-78l37 188h79zM258 508q-23 -117 109 -117q133 0 157 117q23 117 -110 117t-156 -117zM180 508q39 196 250 196t172 -196q-39 -195 -250 -195t-172 195z" />
    <glyph glyph-name="UkaliqLetterApaWithDot" unicode="&#xeefb;" 
d="M485 -77l-38 -188h-78l37 188h79zM499 392q38 233 -85 233q-133 0 -156 -117q-22 -109 241 -116zM483 314q-339 10 -303 194q39 196 250 196t141 -352q-71 -352 -485 -352l16 78q312 0 381 236z" />
    <glyph glyph-name="UkaliqLetterEtreWithDot" unicode="&#xeefc;" 
d="M227 704q414 0 375 -196q-39 -195 -365 -195q-18 0 -21 -13q-44 -222 292 -222l-16 -78q-414 0 -354 300q18 91 115 91q247 0 271 117q23 117 -313 117zM485 -77l-38 -188h-78l37 188h79z" />
    <glyph glyph-name="UkaliqLetterUkuWithDot" unicode="&#xeefd;" 
d="M227 704q414 0 344 -352q-71 -352 -282 -352t-172 195q37 185 381 195q25 235 -287 235zM485 -77l-38 -188h-78l37 188h79zM483 312q-266 -8 -288 -117q-23 -117 110 -117q123 0 178 234z" />
    </font>
</defs>
</svg>
