<?xml version="1.0" standalone="no"?>
<!DOCTYPE svg PUBLIC "-//W3C//DTD SVG 1.1//EN" "http://www.w3.org/Graphics/SVG/1.1/DTD/svg11.dtd" >
<svg xmlns="http://www.w3.org/2000/svg" xmlns:xlink="http://www.w3.org/1999/xlink" version="1.1">
<metadata>
Created by FontForge 20170812 at Mon Jan 23 00:30:09 2023
 By ht,,,
Copyright (C) 2022-2023 Henrik Theiling, License CC-BY-NC4.0
</metadata>
<defs>
<font id="UkaliqPenLightOblique" horiz-adv-x="578" >
  <font-face 
    font-family="Ukaliq Pen"
    font-weight="250"
    font-style="oblique"
    font-stretch="normal"
    units-per-em="1024"
    panose-1="2 0 4 3 0 0 0 0 0 0"
    ascent="727"
    descent="-297"
    bbox="0 -296 638 946"
    underline-thickness="78"
    underline-position="-171"
    unicode-range="U+000D-F1DFF"
  />
<missing-glyph 
d="M90 49h412l-10 -49h-412zM482 -77l-38 -188h-49l38 188h49z" />
    <glyph glyph-name="UkaliqSpace_UkaliqModifierDot" unicode="&#xee00;&#x331;" 
d="M482 -77l-38 -188h-49l38 188h49z" />
    <glyph glyph-name="UkaliqNumber_UkaliqModifierDot" unicode="&#xee01;&#x331;" 
d="M573 376l-76 -376h-49l76 376h49zM482 -77l-38 -188h-49l38 188h49z" />
    <glyph glyph-name="UkaliqRightSingleQuotationMark_UkaliqModifierDot" unicode="&#xee02;&#x331;" 
d="M265 704l-75 -377h-49l75 377h49zM482 -77l-38 -188h-49l38 188h49z" />
    <glyph glyph-name="UkaliqColon_UkaliqModifierDot" unicode="&#xee03;&#x331;" 
d="M573 376l-76 -376h-49l76 376h49zM265 704l-75 -377h-49l75 377h49zM482 -77l-38 -188h-49l38 188h49z" />
    <glyph glyph-name="UkaliqFullStop_UkaliqModifierDot" unicode="&#xee04;&#x331;" 
d="M199 376l-75 -376h-49l75 376h49zM482 -77l-38 -188h-49l38 188h49z" />
    <glyph glyph-name="UkaliqComma_UkaliqModifierDot" unicode="&#xee05;&#x331;" 
d="M573 376l-76 -376h-49l76 376h49zM199 376l-75 -376h-49l75 376h49zM482 -77l-38 -188h-49l38 188h49z" />
    <glyph glyph-name="UkaliqRightParenthesis_UkaliqModifierDot" unicode="&#xee06;&#x331;" 
d="M265 704l-141 -704h-49l141 704h49zM482 -77l-38 -188h-49l38 188h49z" />
    <glyph glyph-name="UkaliqExclamationMark_UkaliqModifierDot" unicode="&#xee07;&#x331;" 
d="M265 704l-141 -704h-49l141 704h49zM573 376l-76 -376h-49l76 376h49zM482 -77l-38 -188h-49l38 188h49z" />
    <glyph glyph-name="UkaliqLeftSingleQuotationMark_UkaliqModifierDot" unicode="&#xee08;&#x331;" 
d="M638 704l-75 -377h-49l75 377h49zM482 -77l-38 -188h-49l38 188h49z" />
    <glyph glyph-name="UkaliqLeftParenthesis_UkaliqModifierDot" unicode="&#xee09;&#x331;" 
d="M638 704l-141 -704h-49l141 704h49zM482 -77l-38 -188h-49l38 188h49z" />
    <glyph glyph-name="UkaliqDoubleQuotationMark_UkaliqModifierDot" unicode="&#xee0a;&#x331;" 
d="M265 704l-75 -377h-49l75 377h49zM638 704l-75 -377h-49l75 377h49zM482 -77l-38 -188h-49l38 188h49z" />
    <glyph glyph-name="UkaliqReversedQuestionMark_UkaliqModifierDot" unicode="&#xee0b;&#x331;" 
d="M638 704l-141 -704h-49l141 704h49zM265 704l-75 -377h-49l75 377h49zM482 -77l-38 -188h-49l38 188h49z" />
    <glyph glyph-name="UkaliqSemicolon_UkaliqModifierDot" unicode="&#xee0c;&#x331;" 
d="M638 704l-75 -377h-49l75 377h49zM199 376l-75 -376h-49l75 376h49zM482 -77l-38 -188h-49l38 188h49z" />
    <glyph glyph-name="UkaliqReversedExclamationMark_UkaliqModifierDot" unicode="&#xee0d;&#x331;" 
d="M638 704l-141 -704h-49l141 704h49zM199 376l-75 -376h-49l75 376h49zM482 -77l-38 -188h-49l38 188h49z" />
    <glyph glyph-name="UkaliqQuestionMark_UkaliqModifierDot" unicode="&#xee0e;&#x331;" 
d="M265 704l-141 -704h-49l141 704h49zM638 704l-75 -377h-49l75 377h49zM482 -77l-38 -188h-49l38 188h49z" />
    <glyph glyph-name="UkaliqEquals_UkaliqModifierDot" unicode="&#xee0f;&#x331;" 
d="M638 704l-141 -704h-49l141 704h49zM265 704l-141 -704h-49l141 704h49zM482 -77l-38 -188h-49l38 188h49z" />
    <glyph glyph-name="UkaliqHyphen_UkaliqModifierDot" unicode="&#xee10;&#x331;" 
d="M90 49h412l-10 -49h-412zM482 -77l-38 -188h-49l38 188h49z" />
    <glyph glyph-name="UkaliqLetterOzo_UkaliqModifierDot" unicode="&#xee11;&#x331;" 
d="M482 -77l-38 -188h-49l38 188h49zM573 376q-76 -376 -493 -376l10 49q368 0 434 327h49z" />
    <glyph glyph-name="UkaliqGreaterThan_UkaliqModifierDot" unicode="&#xee12;&#x331;" 
d="M90 49h412l-10 -49h-412zM265 704l-75 -377h-49l75 377h49zM482 -77l-38 -188h-49l38 188h49z" />
    <glyph glyph-name="UkaliqLetterAtlha_UkaliqModifierDot" unicode="&#xee13;&#x331;" 
d="M265 704l-75 -377h-49l75 377h49zM482 -77l-38 -188h-49l38 188h49zM573 376q-76 -376 -493 -376l10 49q368 0 434 327h49z" />
    <glyph glyph-name="UkaliqLetterEdzre_UkaliqModifierDot" unicode="&#xee14;&#x331;" 
d="M199 376q-65 -327 303 -327l-10 -49q-417 0 -342 376h49zM482 -77l-38 -188h-49l38 188h49z" />
    <glyph glyph-name="UkaliqOr_UkaliqModifierDot" unicode="&#xee15;&#x331;" 
d="M199 376q-65 -327 97 -327t228 327h49q-76 -376 -287 -376t-136 376h49zM482 -77l-38 -188h-49l38 188h49z" />
    <glyph glyph-name="UkaliqLetterIdzji_UkaliqModifierDot" unicode="&#xee16;&#x331;" 
d="M265 704l-45 -227q-86 -428 282 -428l-10 -49q-417 0 -321 477l45 227h49zM482 -77l-38 -188h-49l38 188h49z" />
    <glyph glyph-name="UkaliqLetterOdzo_UkaliqModifierDot" unicode="&#xee17;&#x331;" 
d="M265 704l-45 -227q-86 -428 76 -428t228 327h49q-76 -376 -287 -376t-115 477l45 227h49zM482 -77l-38 -188h-49l38 188h49z" />
    <glyph glyph-name="UkaliqLessThan_UkaliqModifierDot" unicode="&#xee18;&#x331;" 
d="M90 49h412l-10 -49h-412zM638 704l-75 -377h-49l75 377h49zM482 -77l-38 -188h-49l38 188h49z" />
    <glyph glyph-name="UkaliqLetterOso_UkaliqModifierDot" unicode="&#xee19;&#x331;" 
d="M638 704l-45 -227q-96 -477 -513 -477l10 49q368 0 454 428l45 227h49zM482 -77l-38 -188h-49l38 188h49z" />
    <glyph glyph-name="UkaliqMultiplication_UkaliqModifierDot" unicode="&#xee1a;&#x331;" 
d="M90 49h412l-10 -49h-412zM265 704l-75 -377h-49l75 377h49zM638 704l-75 -377h-49l75 377h49zM482 -77l-38 -188h-49l38 188h49z" />
    <glyph glyph-name="UkaliqLetterApfa_UkaliqModifierDot" unicode="&#xee1b;&#x331;" 
d="M265 704l-75 -377h-49l75 377h49zM638 704l-45 -227q-96 -477 -513 -477l10 49q368 0 454 428l45 227h49zM482 -77l-38 -188h-49l38 188h49z" />
    <glyph glyph-name="UkaliqLetterEtsre_UkaliqModifierDot" unicode="&#xee1c;&#x331;" 
d="M199 376q-65 -327 303 -327l-10 -49q-417 0 -342 376h49zM638 704l-75 -377h-49l75 377h49zM482 -77l-38 -188h-49l38 188h49z" />
    <glyph glyph-name="UkaliqLetterUkkhu_UkaliqModifierDot" unicode="&#xee1d;&#x331;" 
d="M638 704l-45 -227q-96 -477 -307 -477t-136 376h49q-65 -327 97 -327t248 428l45 227h49zM482 -77l-38 -188h-49l38 188h49z" />
    <glyph glyph-name="UkaliqLetterItsji_UkaliqModifierDot" unicode="&#xee1e;&#x331;" 
d="M265 704l-45 -227q-86 -428 282 -428l-10 -49q-417 0 -321 477l45 227h49zM638 704l-75 -377h-49l75 377h49zM482 -77l-38 -188h-49l38 188h49z" />
    <glyph glyph-name="UkaliqLetterOtso_UkaliqModifierDot" unicode="&#xee1f;&#x331;" 
d="M265 704l-45 -227q-86 -428 76 -428t248 428l45 227h49l-45 -227q-96 -477 -307 -477t-115 477l45 227h49zM482 -77l-38 -188h-49l38 188h49z" />
    <glyph glyph-name="UkaliqRange_UkaliqModifierDot" unicode="&#xee20;&#x331;" 
d="M482 -77l-38 -188h-49l38 188h49zM221 704h412l-10 -49h-412z" />
    <glyph glyph-name="UkaliqLetterEo_UkaliqModifierDot" unicode="&#xee21;&#x331;" 
d="M573 376l-76 -376h-49l76 376h49zM482 -77l-38 -188h-49l38 188h49zM221 704h412l-10 -49h-412z" />
    <glyph glyph-name="UkaliqLetterUh_UkaliqModifierDot" unicode="&#xee22;&#x331;" 
d="M623 655q-368 0 -433 -328h-49q75 377 492 377zM482 -77l-38 -188h-49l38 188h49z" />
    <glyph glyph-name="UkaliqLetterEu_UkaliqModifierDot" unicode="&#xee23;&#x331;" 
d="M573 376l-76 -376h-49l76 376h49zM623 655q-368 0 -433 -328h-49q75 377 492 377zM482 -77l-38 -188h-49l38 188h49z" />
    <glyph glyph-name="UkaliqLetterOe_UkaliqModifierDot" unicode="&#xee24;&#x331;" 
d="M199 376l-75 -376h-49l75 376h49zM482 -77l-38 -188h-49l38 188h49zM221 704h412l-10 -49h-412z" />
    <glyph glyph-name="UkaliqLetterOeh_UkaliqModifierDot" unicode="&#xee25;&#x331;" 
d="M573 376l-76 -376h-49l76 376h49zM199 376l-75 -376h-49l75 376h49zM482 -77l-38 -188h-49l38 188h49zM221 704h412l-10 -49h-412z" />
    <glyph glyph-name="UkaliqLetterUi_UkaliqModifierDot" unicode="&#xee26;&#x331;" 
d="M623 655q-368 0 -454 -429l-45 -226h-49l46 226q95 478 512 478zM482 -77l-38 -188h-49l38 188h49z" />
    <glyph glyph-name="UkaliqLetterAh_UkaliqModifierDot" unicode="&#xee27;&#x331;" 
d="M623 655q-368 0 -454 -429l-45 -226h-49l46 226q95 478 512 478zM573 376l-76 -376h-49l76 376h49zM482 -77l-38 -188h-49l38 188h49z" />
    <glyph glyph-name="UkaliqLetterAe_UkaliqModifierDot" unicode="&#xee28;&#x331;" 
d="M221 704q417 0 342 -377h-49q65 328 -303 328zM482 -77l-38 -188h-49l38 188h49z" />
    <glyph glyph-name="UkaliqLetterO_UkaliqModifierDot" unicode="&#xee29;&#x331;" 
d="M221 704q417 0 322 -478l-46 -226h-49l46 226q85 429 -283 429zM482 -77l-38 -188h-49l38 188h49z" />
    <glyph glyph-name="UkaliqLetterIh_UkaliqModifierDot" unicode="&#xee2a;&#x331;" 
d="M141 327q75 377 286 377t136 -377h-49q65 328 -97 328t-227 -328h-49zM482 -77l-38 -188h-49l38 188h49z" />
    <glyph glyph-name="UkaliqLetterU_UkaliqModifierDot" unicode="&#xee2b;&#x331;" 
d="M141 327q75 377 286 377t116 -478l-46 -226h-49l46 226q85 429 -77 429t-227 -328h-49zM482 -77l-38 -188h-49l38 188h49z" />
    <glyph glyph-name="UkaliqLetterE_UkaliqModifierDot" unicode="&#xee2c;&#x331;" 
d="M221 704q417 0 342 -377h-49q65 328 -303 328zM199 376l-75 -376h-49l75 376h49zM482 -77l-38 -188h-49l38 188h49z" />
    <glyph glyph-name="UkaliqLetterEh_UkaliqModifierDot" unicode="&#xee2d;&#x331;" 
d="M221 704q417 0 322 -478l-46 -226h-49l46 226q85 429 -283 429zM199 376l-75 -376h-49l75 376h49zM482 -77l-38 -188h-49l38 188h49z" />
    <glyph glyph-name="UkaliqLetterI_UkaliqModifierDot" unicode="&#xee2e;&#x331;" 
d="M514 327q65 328 -97 328t-248 -429l-45 -226h-49l46 226q95 478 306 478t136 -377h-49zM482 -77l-38 -188h-49l38 188h49z" />
    <glyph glyph-name="UkaliqLetterOh_UkaliqModifierDot" unicode="&#xee2f;&#x331;" 
d="M75 0l46 226q95 478 306 478t116 -478l-46 -226h-49l46 226q85 429 -77 429t-248 -429l-45 -226h-49zM482 -77l-38 -188h-49l38 188h49z" />
    <glyph glyph-name="UkaliqPlus_UkaliqModifierDot" unicode="&#xee30;&#x331;" 
d="M90 49h412l-10 -49h-412zM482 -77l-38 -188h-49l38 188h49zM221 704h412l-10 -49h-412z" />
    <glyph glyph-name="UkaliqCurrency_UkaliqModifierDot" unicode="&#xee31;&#x331;" 
d="M482 -77l-38 -188h-49l38 188h49zM573 376q-76 -376 -493 -376l10 49q368 0 434 327h49zM221 704h412l-10 -49h-412z" />
    <glyph glyph-name="UkaliqAt_UkaliqModifierDot" unicode="&#xee32;&#x331;" 
d="M90 49h412l-10 -49h-412zM623 655q-368 0 -433 -328h-49q75 377 492 377zM482 -77l-38 -188h-49l38 188h49z" />
    <glyph glyph-name="UkaliqLetterAlha_UkaliqModifierDot" unicode="&#xee33;&#x331;" 
d="M623 655q-368 0 -433 -328h-49q75 377 492 377zM482 -77l-38 -188h-49l38 188h49zM573 376q-76 -376 -493 -376l10 49q368 0 434 327h49z" />
    <glyph glyph-name="UkaliqLetterElre_UkaliqModifierDot" unicode="&#xee34;&#x331;" 
d="M199 376q-65 -327 303 -327l-10 -49q-417 0 -342 376h49zM482 -77l-38 -188h-49l38 188h49zM221 704h412l-10 -49h-412z" />
    <glyph glyph-name="UkaliqLetterUlgu_UkaliqModifierDot" unicode="&#xee35;&#x331;" 
d="M199 376q-65 -327 97 -327t228 327h49q-76 -376 -287 -376t-136 376h49zM482 -77l-38 -188h-49l38 188h49zM221 704h412l-10 -49h-412z" />
    <glyph glyph-name="UkaliqLetterIlji_UkaliqModifierDot" unicode="&#xee36;&#x331;" 
d="M623 655q-368 0 -429 -303q-60 -303 308 -303l-10 -49q-417 0 -346 352q70 352 487 352zM482 -77l-38 -188h-49l38 188h49z" />
    <glyph glyph-name="UkaliqLetterOlo_UkaliqModifierDot" unicode="&#xee37;&#x331;" 
d="M623 655q-368 0 -429 -303q-60 -303 102 -303t228 327h49q-76 -376 -287 -376t-140 352q70 352 487 352zM482 -77l-38 -188h-49l38 188h49z" />
    <glyph glyph-name="UkaliqDegree_UkaliqModifierDot" unicode="&#xee38;&#x331;" 
d="M90 49h412l-10 -49h-412zM221 704q417 0 342 -377h-49q65 328 -303 328zM482 -77l-38 -188h-49l38 188h49z" />
    <glyph glyph-name="UkaliqLetterHbat_UkaliqModifierDot" unicode="&#xee39;&#x331;" 
d="M221 704q417 0 347 -352q-71 -352 -488 -352l10 49q368 0 429 303q60 303 -308 303zM482 -77l-38 -188h-49l38 188h49z" />
    <glyph glyph-name="UkaliqLetterAnqa_UkaliqModifierDot" unicode="&#xee3a;&#x331;" 
d="M90 49h412l-10 -49h-412zM141 327q75 377 286 377t136 -377h-49q65 328 -97 328t-227 -328h-49zM482 -77l-38 -188h-49l38 188h49z" />
    <glyph glyph-name="UkaliqLetterAma_UkaliqModifierDot" unicode="&#xee3b;&#x331;" 
d="M141 327q75 377 286 377t141 -352q-71 -352 -488 -352l10 49q368 0 429 303q60 303 -102 303t-227 -328h-49zM482 -77l-38 -188h-49l38 188h49z" />
    <glyph glyph-name="UkaliqLetterEnre_UkaliqModifierDot" unicode="&#xee3c;&#x331;" 
d="M221 704q417 0 342 -377h-49q65 328 -303 328zM199 376q-65 -327 303 -327l-10 -49q-417 0 -342 376h49zM482 -77l-38 -188h-49l38 188h49z" />
    <glyph glyph-name="UkaliqLetterUngu_UkaliqModifierDot" unicode="&#xee3d;&#x331;" 
d="M221 704q417 0 347 -352q-71 -352 -282 -352t-136 376h49q-65 -327 97 -327t223 303q60 303 -308 303zM482 -77l-38 -188h-49l38 188h49z" />
    <glyph glyph-name="UkaliqLetterInji_UkaliqModifierDot" unicode="&#xee3e;&#x331;" 
d="M514 327q65 328 -97 328t-223 -303q-60 -303 308 -303l-10 -49q-417 0 -346 352q70 352 281 352t136 -377h-49zM482 -77l-38 -188h-49l38 188h49z" />
    <glyph glyph-name="UkaliqLetterOno_UkaliqModifierDot" unicode="&#xee3f;&#x331;" 
d="M482 -77l-38 -188h-49l38 188h49zM194 352q-60 -303 102 -303t223 303q60 303 -102 303t-223 -303zM146 352q70 352 281 352t141 -352q-71 -352 -282 -352t-140 352z" />
    <glyph glyph-name="UkaliqDash_UkaliqModifierDot" unicode="&#xee40;&#x331;" 
d="M155 376h413l-10 -49h-412zM482 -77l-38 -188h-49l38 188h49z" />
    <glyph glyph-name="UkaliqLetterA_UkaliqModifierDot" unicode="&#xee41;&#x331;" 
d="M155 376q418 0 342 -376h-49q66 327 -302 327zM482 -77l-38 -188h-49l38 188h49z" />
    <glyph glyph-name="UkaliqMinus_UkaliqModifierDot" unicode="&#xee42;&#x331;" 
d="M265 704q-66 -328 303 -328l-10 -49q-417 0 -342 377h49zM482 -77l-38 -188h-49l38 188h49z" />
    <glyph glyph-name="UkaliqLetterAwa_UkaliqModifierDot" unicode="&#xee43;&#x331;" 
d="M482 -77l-38 -188h-49l38 188h49zM265 704q-66 -328 221 -328q87 0 68 -95l-57 -281h-49l57 281q9 46 -29 46q-335 0 -260 377h49z" />
    <glyph glyph-name="UkaliqLetterErre_UkaliqModifierDot" unicode="&#xee44;&#x331;" 
d="M558 327q-368 0 -434 -327h-49q75 376 493 376zM482 -77l-38 -188h-49l38 188h49z" />
    <glyph glyph-name="UkaliqAnd_UkaliqModifierDot" unicode="&#xee45;&#x331;" 
d="M75 0q75 376 287 376q211 0 135 -376h-49q66 327 -96 327t-228 -327h-49zM482 -77l-38 -188h-49l38 188h49z" />
    <glyph glyph-name="UkaliqLetterIzji_UkaliqModifierDot" unicode="&#xee46;&#x331;" 
d="M482 -77l-38 -188h-49l38 188h49zM189 327l-65 -327h-49l71 352l70 352h49l-66 -328h369l-10 -49h-369z" />
    <glyph glyph-name="UkaliqLetterOro_UkaliqModifierDot" unicode="&#xee47;&#x331;" 
d="M482 -77l-38 -188h-49l38 188h49zM189 327l-65 -327h-49l71 352l70 352h49l-66 -328q372 -11 298 -376h-49q64 316 -259 327z" />
    <glyph glyph-name="UkaliqNot_UkaliqModifierDot" unicode="&#xee48;&#x331;" 
d="M638 704q-75 -377 -492 -377l9 49q369 0 434 328h49zM482 -77l-38 -188h-49l38 188h49z" />
    <glyph glyph-name="UkaliqDivision_UkaliqModifierDot" unicode="&#xee49;&#x331;" 
d="M638 704l-70 -352l-71 -352h-49l66 327h-368l9 49h369l65 328h49zM482 -77l-38 -188h-49l38 188h49z" />
    <glyph glyph-name="UkaliqXor_UkaliqModifierDot" unicode="&#xee4a;&#x331;" 
d="M265 704q-66 -328 97 -328q162 0 227 328h49q-75 -377 -286 -377t-136 377h49zM482 -77l-38 -188h-49l38 188h49z" />
    <glyph glyph-name="uniEE4B_UkaliqModifierDot" unicode="&#xee4b;&#x331;" 
d="M482 -77l-38 -188h-49l38 188h49zM265 704q-64 -316 259 -328l65 328h49l-70 -352l-71 -352h-49l66 327q-371 11 -298 377h49z" />
    <glyph glyph-name="UkaliqLetterIji_UkaliqModifierDot" unicode="&#xee4c;&#x331;" 
d="M638 704q-75 -377 -411 -377q-37 0 -47 -46l-56 -281h-49l57 281q18 95 105 95q287 0 352 328h49zM482 -77l-38 -188h-49l38 188h49z" />
    <glyph glyph-name="UkaliqLetterTkot_UkaliqModifierDot" unicode="&#xee4d;&#x331;" 
d="M638 704l-70 -352l-71 -352h-49l66 327q-326 -11 -390 -327h-49q73 364 449 376l65 328h49zM482 -77l-38 -188h-49l38 188h49z" />
    <glyph glyph-name="UkaliqLetterIsji_UkaliqModifierDot" unicode="&#xee4e;&#x331;" 
d="M482 -77l-38 -188h-49l38 188h49zM189 327l-65 -327h-49l71 352l70 352h49l-66 -328q327 11 390 328h49q-73 -366 -449 -377z" />
    <glyph glyph-name="UkaliqLetterOrro_UkaliqModifierDot" unicode="&#xee4f;&#x331;" 
d="M482 -77l-38 -188h-49l38 188h49zM638 704l-70 -352l-71 -352h-49l66 327h-325l-65 -327h-49l71 352l70 352h49l-66 -328h325l65 328h49z" />
    <glyph glyph-name="UkaliqDigitZero_UkaliqModifierDot" unicode="&#xee50;&#x331;" 
d="M90 49h412l-10 -49h-412zM155 376h413l-10 -49h-412zM482 -77l-38 -188h-49l38 188h49z" />
    <glyph glyph-name="UkaliqDigitOne_UkaliqModifierDot" unicode="&#xee51;&#x331;" 
d="M155 376q418 0 380 -188t-455 -188l10 49q368 0 396 139t-340 139zM482 -77l-38 -188h-49l38 188h49z" />
    <glyph glyph-name="UkaliqDigitTwo_UkaliqModifierDot" unicode="&#xee52;&#x331;" 
d="M265 704q-66 -328 303 -328l-10 -49q-417 0 -342 377h49zM90 49h412l-10 -49h-412zM482 -77l-38 -188h-49l38 188h49z" />
    <glyph glyph-name="UkaliqDigitThree_UkaliqModifierDot" unicode="&#xee53;&#x331;" 
d="M482 -77l-38 -188h-49l38 188h49zM265 704q-66 -328 221 -328q87 0 71 -79q-60 -297 -477 -297l10 49q368 0 418 248q6 30 -32 30q-335 0 -260 377h49z" />
    <glyph glyph-name="UkaliqDigitFour_UkaliqModifierDot" unicode="&#xee54;&#x331;" 
d="M558 327q-368 0 -396 -139t340 -139l-10 -49q-417 0 -379 188q37 188 455 188zM482 -77l-38 -188h-49l38 188h49z" />
    <glyph glyph-name="UkaliqDigitFive_UkaliqModifierDot" unicode="&#xee55;&#x331;" 
d="M482 -77l-38 -188h-49l38 188h49zM162 188q-28 -139 134 -139t190 139t-134 139t-190 -139zM113 188q37 188 249 188q211 0 173 -188t-249 -188t-173 188z" />
    <glyph glyph-name="UkaliqDigitSix_UkaliqModifierDot" unicode="&#xee56;&#x331;" 
d="M482 -77l-38 -188h-49l38 188h49zM190 327q-40 -278 312 -278l-10 -49q-417 0 -346 352l70 352h49l-66 -328h369l-10 -49h-368z" />
    <glyph glyph-name="UkaliqDigitSeven_UkaliqModifierDot" unicode="&#xee57;&#x331;" 
d="M482 -77l-38 -188h-49l38 188h49zM189 327q-48 -278 107 -278q162 0 190 139q27 134 -297 139zM199 376q373 -6 336 -188q-38 -188 -249 -188t-140 352l70 352h49z" />
    <glyph glyph-name="UkaliqDigitEight_UkaliqModifierDot" unicode="&#xee58;&#x331;" 
d="M90 49h412l-10 -49h-412zM638 704q-75 -377 -492 -377l9 49q369 0 434 328h49zM482 -77l-38 -188h-49l38 188h49z" />
    <glyph glyph-name="UkaliqDigitNine_UkaliqModifierDot" unicode="&#xee59;&#x331;" 
d="M638 704l-70 -352q-71 -352 -488 -352l10 49q352 0 423 278h-367l9 49h369l65 328h49zM482 -77l-38 -188h-49l38 188h49z" />
    <glyph glyph-name="UkaliqDigitTen_UkaliqModifierDot" unicode="&#xee5a;&#x331;" 
d="M265 704q-66 -328 97 -328q162 0 227 328h49q-75 -377 -286 -377t-136 377h49zM90 49h412l-10 -49h-412zM482 -77l-38 -188h-49l38 188h49z" />
    <glyph glyph-name="UkaliqDigitEleven_UkaliqModifierDot" unicode="&#xee5b;&#x331;" 
d="M482 -77l-38 -188h-49l38 188h49zM265 704q-64 -316 259 -328l65 328h49l-70 -352q-71 -352 -488 -352l10 49q353 0 423 278q-370 12 -297 377h49z" />
    <glyph glyph-name="UkaliqDigitTwelve_UkaliqModifierDot" unicode="&#xee5c;&#x331;" 
d="M638 704q-75 -377 -411 -377q-37 0 -43 -30q-50 -248 318 -248l-10 -49q-417 0 -357 297q15 79 102 79q287 0 352 328h49zM482 -77l-38 -188h-49l38 188h49z" />
    <glyph glyph-name="UkaliqDigitThirteen_UkaliqModifierDot" unicode="&#xee5d;&#x331;" 
d="M638 704l-70 -352q-71 -352 -282 -352t-173 188q36 182 411 188l65 328h49zM482 -77l-38 -188h-49l38 188h49zM514 327q-325 -5 -352 -139q-28 -139 134 -139q155 0 218 278z" />
    <glyph glyph-name="UkaliqDigitFourteen_UkaliqModifierDot" unicode="&#xee5e;&#x331;" 
d="M482 -77l-38 -188h-49l38 188h49zM190 327q-40 -278 312 -278l-10 -49q-417 0 -346 352l70 352h49l-66 -328q327 11 390 328h49q-72 -365 -448 -377z" />
    <glyph glyph-name="UkaliqDigitFifteen_UkaliqModifierDot" unicode="&#xee5f;&#x331;" 
d="M482 -77l-38 -188h-49l38 188h49zM524 376l65 328h49l-70 -352q-71 -352 -282 -352t-140 352l70 352h49l-66 -328h325zM514 327h-325q-49 -278 107 -278q155 0 218 278z" />
    <glyph glyph-name="UkaliqLetterSchwa_UkaliqModifierDot" unicode="&#xee60;&#x331;" 
d="M155 376h413l-10 -49h-412zM482 -77l-38 -188h-49l38 188h49zM221 704h412l-10 -49h-412z" />
    <glyph glyph-name="UkaliqLetterOhgo_UkaliqModifierDot" unicode="&#xee61;&#x331;" 
d="M155 376q418 0 342 -376h-49q66 327 -302 327zM482 -77l-38 -188h-49l38 188h49zM221 704h412l-10 -49h-412z" />
    <glyph glyph-name="UkaliqLetterArha_UkaliqModifierDot" unicode="&#xee62;&#x331;" 
d="M623 655q-368 0 -396 -140q-28 -139 341 -139l-10 -49q-417 0 -380 188q38 189 455 189zM482 -77l-38 -188h-49l38 188h49z" />
    <glyph glyph-name="UkaliqLetterAva_UkaliqModifierDot" unicode="&#xee63;&#x331;" 
d="M482 -77l-38 -188h-49l38 188h49zM623 655q-368 0 -396 -140q-28 -139 259 -139q87 0 68 -95l-57 -281h-49l57 281q9 46 -29 46q-335 0 -298 188q38 189 455 189z" />
    <glyph glyph-name="UkaliqLetterEzre_UkaliqModifierDot" unicode="&#xee64;&#x331;" 
d="M558 327q-368 0 -434 -327h-49q75 376 493 376zM482 -77l-38 -188h-49l38 188h49zM221 704h412l-10 -49h-412z" />
    <glyph glyph-name="UkaliqLetterUghu_UkaliqModifierDot" unicode="&#xee65;&#x331;" 
d="M75 0q75 376 287 376q211 0 135 -376h-49q66 327 -96 327t-228 -327h-49zM482 -77l-38 -188h-49l38 188h49zM221 704h412l-10 -49h-412z" />
    <glyph glyph-name="UkaliqLetterIjji_UkaliqModifierDot" unicode="&#xee66;&#x331;" 
d="M482 -77l-38 -188h-49l38 188h49zM189 327l-65 -327h-49l71 352q70 352 487 352l-10 -49q-353 0 -424 -279h369l-10 -49h-369z" />
    <glyph glyph-name="UkaliqLetterOdho_UkaliqModifierDot" unicode="&#xee67;&#x331;" 
d="M482 -77l-38 -188h-49l38 188h49zM189 327l-65 -327h-49l71 352q70 352 487 352l-10 -49q-353 0 -424 -279q371 -11 298 -376h-49q64 316 -259 327z" />
    <glyph glyph-name="UkaliqLetterOhho_UkaliqModifierDot" unicode="&#xee68;&#x331;" 
d="M221 704q417 0 379 -189q-37 -188 -454 -188l9 49q369 0 397 139q27 140 -341 140zM482 -77l-38 -188h-49l38 188h49z" />
    <glyph glyph-name="UkaliqLetterAha_UkaliqModifierDot" unicode="&#xee69;&#x331;" 
d="M221 704q417 0 347 -352l-71 -352h-49l66 327h-368l9 49h368q41 279 -312 279zM482 -77l-38 -188h-49l38 188h49z" />
    <glyph glyph-name="UkaliqLetterAqha_UkaliqModifierDot" unicode="&#xee6a;&#x331;" 
d="M482 -77l-38 -188h-49l38 188h49zM227 515q-28 -139 135 -139q162 0 190 139q27 140 -135 140t-190 -140zM178 515q38 189 249 189t173 -189q-37 -188 -248 -188t-174 188z" />
    <glyph glyph-name="UkaliqLetterAfa_UkaliqModifierDot" unicode="&#xee6b;&#x331;" 
d="M482 -77l-38 -188h-49l38 188h49zM524 376q49 279 -107 279q-162 0 -190 -140q-27 -134 297 -139zM514 327q-372 6 -336 188q38 189 249 189t141 -352l-71 -352h-49z" />
    <glyph glyph-name="UkaliqLetterEsre_UkaliqModifierDot" unicode="&#xee6c;&#x331;" 
d="M221 704q417 0 379 -189q-37 -188 -373 -188q-37 0 -47 -46l-56 -281h-49l57 281q18 95 105 95q287 0 315 139q27 140 -341 140zM482 -77l-38 -188h-49l38 188h49z" />
    <glyph glyph-name="UkaliqLetterUkhu_UkaliqModifierDot" unicode="&#xee6d;&#x331;" 
d="M221 704q417 0 347 -352l-71 -352h-49l66 327q-326 -11 -390 -327h-49q73 364 448 376q41 279 -312 279zM482 -77l-38 -188h-49l38 188h49z" />
    <glyph glyph-name="UkaliqLetterIcji_UkaliqModifierDot" unicode="&#xee6e;&#x331;" 
d="M482 -77l-38 -188h-49l38 188h49zM189 327l-65 -327h-49l71 352q70 352 281 352t173 -189q-36 -182 -411 -188zM199 376q326 5 353 139q27 140 -135 140q-156 0 -218 -279z" />
    <glyph glyph-name="UkaliqLetterOtho_UkaliqModifierDot" unicode="&#xee6f;&#x331;" 
d="M482 -77l-38 -188h-49l38 188h49zM75 0l71 352q70 352 281 352t141 -352l-71 -352h-49l66 327h-325l-65 -327h-49zM199 376h324q49 279 -106 279q-156 0 -218 -279z" />
    <glyph glyph-name="UkaliqIterationMark_UkaliqModifierDot" unicode="&#xee70;&#x331;" 
d="M90 49h412l-10 -49h-412zM155 376h413l-10 -49h-412zM482 -77l-38 -188h-49l38 188h49zM221 704h412l-10 -49h-412z" />
    <glyph glyph-name="UkaliqPercent_UkaliqModifierDot" unicode="&#xee71;&#x331;" 
d="M155 376q418 0 380 -188t-455 -188l10 49q368 0 396 139t-340 139zM482 -77l-38 -188h-49l38 188h49zM221 704h412l-10 -49h-412z" />
    <glyph glyph-name="UkaliqLetterAgqa_UkaliqModifierDot" unicode="&#xee72;&#x331;" 
d="M623 655q-368 0 -396 -140q-28 -139 341 -139l-10 -49q-417 0 -380 188q38 189 455 189zM90 49h412l-10 -49h-412zM482 -77l-38 -188h-49l38 188h49z" />
    <glyph glyph-name="UkaliqLetterAba_UkaliqModifierDot" unicode="&#xee73;&#x331;" 
d="M482 -77l-38 -188h-49l38 188h49zM623 655q-368 0 -396 -140q-28 -139 259 -139q87 0 71 -79q-60 -297 -477 -297l10 49q368 0 418 248q6 30 -32 30q-335 0 -298 188q38 189 455 189z" />
    <glyph glyph-name="UkaliqLetterEdre_UkaliqModifierDot" unicode="&#xee74;&#x331;" 
d="M558 327q-368 0 -396 -139t340 -139l-10 -49q-417 0 -379 188q37 188 455 188zM482 -77l-38 -188h-49l38 188h49zM221 704h412l-10 -49h-412z" />
    <glyph glyph-name="UkaliqLetterUgu_UkaliqModifierDot" unicode="&#xee75;&#x331;" 
d="M482 -77l-38 -188h-49l38 188h49zM221 704h412l-10 -49h-412zM162 188q-28 -139 134 -139t190 139t-134 139t-190 -139zM113 188q37 188 249 188q211 0 173 -188t-249 -188t-173 188z" />
    <glyph glyph-name="UkaliqLetterIgji_UkaliqModifierDot" unicode="&#xee76;&#x331;" 
d="M482 -77l-38 -188h-49l38 188h49zM190 327q-40 -278 312 -278l-10 -49q-417 0 -346 352q70 352 487 352l-10 -49q-353 0 -424 -279h369l-10 -49h-368z" />
    <glyph glyph-name="UkaliqLetterOdo_UkaliqModifierDot" unicode="&#xee77;&#x331;" 
d="M482 -77l-38 -188h-49l38 188h49zM189 327q-48 -278 107 -278q162 0 190 139q27 134 -297 139zM199 376q372 -6 336 -188q-38 -188 -249 -188t-140 352q70 352 487 352l-10 -49q-354 0 -424 -279z" />
    <glyph glyph-name="UkaliqLetterOhhko_UkaliqModifierDot" unicode="&#xee78;&#x331;" 
d="M90 49h412l-10 -49h-412zM221 704q417 0 379 -189q-37 -188 -454 -188l9 49q369 0 397 139q27 140 -341 140zM482 -77l-38 -188h-49l38 188h49z" />
    <glyph glyph-name="UkaliqLetterAhka_UkaliqModifierDot" unicode="&#xee79;&#x331;" 
d="M221 704q417 0 347 -352q-71 -352 -488 -352l10 49q352 0 423 278h-367l9 49h368q41 279 -312 279zM482 -77l-38 -188h-49l38 188h49z" />
    <glyph glyph-name="UkaliqLetterAqa_UkaliqModifierDot" unicode="&#xee7a;&#x331;" 
d="M90 49h412l-10 -49h-412zM482 -77l-38 -188h-49l38 188h49zM227 515q-28 -139 135 -139q162 0 190 139q27 140 -135 140t-190 -140zM178 515q38 189 249 189t173 -189q-37 -188 -248 -188t-174 188z" />
    <glyph glyph-name="UkaliqLetterApa_UkaliqModifierDot" unicode="&#xee7b;&#x331;" 
d="M482 -77l-38 -188h-49l38 188h49zM524 376q49 279 -107 279q-162 0 -190 -140q-27 -134 297 -139zM513 327q-371 6 -335 188q38 189 249 189t141 -352q-71 -352 -488 -352l10 49q352 0 423 278z" />
    <glyph glyph-name="UkaliqLetterEtre_UkaliqModifierDot" unicode="&#xee7c;&#x331;" 
d="M221 704q417 0 379 -189q-37 -188 -373 -188q-37 0 -43 -30q-50 -248 318 -248l-10 -49q-417 0 -357 297q15 79 102 79q287 0 315 139q27 140 -341 140zM482 -77l-38 -188h-49l38 188h49z" />
    <glyph glyph-name="UkaliqLetterUku_UkaliqModifierDot" unicode="&#xee7d;&#x331;" 
d="M221 704q417 0 347 -352q-71 -352 -282 -352t-173 188q36 182 410 188q41 279 -312 279zM482 -77l-38 -188h-49l38 188h49zM514 327q-325 -5 -352 -139q-28 -139 134 -139q155 0 218 278z" />
    <glyph glyph-name="UkaliqLetterIci_UkaliqModifierDot" unicode="&#xee7e;&#x331;" 
d="M482 -77l-38 -188h-49l38 188h49zM190 327q-40 -278 312 -278l-10 -49q-417 0 -346 352q70 352 281 352t173 -189q-36 -182 -410 -188zM199 376q326 5 353 139q27 140 -135 140q-156 0 -218 -279z" />
    <glyph glyph-name="UkaliqLetterOto_UkaliqModifierDot" unicode="&#xee7f;&#x331;" 
d="M482 -77l-38 -188h-49l38 188h49zM199 376h324q49 279 -106 279q-156 0 -218 -279zM514 327h-325q-49 -278 107 -278q155 0 218 278zM146 352q70 352 281 352t141 -352q-71 -352 -282 -352t-140 352z" />
    <glyph glyph-name="UkaliqPatternBlank_UkaliqModifierDot" unicode="&#xf1d00;&#x331;" 
d="M482 -77l-38 -188h-49l38 188h49z" />
    <glyph glyph-name="UkaliqPatternSegmentsC_UkaliqModifierDot" unicode="&#xf1d01;&#x331;" 
d="M573 376l-76 -376h-49l76 376h49zM482 -77l-38 -188h-49l38 188h49z" />
    <glyph glyph-name="UkaliqPatternSegmentsF_UkaliqModifierDot" unicode="&#xf1d02;&#x331;" 
d="M265 704l-75 -377h-49l75 377h49zM482 -77l-38 -188h-49l38 188h49z" />
    <glyph glyph-name="UkaliqPatternSegmentsCf_UkaliqModifierDot" unicode="&#xf1d03;&#x331;" 
d="M573 376l-76 -376h-49l76 376h49zM265 704l-75 -377h-49l75 377h49zM482 -77l-38 -188h-49l38 188h49z" />
    <glyph glyph-name="UkaliqPatternSegmentsE_UkaliqModifierDot" unicode="&#xf1d04;&#x331;" 
d="M199 376l-75 -376h-49l75 376h49zM482 -77l-38 -188h-49l38 188h49z" />
    <glyph glyph-name="UkaliqPatternSegmentsCe_UkaliqModifierDot" unicode="&#xf1d05;&#x331;" 
d="M573 376l-76 -376h-49l76 376h49zM199 376l-75 -376h-49l75 376h49zM482 -77l-38 -188h-49l38 188h49z" />
    <glyph glyph-name="UkaliqPatternSegmentsEf_UkaliqModifierDot" unicode="&#xf1d06;&#x331;" 
d="M265 704l-141 -704h-49l141 704h49zM482 -77l-38 -188h-49l38 188h49z" />
    <glyph glyph-name="UkaliqPatternSegmentsCef_UkaliqModifierDot" unicode="&#xf1d07;&#x331;" 
d="M265 704l-141 -704h-49l141 704h49zM573 376l-76 -376h-49l76 376h49zM482 -77l-38 -188h-49l38 188h49z" />
    <glyph glyph-name="UkaliqPatternSegmentsB_UkaliqModifierDot" unicode="&#xf1d08;&#x331;" 
d="M638 704l-75 -377h-49l75 377h49zM482 -77l-38 -188h-49l38 188h49z" />
    <glyph glyph-name="UkaliqPatternSegmentsBc_UkaliqModifierDot" unicode="&#xf1d09;&#x331;" 
d="M638 704l-141 -704h-49l141 704h49zM482 -77l-38 -188h-49l38 188h49z" />
    <glyph glyph-name="UkaliqPatternSegmentsBf_UkaliqModifierDot" unicode="&#xf1d0a;&#x331;" 
d="M265 704l-75 -377h-49l75 377h49zM638 704l-75 -377h-49l75 377h49zM482 -77l-38 -188h-49l38 188h49z" />
    <glyph glyph-name="UkaliqPatternSegmentsBcf_UkaliqModifierDot" unicode="&#xf1d0b;&#x331;" 
d="M638 704l-141 -704h-49l141 704h49zM265 704l-75 -377h-49l75 377h49zM482 -77l-38 -188h-49l38 188h49z" />
    <glyph glyph-name="UkaliqPatternSegmentsBe_UkaliqModifierDot" unicode="&#xf1d0c;&#x331;" 
d="M638 704l-75 -377h-49l75 377h49zM199 376l-75 -376h-49l75 376h49zM482 -77l-38 -188h-49l38 188h49z" />
    <glyph glyph-name="UkaliqPatternSegmentsBce_UkaliqModifierDot" unicode="&#xf1d0d;&#x331;" 
d="M638 704l-141 -704h-49l141 704h49zM199 376l-75 -376h-49l75 376h49zM482 -77l-38 -188h-49l38 188h49z" />
    <glyph glyph-name="UkaliqPatternSegmentsBef_UkaliqModifierDot" unicode="&#xf1d0e;&#x331;" 
d="M265 704l-141 -704h-49l141 704h49zM638 704l-75 -377h-49l75 377h49zM482 -77l-38 -188h-49l38 188h49z" />
    <glyph glyph-name="UkaliqPatternSegmentsBcef_UkaliqModifierDot" unicode="&#xf1d0f;&#x331;" 
d="M638 704l-141 -704h-49l141 704h49zM265 704l-141 -704h-49l141 704h49zM482 -77l-38 -188h-49l38 188h49z" />
    <glyph glyph-name="UkaliqPatternSegmentsD_UkaliqModifierDot" unicode="&#xf1d10;&#x331;" 
d="M90 49h412l-10 -49h-412zM482 -77l-38 -188h-49l38 188h49z" />
    <glyph glyph-name="UkaliqPatternSegmentsCd_UkaliqModifierDot" unicode="&#xf1d11;&#x331;" 
d="M482 -77l-38 -188h-49l38 188h49zM573 376q-76 -376 -493 -376l10 49q368 0 434 327h49z" />
    <glyph glyph-name="UkaliqPatternSegmentsDf_UkaliqModifierDot" unicode="&#xf1d12;&#x331;" 
d="M90 49h412l-10 -49h-412zM265 704l-75 -377h-49l75 377h49zM482 -77l-38 -188h-49l38 188h49z" />
    <glyph glyph-name="UkaliqPatternSegmentsCdf_UkaliqModifierDot" unicode="&#xf1d13;&#x331;" 
d="M265 704l-75 -377h-49l75 377h49zM482 -77l-38 -188h-49l38 188h49zM573 376q-76 -376 -493 -376l10 49q368 0 434 327h49z" />
    <glyph glyph-name="UkaliqPatternSegmentsDe_UkaliqModifierDot" unicode="&#xf1d14;&#x331;" 
d="M199 376q-65 -327 303 -327l-10 -49q-417 0 -342 376h49zM482 -77l-38 -188h-49l38 188h49z" />
    <glyph glyph-name="UkaliqPatternSegmentsCde_UkaliqModifierDot" unicode="&#xf1d15;&#x331;" 
d="M199 376q-65 -327 97 -327t228 327h49q-76 -376 -287 -376t-136 376h49zM482 -77l-38 -188h-49l38 188h49z" />
    <glyph glyph-name="UkaliqPatternSegmentsDef_UkaliqModifierDot" unicode="&#xf1d16;&#x331;" 
d="M265 704l-45 -227q-86 -428 282 -428l-10 -49q-417 0 -321 477l45 227h49zM482 -77l-38 -188h-49l38 188h49z" />
    <glyph glyph-name="UkaliqPatternSegmentsCdef_UkaliqModifierDot" unicode="&#xf1d17;&#x331;" 
d="M265 704l-45 -227q-86 -428 76 -428t228 327h49q-76 -376 -287 -376t-115 477l45 227h49zM482 -77l-38 -188h-49l38 188h49z" />
    <glyph glyph-name="UkaliqPatternSegmentsBd_UkaliqModifierDot" unicode="&#xf1d18;&#x331;" 
d="M90 49h412l-10 -49h-412zM638 704l-75 -377h-49l75 377h49zM482 -77l-38 -188h-49l38 188h49z" />
    <glyph glyph-name="UkaliqPatternSegmentsBcd_UkaliqModifierDot" unicode="&#xf1d19;&#x331;" 
d="M638 704l-45 -227q-96 -477 -513 -477l10 49q368 0 454 428l45 227h49zM482 -77l-38 -188h-49l38 188h49z" />
    <glyph glyph-name="UkaliqPatternSegmentsBdf_UkaliqModifierDot" unicode="&#xf1d1a;&#x331;" 
d="M90 49h412l-10 -49h-412zM265 704l-75 -377h-49l75 377h49zM638 704l-75 -377h-49l75 377h49zM482 -77l-38 -188h-49l38 188h49z" />
    <glyph glyph-name="UkaliqPatternSegmentsBcdf_UkaliqModifierDot" unicode="&#xf1d1b;&#x331;" 
d="M265 704l-75 -377h-49l75 377h49zM638 704l-45 -227q-96 -477 -513 -477l10 49q368 0 454 428l45 227h49zM482 -77l-38 -188h-49l38 188h49z" />
    <glyph glyph-name="UkaliqPatternSegmentsBde_UkaliqModifierDot" unicode="&#xf1d1c;&#x331;" 
d="M199 376q-65 -327 303 -327l-10 -49q-417 0 -342 376h49zM638 704l-75 -377h-49l75 377h49zM482 -77l-38 -188h-49l38 188h49z" />
    <glyph glyph-name="UkaliqPatternSegmentsBcde_UkaliqModifierDot" unicode="&#xf1d1d;&#x331;" 
d="M638 704l-45 -227q-96 -477 -307 -477t-136 376h49q-65 -327 97 -327t248 428l45 227h49zM482 -77l-38 -188h-49l38 188h49z" />
    <glyph glyph-name="UkaliqPatternSegmentsBdef_UkaliqModifierDot" unicode="&#xf1d1e;&#x331;" 
d="M265 704l-45 -227q-86 -428 282 -428l-10 -49q-417 0 -321 477l45 227h49zM638 704l-75 -377h-49l75 377h49zM482 -77l-38 -188h-49l38 188h49z" />
    <glyph glyph-name="UkaliqPatternSegmentsBcdef_UkaliqModifierDot" unicode="&#xf1d1f;&#x331;" 
d="M265 704l-45 -227q-86 -428 76 -428t248 428l45 227h49l-45 -227q-96 -477 -307 -477t-115 477l45 227h49zM482 -77l-38 -188h-49l38 188h49z" />
    <glyph glyph-name="UkaliqPatternSegmentsA_UkaliqModifierDot" unicode="&#xf1d20;&#x331;" 
d="M482 -77l-38 -188h-49l38 188h49zM221 704h412l-10 -49h-412z" />
    <glyph glyph-name="UkaliqPatternSegmentsAc_UkaliqModifierDot" unicode="&#xf1d21;&#x331;" 
d="M573 376l-76 -376h-49l76 376h49zM482 -77l-38 -188h-49l38 188h49zM221 704h412l-10 -49h-412z" />
    <glyph glyph-name="UkaliqPatternSegmentsAf_UkaliqModifierDot" unicode="&#xf1d22;&#x331;" 
d="M623 655q-368 0 -433 -328h-49q75 377 492 377zM482 -77l-38 -188h-49l38 188h49z" />
    <glyph glyph-name="UkaliqPatternSegmentsAcf_UkaliqModifierDot" unicode="&#xf1d23;&#x331;" 
d="M573 376l-76 -376h-49l76 376h49zM623 655q-368 0 -433 -328h-49q75 377 492 377zM482 -77l-38 -188h-49l38 188h49z" />
    <glyph glyph-name="UkaliqPatternSegmentsAe_UkaliqModifierDot" unicode="&#xf1d24;&#x331;" 
d="M199 376l-75 -376h-49l75 376h49zM482 -77l-38 -188h-49l38 188h49zM221 704h412l-10 -49h-412z" />
    <glyph glyph-name="UkaliqPatternSegmentsAce_UkaliqModifierDot" unicode="&#xf1d25;&#x331;" 
d="M573 376l-76 -376h-49l76 376h49zM199 376l-75 -376h-49l75 376h49zM482 -77l-38 -188h-49l38 188h49zM221 704h412l-10 -49h-412z" />
    <glyph glyph-name="UkaliqPatternSegmentsAef_UkaliqModifierDot" unicode="&#xf1d26;&#x331;" 
d="M623 655q-368 0 -454 -429l-45 -226h-49l46 226q95 478 512 478zM482 -77l-38 -188h-49l38 188h49z" />
    <glyph glyph-name="UkaliqPatternSegmentsAcef_UkaliqModifierDot" unicode="&#xf1d27;&#x331;" 
d="M623 655q-368 0 -454 -429l-45 -226h-49l46 226q95 478 512 478zM573 376l-76 -376h-49l76 376h49zM482 -77l-38 -188h-49l38 188h49z" />
    <glyph glyph-name="UkaliqPatternSegmentsAb_UkaliqModifierDot" unicode="&#xf1d28;&#x331;" 
d="M221 704q417 0 342 -377h-49q65 328 -303 328zM482 -77l-38 -188h-49l38 188h49z" />
    <glyph glyph-name="UkaliqPatternSegmentsAbc_UkaliqModifierDot" unicode="&#xf1d29;&#x331;" 
d="M221 704q417 0 322 -478l-46 -226h-49l46 226q85 429 -283 429zM482 -77l-38 -188h-49l38 188h49z" />
    <glyph glyph-name="UkaliqPatternSegmentsAbf_UkaliqModifierDot" unicode="&#xf1d2a;&#x331;" 
d="M141 327q75 377 286 377t136 -377h-49q65 328 -97 328t-227 -328h-49zM482 -77l-38 -188h-49l38 188h49z" />
    <glyph glyph-name="UkaliqPatternSegmentsAbcf_UkaliqModifierDot" unicode="&#xf1d2b;&#x331;" 
d="M141 327q75 377 286 377t116 -478l-46 -226h-49l46 226q85 429 -77 429t-227 -328h-49zM482 -77l-38 -188h-49l38 188h49z" />
    <glyph glyph-name="UkaliqPatternSegmentsAbe_UkaliqModifierDot" unicode="&#xf1d2c;&#x331;" 
d="M221 704q417 0 342 -377h-49q65 328 -303 328zM199 376l-75 -376h-49l75 376h49zM482 -77l-38 -188h-49l38 188h49z" />
    <glyph glyph-name="UkaliqPatternSegmentsAbce_UkaliqModifierDot" unicode="&#xf1d2d;&#x331;" 
d="M221 704q417 0 322 -478l-46 -226h-49l46 226q85 429 -283 429zM199 376l-75 -376h-49l75 376h49zM482 -77l-38 -188h-49l38 188h49z" />
    <glyph glyph-name="UkaliqPatternSegmentsAbef_UkaliqModifierDot" unicode="&#xf1d2e;&#x331;" 
d="M514 327q65 328 -97 328t-248 -429l-45 -226h-49l46 226q95 478 306 478t136 -377h-49zM482 -77l-38 -188h-49l38 188h49z" />
    <glyph glyph-name="UkaliqPatternSegmentsAbcef_UkaliqModifierDot" unicode="&#xf1d2f;&#x331;" 
d="M75 0l46 226q95 478 306 478t116 -478l-46 -226h-49l46 226q85 429 -77 429t-248 -429l-45 -226h-49zM482 -77l-38 -188h-49l38 188h49z" />
    <glyph glyph-name="UkaliqPatternSegmentsAd_UkaliqModifierDot" unicode="&#xf1d30;&#x331;" 
d="M90 49h412l-10 -49h-412zM482 -77l-38 -188h-49l38 188h49zM221 704h412l-10 -49h-412z" />
    <glyph glyph-name="UkaliqPatternSegmentsAcd_UkaliqModifierDot" unicode="&#xf1d31;&#x331;" 
d="M482 -77l-38 -188h-49l38 188h49zM573 376q-76 -376 -493 -376l10 49q368 0 434 327h49zM221 704h412l-10 -49h-412z" />
    <glyph glyph-name="UkaliqPatternSegmentsAdf_UkaliqModifierDot" unicode="&#xf1d32;&#x331;" 
d="M90 49h412l-10 -49h-412zM623 655q-368 0 -433 -328h-49q75 377 492 377zM482 -77l-38 -188h-49l38 188h49z" />
    <glyph glyph-name="UkaliqPatternSegmentsAcdf_UkaliqModifierDot" unicode="&#xf1d33;&#x331;" 
d="M623 655q-368 0 -433 -328h-49q75 377 492 377zM482 -77l-38 -188h-49l38 188h49zM573 376q-76 -376 -493 -376l10 49q368 0 434 327h49z" />
    <glyph glyph-name="UkaliqPatternSegmentsAde_UkaliqModifierDot" unicode="&#xf1d34;&#x331;" 
d="M199 376q-65 -327 303 -327l-10 -49q-417 0 -342 376h49zM482 -77l-38 -188h-49l38 188h49zM221 704h412l-10 -49h-412z" />
    <glyph glyph-name="UkaliqPatternSegmentsAcde_UkaliqModifierDot" unicode="&#xf1d35;&#x331;" 
d="M199 376q-65 -327 97 -327t228 327h49q-76 -376 -287 -376t-136 376h49zM482 -77l-38 -188h-49l38 188h49zM221 704h412l-10 -49h-412z" />
    <glyph glyph-name="UkaliqPatternSegmentsAdef_UkaliqModifierDot" unicode="&#xf1d36;&#x331;" 
d="M623 655q-368 0 -429 -303q-60 -303 308 -303l-10 -49q-417 0 -346 352q70 352 487 352zM482 -77l-38 -188h-49l38 188h49z" />
    <glyph glyph-name="UkaliqPatternSegmentsAcdef_UkaliqModifierDot" unicode="&#xf1d37;&#x331;" 
d="M623 655q-368 0 -429 -303q-60 -303 102 -303t228 327h49q-76 -376 -287 -376t-140 352q70 352 487 352zM482 -77l-38 -188h-49l38 188h49z" />
    <glyph glyph-name="UkaliqPatternSegmentsAbd_UkaliqModifierDot" unicode="&#xf1d38;&#x331;" 
d="M90 49h412l-10 -49h-412zM221 704q417 0 342 -377h-49q65 328 -303 328zM482 -77l-38 -188h-49l38 188h49z" />
    <glyph glyph-name="UkaliqPatternSegmentsAbcd_UkaliqModifierDot" unicode="&#xf1d39;&#x331;" 
d="M221 704q417 0 347 -352q-71 -352 -488 -352l10 49q368 0 429 303q60 303 -308 303zM482 -77l-38 -188h-49l38 188h49z" />
    <glyph glyph-name="UkaliqPatternSegmentsAbdf_UkaliqModifierDot" unicode="&#xf1d3a;&#x331;" 
d="M90 49h412l-10 -49h-412zM141 327q75 377 286 377t136 -377h-49q65 328 -97 328t-227 -328h-49zM482 -77l-38 -188h-49l38 188h49z" />
    <glyph glyph-name="UkaliqPatternSegmentsAbcdf_UkaliqModifierDot" unicode="&#xf1d3b;&#x331;" 
d="M141 327q75 377 286 377t141 -352q-71 -352 -488 -352l10 49q368 0 429 303q60 303 -102 303t-227 -328h-49zM482 -77l-38 -188h-49l38 188h49z" />
    <glyph glyph-name="UkaliqPatternSegmentsAbde_UkaliqModifierDot" unicode="&#xf1d3c;&#x331;" 
d="M221 704q417 0 342 -377h-49q65 328 -303 328zM199 376q-65 -327 303 -327l-10 -49q-417 0 -342 376h49zM482 -77l-38 -188h-49l38 188h49z" />
    <glyph glyph-name="UkaliqPatternSegmentsAbcde_UkaliqModifierDot" unicode="&#xf1d3d;&#x331;" 
d="M221 704q417 0 347 -352q-71 -352 -282 -352t-136 376h49q-65 -327 97 -327t223 303q60 303 -308 303zM482 -77l-38 -188h-49l38 188h49z" />
    <glyph glyph-name="UkaliqPatternSegmentsAbdef_UkaliqModifierDot" unicode="&#xf1d3e;&#x331;" 
d="M514 327q65 328 -97 328t-223 -303q-60 -303 308 -303l-10 -49q-417 0 -346 352q70 352 281 352t136 -377h-49zM482 -77l-38 -188h-49l38 188h49z" />
    <glyph glyph-name="UkaliqPatternSegmentsAbcdef_UkaliqModifierDot" unicode="&#xf1d3f;&#x331;" 
d="M482 -77l-38 -188h-49l38 188h49zM194 352q-60 -303 102 -303t223 303q60 303 -102 303t-223 -303zM146 352q70 352 281 352t141 -352q-71 -352 -282 -352t-140 352z" />
    <glyph glyph-name="UkaliqPatternSegmentsG_UkaliqModifierDot" unicode="&#xf1d40;&#x331;" 
d="M155 376h413l-10 -49h-412zM482 -77l-38 -188h-49l38 188h49z" />
    <glyph glyph-name="UkaliqPatternSegmentsCg_UkaliqModifierDot" unicode="&#xf1d41;&#x331;" 
d="M155 376q418 0 342 -376h-49q66 327 -302 327zM482 -77l-38 -188h-49l38 188h49z" />
    <glyph glyph-name="UkaliqPatternSegmentsFg_UkaliqModifierDot" unicode="&#xf1d42;&#x331;" 
d="M265 704q-66 -328 303 -328l-10 -49q-417 0 -342 377h49zM482 -77l-38 -188h-49l38 188h49z" />
    <glyph glyph-name="UkaliqPatternSegmentsCfg_UkaliqModifierDot" unicode="&#xf1d43;&#x331;" 
d="M482 -77l-38 -188h-49l38 188h49zM265 704q-66 -328 221 -328q87 0 68 -95l-57 -281h-49l57 281q9 46 -29 46q-335 0 -260 377h49z" />
    <glyph glyph-name="UkaliqPatternSegmentsEg_UkaliqModifierDot" unicode="&#xf1d44;&#x331;" 
d="M558 327q-368 0 -434 -327h-49q75 376 493 376zM482 -77l-38 -188h-49l38 188h49z" />
    <glyph glyph-name="UkaliqPatternSegmentsCeg_UkaliqModifierDot" unicode="&#xf1d45;&#x331;" 
d="M75 0q75 376 287 376q211 0 135 -376h-49q66 327 -96 327t-228 -327h-49zM482 -77l-38 -188h-49l38 188h49z" />
    <glyph glyph-name="UkaliqPatternSegmentsEfg_UkaliqModifierDot" unicode="&#xf1d46;&#x331;" 
d="M482 -77l-38 -188h-49l38 188h49zM189 327l-65 -327h-49l71 352l70 352h49l-66 -328h369l-10 -49h-369z" />
    <glyph glyph-name="UkaliqPatternSegmentsCefg_UkaliqModifierDot" unicode="&#xf1d47;&#x331;" 
d="M482 -77l-38 -188h-49l38 188h49zM189 327l-65 -327h-49l71 352l70 352h49l-66 -328q372 -11 298 -376h-49q64 316 -259 327z" />
    <glyph glyph-name="UkaliqPatternSegmentsBg_UkaliqModifierDot" unicode="&#xf1d48;&#x331;" 
d="M638 704q-75 -377 -492 -377l9 49q369 0 434 328h49zM482 -77l-38 -188h-49l38 188h49z" />
    <glyph glyph-name="UkaliqPatternSegmentsBcg_UkaliqModifierDot" unicode="&#xf1d49;&#x331;" 
d="M638 704l-70 -352l-71 -352h-49l66 327h-368l9 49h369l65 328h49zM482 -77l-38 -188h-49l38 188h49z" />
    <glyph glyph-name="UkaliqPatternSegmentsBfg_UkaliqModifierDot" unicode="&#xf1d4a;&#x331;" 
d="M265 704q-66 -328 97 -328q162 0 227 328h49q-75 -377 -286 -377t-136 377h49zM482 -77l-38 -188h-49l38 188h49z" />
    <glyph glyph-name="UkaliqPatternSegmentsBcfg_UkaliqModifierDot" unicode="&#xf1d4b;&#x331;" 
d="M482 -77l-38 -188h-49l38 188h49zM265 704q-64 -316 259 -328l65 328h49l-70 -352l-71 -352h-49l66 327q-371 11 -298 377h49z" />
    <glyph glyph-name="UkaliqPatternSegmentsBeg_UkaliqModifierDot" unicode="&#xf1d4c;&#x331;" 
d="M638 704q-75 -377 -411 -377q-37 0 -47 -46l-56 -281h-49l57 281q18 95 105 95q287 0 352 328h49zM482 -77l-38 -188h-49l38 188h49z" />
    <glyph glyph-name="UkaliqPatternSegmentsBceg_UkaliqModifierDot" unicode="&#xf1d4d;&#x331;" 
d="M638 704l-70 -352l-71 -352h-49l66 327q-326 -11 -390 -327h-49q73 364 449 376l65 328h49zM482 -77l-38 -188h-49l38 188h49z" />
    <glyph glyph-name="UkaliqPatternSegmentsBefg_UkaliqModifierDot" unicode="&#xf1d4e;&#x331;" 
d="M482 -77l-38 -188h-49l38 188h49zM189 327l-65 -327h-49l71 352l70 352h49l-66 -328q327 11 390 328h49q-73 -366 -449 -377z" />
    <glyph glyph-name="UkaliqPatternSegmentsBcefg_UkaliqModifierDot" unicode="&#xf1d4f;&#x331;" 
d="M482 -77l-38 -188h-49l38 188h49zM638 704l-70 -352l-71 -352h-49l66 327h-325l-65 -327h-49l71 352l70 352h49l-66 -328h325l65 328h49z" />
    <glyph glyph-name="UkaliqPatternSegmentsDg_UkaliqModifierDot" unicode="&#xf1d50;&#x331;" 
d="M90 49h412l-10 -49h-412zM155 376h413l-10 -49h-412zM482 -77l-38 -188h-49l38 188h49z" />
    <glyph glyph-name="UkaliqPatternSegmentsCdg_UkaliqModifierDot" unicode="&#xf1d51;&#x331;" 
d="M155 376q418 0 380 -188t-455 -188l10 49q368 0 396 139t-340 139zM482 -77l-38 -188h-49l38 188h49z" />
    <glyph glyph-name="UkaliqPatternSegmentsDfg_UkaliqModifierDot" unicode="&#xf1d52;&#x331;" 
d="M265 704q-66 -328 303 -328l-10 -49q-417 0 -342 377h49zM90 49h412l-10 -49h-412zM482 -77l-38 -188h-49l38 188h49z" />
    <glyph glyph-name="UkaliqPatternSegmentsCdfg_UkaliqModifierDot" unicode="&#xf1d53;&#x331;" 
d="M482 -77l-38 -188h-49l38 188h49zM265 704q-66 -328 221 -328q87 0 71 -79q-60 -297 -477 -297l10 49q368 0 418 248q6 30 -32 30q-335 0 -260 377h49z" />
    <glyph glyph-name="UkaliqPatternSegmentsDeg_UkaliqModifierDot" unicode="&#xf1d54;&#x331;" 
d="M558 327q-368 0 -396 -139t340 -139l-10 -49q-417 0 -379 188q37 188 455 188zM482 -77l-38 -188h-49l38 188h49z" />
    <glyph glyph-name="UkaliqPatternSegmentsCdeg_UkaliqModifierDot" unicode="&#xf1d55;&#x331;" 
d="M482 -77l-38 -188h-49l38 188h49zM162 188q-28 -139 134 -139t190 139t-134 139t-190 -139zM113 188q37 188 249 188q211 0 173 -188t-249 -188t-173 188z" />
    <glyph glyph-name="UkaliqPatternSegmentsDefg_UkaliqModifierDot" unicode="&#xf1d56;&#x331;" 
d="M482 -77l-38 -188h-49l38 188h49zM190 327q-40 -278 312 -278l-10 -49q-417 0 -346 352l70 352h49l-66 -328h369l-10 -49h-368z" />
    <glyph glyph-name="UkaliqPatternSegmentsCdefg_UkaliqModifierDot" unicode="&#xf1d57;&#x331;" 
d="M482 -77l-38 -188h-49l38 188h49zM189 327q-48 -278 107 -278q162 0 190 139q27 134 -297 139zM199 376q373 -6 336 -188q-38 -188 -249 -188t-140 352l70 352h49z" />
    <glyph glyph-name="UkaliqPatternSegmentsBdg_UkaliqModifierDot" unicode="&#xf1d58;&#x331;" 
d="M90 49h412l-10 -49h-412zM638 704q-75 -377 -492 -377l9 49q369 0 434 328h49zM482 -77l-38 -188h-49l38 188h49z" />
    <glyph glyph-name="UkaliqPatternSegmentsBcdg_UkaliqModifierDot" unicode="&#xf1d59;&#x331;" 
d="M638 704l-70 -352q-71 -352 -488 -352l10 49q352 0 423 278h-367l9 49h369l65 328h49zM482 -77l-38 -188h-49l38 188h49z" />
    <glyph glyph-name="UkaliqPatternSegmentsBdfg_UkaliqModifierDot" unicode="&#xf1d5a;&#x331;" 
d="M265 704q-66 -328 97 -328q162 0 227 328h49q-75 -377 -286 -377t-136 377h49zM90 49h412l-10 -49h-412zM482 -77l-38 -188h-49l38 188h49z" />
    <glyph glyph-name="UkaliqPatternSegmentsBcdfg_UkaliqModifierDot" unicode="&#xf1d5b;&#x331;" 
d="M482 -77l-38 -188h-49l38 188h49zM265 704q-64 -316 259 -328l65 328h49l-70 -352q-71 -352 -488 -352l10 49q353 0 423 278q-370 12 -297 377h49z" />
    <glyph glyph-name="UkaliqPatternSegmentsBdeg_UkaliqModifierDot" unicode="&#xf1d5c;&#x331;" 
d="M638 704q-75 -377 -411 -377q-37 0 -43 -30q-50 -248 318 -248l-10 -49q-417 0 -357 297q15 79 102 79q287 0 352 328h49zM482 -77l-38 -188h-49l38 188h49z" />
    <glyph glyph-name="UkaliqPatternSegmentsBcdeg_UkaliqModifierDot" unicode="&#xf1d5d;&#x331;" 
d="M638 704l-70 -352q-71 -352 -282 -352t-173 188q36 182 411 188l65 328h49zM482 -77l-38 -188h-49l38 188h49zM514 327q-325 -5 -352 -139q-28 -139 134 -139q155 0 218 278z" />
    <glyph glyph-name="UkaliqPatternSegmentsBdefg_UkaliqModifierDot" unicode="&#xf1d5e;&#x331;" 
d="M482 -77l-38 -188h-49l38 188h49zM190 327q-40 -278 312 -278l-10 -49q-417 0 -346 352l70 352h49l-66 -328q327 11 390 328h49q-72 -365 -448 -377z" />
    <glyph glyph-name="UkaliqPatternSegmentsBcdefg_UkaliqModifierDot" unicode="&#xf1d5f;&#x331;" 
d="M482 -77l-38 -188h-49l38 188h49zM524 376l65 328h49l-70 -352q-71 -352 -282 -352t-140 352l70 352h49l-66 -328h325zM514 327h-325q-49 -278 107 -278q155 0 218 278z" />
    <glyph glyph-name="UkaliqPatternSegmentsAg_UkaliqModifierDot" unicode="&#xf1d60;&#x331;" 
d="M155 376h413l-10 -49h-412zM482 -77l-38 -188h-49l38 188h49zM221 704h412l-10 -49h-412z" />
    <glyph glyph-name="UkaliqPatternSegmentsAcg_UkaliqModifierDot" unicode="&#xf1d61;&#x331;" 
d="M155 376q418 0 342 -376h-49q66 327 -302 327zM482 -77l-38 -188h-49l38 188h49zM221 704h412l-10 -49h-412z" />
    <glyph glyph-name="UkaliqPatternSegmentsAfg_UkaliqModifierDot" unicode="&#xf1d62;&#x331;" 
d="M623 655q-368 0 -396 -140q-28 -139 341 -139l-10 -49q-417 0 -380 188q38 189 455 189zM482 -77l-38 -188h-49l38 188h49z" />
    <glyph glyph-name="UkaliqPatternSegmentsAcfg_UkaliqModifierDot" unicode="&#xf1d63;&#x331;" 
d="M482 -77l-38 -188h-49l38 188h49zM623 655q-368 0 -396 -140q-28 -139 259 -139q87 0 68 -95l-57 -281h-49l57 281q9 46 -29 46q-335 0 -298 188q38 189 455 189z" />
    <glyph glyph-name="UkaliqPatternSegmentsAeg_UkaliqModifierDot" unicode="&#xf1d64;&#x331;" 
d="M558 327q-368 0 -434 -327h-49q75 376 493 376zM482 -77l-38 -188h-49l38 188h49zM221 704h412l-10 -49h-412z" />
    <glyph glyph-name="UkaliqPatternSegmentsAceg_UkaliqModifierDot" unicode="&#xf1d65;&#x331;" 
d="M75 0q75 376 287 376q211 0 135 -376h-49q66 327 -96 327t-228 -327h-49zM482 -77l-38 -188h-49l38 188h49zM221 704h412l-10 -49h-412z" />
    <glyph glyph-name="UkaliqPatternSegmentsAefg_UkaliqModifierDot" unicode="&#xf1d66;&#x331;" 
d="M482 -77l-38 -188h-49l38 188h49zM189 327l-65 -327h-49l71 352q70 352 487 352l-10 -49q-353 0 -424 -279h369l-10 -49h-369z" />
    <glyph glyph-name="UkaliqPatternSegmentsAcefg_UkaliqModifierDot" unicode="&#xf1d67;&#x331;" 
d="M482 -77l-38 -188h-49l38 188h49zM189 327l-65 -327h-49l71 352q70 352 487 352l-10 -49q-353 0 -424 -279q371 -11 298 -376h-49q64 316 -259 327z" />
    <glyph glyph-name="UkaliqPatternSegmentsAbg_UkaliqModifierDot" unicode="&#xf1d68;&#x331;" 
d="M221 704q417 0 379 -189q-37 -188 -454 -188l9 49q369 0 397 139q27 140 -341 140zM482 -77l-38 -188h-49l38 188h49z" />
    <glyph glyph-name="UkaliqPatternSegmentsAbcg_UkaliqModifierDot" unicode="&#xf1d69;&#x331;" 
d="M221 704q417 0 347 -352l-71 -352h-49l66 327h-368l9 49h368q41 279 -312 279zM482 -77l-38 -188h-49l38 188h49z" />
    <glyph glyph-name="UkaliqPatternSegmentsAbfg_UkaliqModifierDot" unicode="&#xf1d6a;&#x331;" 
d="M482 -77l-38 -188h-49l38 188h49zM227 515q-28 -139 135 -139q162 0 190 139q27 140 -135 140t-190 -140zM178 515q38 189 249 189t173 -189q-37 -188 -248 -188t-174 188z" />
    <glyph glyph-name="UkaliqPatternSegmentsAbcfg_UkaliqModifierDot" unicode="&#xf1d6b;&#x331;" 
d="M482 -77l-38 -188h-49l38 188h49zM524 376q49 279 -107 279q-162 0 -190 -140q-27 -134 297 -139zM514 327q-372 6 -336 188q38 189 249 189t141 -352l-71 -352h-49z" />
    <glyph glyph-name="UkaliqPatternSegmentsAbeg_UkaliqModifierDot" unicode="&#xf1d6c;&#x331;" 
d="M221 704q417 0 379 -189q-37 -188 -373 -188q-37 0 -47 -46l-56 -281h-49l57 281q18 95 105 95q287 0 315 139q27 140 -341 140zM482 -77l-38 -188h-49l38 188h49z" />
    <glyph glyph-name="UkaliqPatternSegmentsAbceg_UkaliqModifierDot" unicode="&#xf1d6d;&#x331;" 
d="M221 704q417 0 347 -352l-71 -352h-49l66 327q-326 -11 -390 -327h-49q73 364 448 376q41 279 -312 279zM482 -77l-38 -188h-49l38 188h49z" />
    <glyph glyph-name="UkaliqPatternSegmentsAbefg_UkaliqModifierDot" unicode="&#xf1d6e;&#x331;" 
d="M482 -77l-38 -188h-49l38 188h49zM189 327l-65 -327h-49l71 352q70 352 281 352t173 -189q-36 -182 -411 -188zM199 376q326 5 353 139q27 140 -135 140q-156 0 -218 -279z" />
    <glyph glyph-name="UkaliqPatternSegmentsAbcefg_UkaliqModifierDot" unicode="&#xf1d6f;&#x331;" 
d="M482 -77l-38 -188h-49l38 188h49zM75 0l71 352q70 352 281 352t141 -352l-71 -352h-49l66 327h-325l-65 -327h-49zM199 376h324q49 279 -106 279q-156 0 -218 -279z" />
    <glyph glyph-name="UkaliqPatternSegmentsAdg_UkaliqModifierDot" unicode="&#xf1d70;&#x331;" 
d="M90 49h412l-10 -49h-412zM155 376h413l-10 -49h-412zM482 -77l-38 -188h-49l38 188h49zM221 704h412l-10 -49h-412z" />
    <glyph glyph-name="UkaliqPatternSegmentsAcdg_UkaliqModifierDot" unicode="&#xf1d71;&#x331;" 
d="M155 376q418 0 380 -188t-455 -188l10 49q368 0 396 139t-340 139zM482 -77l-38 -188h-49l38 188h49zM221 704h412l-10 -49h-412z" />
    <glyph glyph-name="UkaliqPatternSegmentsAdfg_UkaliqModifierDot" unicode="&#xf1d72;&#x331;" 
d="M623 655q-368 0 -396 -140q-28 -139 341 -139l-10 -49q-417 0 -380 188q38 189 455 189zM90 49h412l-10 -49h-412zM482 -77l-38 -188h-49l38 188h49z" />
    <glyph glyph-name="UkaliqPatternSegmentsAcdfg_UkaliqModifierDot" unicode="&#xf1d73;&#x331;" 
d="M482 -77l-38 -188h-49l38 188h49zM623 655q-368 0 -396 -140q-28 -139 259 -139q87 0 71 -79q-60 -297 -477 -297l10 49q368 0 418 248q6 30 -32 30q-335 0 -298 188q38 189 455 189z" />
    <glyph glyph-name="UkaliqPatternSegmentsAdeg_UkaliqModifierDot" unicode="&#xf1d74;&#x331;" 
d="M558 327q-368 0 -396 -139t340 -139l-10 -49q-417 0 -379 188q37 188 455 188zM482 -77l-38 -188h-49l38 188h49zM221 704h412l-10 -49h-412z" />
    <glyph glyph-name="UkaliqPatternSegmentsAcdeg_UkaliqModifierDot" unicode="&#xf1d75;&#x331;" 
d="M482 -77l-38 -188h-49l38 188h49zM221 704h412l-10 -49h-412zM162 188q-28 -139 134 -139t190 139t-134 139t-190 -139zM113 188q37 188 249 188q211 0 173 -188t-249 -188t-173 188z" />
    <glyph glyph-name="UkaliqPatternSegmentsAdefg_UkaliqModifierDot" unicode="&#xf1d76;&#x331;" 
d="M482 -77l-38 -188h-49l38 188h49zM190 327q-40 -278 312 -278l-10 -49q-417 0 -346 352q70 352 487 352l-10 -49q-353 0 -424 -279h369l-10 -49h-368z" />
    <glyph glyph-name="UkaliqPatternSegmentsAcdefg_UkaliqModifierDot" unicode="&#xf1d77;&#x331;" 
d="M482 -77l-38 -188h-49l38 188h49zM189 327q-48 -278 107 -278q162 0 190 139q27 134 -297 139zM199 376q372 -6 336 -188q-38 -188 -249 -188t-140 352q70 352 487 352l-10 -49q-354 0 -424 -279z" />
    <glyph glyph-name="UkaliqPatternSegmentsAbdg_UkaliqModifierDot" unicode="&#xf1d78;&#x331;" 
d="M90 49h412l-10 -49h-412zM221 704q417 0 379 -189q-37 -188 -454 -188l9 49q369 0 397 139q27 140 -341 140zM482 -77l-38 -188h-49l38 188h49z" />
    <glyph glyph-name="UkaliqPatternSegmentsAbcdg_UkaliqModifierDot" unicode="&#xf1d79;&#x331;" 
d="M221 704q417 0 347 -352q-71 -352 -488 -352l10 49q352 0 423 278h-367l9 49h368q41 279 -312 279zM482 -77l-38 -188h-49l38 188h49z" />
    <glyph glyph-name="UkaliqPatternSegmentsAbdfg_UkaliqModifierDot" unicode="&#xf1d7a;&#x331;" 
d="M90 49h412l-10 -49h-412zM482 -77l-38 -188h-49l38 188h49zM227 515q-28 -139 135 -139q162 0 190 139q27 140 -135 140t-190 -140zM178 515q38 189 249 189t173 -189q-37 -188 -248 -188t-174 188z" />
    <glyph glyph-name="UkaliqPatternSegmentsAbcdfg_UkaliqModifierDot" unicode="&#xf1d7b;&#x331;" 
d="M482 -77l-38 -188h-49l38 188h49zM524 376q49 279 -107 279q-162 0 -190 -140q-27 -134 297 -139zM513 327q-371 6 -335 188q38 189 249 189t141 -352q-71 -352 -488 -352l10 49q352 0 423 278z" />
    <glyph glyph-name="UkaliqPatternSegmentsAbdeg_UkaliqModifierDot" unicode="&#xf1d7c;&#x331;" 
d="M221 704q417 0 379 -189q-37 -188 -373 -188q-37 0 -43 -30q-50 -248 318 -248l-10 -49q-417 0 -357 297q15 79 102 79q287 0 315 139q27 140 -341 140zM482 -77l-38 -188h-49l38 188h49z" />
    <glyph glyph-name="UkaliqPatternSegmentsAbcdeg_UkaliqModifierDot" unicode="&#xf1d7d;&#x331;" 
d="M221 704q417 0 347 -352q-71 -352 -282 -352t-173 188q36 182 410 188q41 279 -312 279zM482 -77l-38 -188h-49l38 188h49zM514 327q-325 -5 -352 -139q-28 -139 134 -139q155 0 218 278z" />
    <glyph glyph-name="UkaliqPatternSegmentsAbdefg_UkaliqModifierDot" unicode="&#xf1d7e;&#x331;" 
d="M482 -77l-38 -188h-49l38 188h49zM190 327q-40 -278 312 -278l-10 -49q-417 0 -346 352q70 352 281 352t173 -189q-36 -182 -410 -188zM199 376q326 5 353 139q27 140 -135 140q-156 0 -218 -279z" />
    <glyph glyph-name="UkaliqPatternSegmentsAbcdefg_UkaliqModifierDot" unicode="&#xf1d7f;&#x331;" 
d="M482 -77l-38 -188h-49l38 188h49zM199 376h324q49 279 -106 279q-156 0 -218 -279zM514 327h-325q-49 -278 107 -278q155 0 218 278zM146 352q70 352 281 352t141 -352q-71 -352 -282 -352t-140 352z" />
    <glyph glyph-name=".notdef" 
d="M90 49h412l-10 -49h-412zM482 -77l-38 -188h-49l38 188h49z" />
    <glyph glyph-name="NULL" horiz-adv-x="0" 
 />
    <glyph glyph-name="uni000D" unicode="&#xd;" horiz-adv-x="0" 
 />
    <glyph glyph-name="uni200D" unicode="&#x200d;" horiz-adv-x="0" 
 />
    <glyph glyph-name="uni200B" unicode="&#x200b;" horiz-adv-x="0" 
 />
    <glyph glyph-name="uni200C" unicode="&#x200c;" horiz-adv-x="0" 
 />
    <glyph glyph-name="uniFEFF" unicode="&#xfeff;" horiz-adv-x="0" 
 />
    <glyph glyph-name="space" unicode=" " 
 />
    <glyph glyph-name="uni00A0" unicode="&#xa0;" 
 />
    <glyph glyph-name="UkaliqModifierDot" unicode="&#x331;" 
d="M482 -77l-38 -188h-49l38 188h49z" />
    <glyph glyph-name="uni2002" unicode="&#x2002;" 
 />
    <glyph glyph-name="uni2007" unicode="&#x2007;" 
 />
    <glyph glyph-name="uni2B1B" unicode="&#x2b1b;" 
d="M0 946h578v-1242h-578v1242z" />
    <glyph glyph-name="UkaliqSpace" unicode="&#xee00;" 
 />
    <glyph glyph-name="UkaliqNumber" unicode="&#xee01;" 
d="M573 376l-76 -376h-49l76 376h49z" />
    <glyph glyph-name="UkaliqRightSingleQuotationMark" unicode="&#xee02;" 
d="M265 704l-75 -377h-49l75 377h49z" />
    <glyph glyph-name="UkaliqColon" unicode="&#xee03;" 
d="M573 376l-76 -376h-49l76 376h49zM265 704l-75 -377h-49l75 377h49z" />
    <glyph glyph-name="UkaliqFullStop" unicode="&#xee04;" 
d="M199 376l-75 -376h-49l75 376h49z" />
    <glyph glyph-name="UkaliqComma" unicode="&#xee05;" 
d="M573 376l-76 -376h-49l76 376h49zM199 376l-75 -376h-49l75 376h49z" />
    <glyph glyph-name="UkaliqRightParenthesis" unicode="&#xee06;" 
d="M265 704l-141 -704h-49l141 704h49z" />
    <glyph glyph-name="UkaliqExclamationMark" unicode="&#xee07;" 
d="M265 704l-141 -704h-49l141 704h49zM573 376l-76 -376h-49l76 376h49z" />
    <glyph glyph-name="UkaliqLeftSingleQuotationMark" unicode="&#xee08;" 
d="M638 704l-75 -377h-49l75 377h49z" />
    <glyph glyph-name="UkaliqLeftParenthesis" unicode="&#xee09;" 
d="M638 704l-141 -704h-49l141 704h49z" />
    <glyph glyph-name="UkaliqDoubleQuotationMark" unicode="&#xee0a;" 
d="M265 704l-75 -377h-49l75 377h49zM638 704l-75 -377h-49l75 377h49z" />
    <glyph glyph-name="UkaliqReversedQuestionMark" unicode="&#xee0b;" 
d="M638 704l-141 -704h-49l141 704h49zM265 704l-75 -377h-49l75 377h49z" />
    <glyph glyph-name="UkaliqSemicolon" unicode="&#xee0c;" 
d="M638 704l-75 -377h-49l75 377h49zM199 376l-75 -376h-49l75 376h49z" />
    <glyph glyph-name="UkaliqReversedExclamationMark" unicode="&#xee0d;" 
d="M638 704l-141 -704h-49l141 704h49zM199 376l-75 -376h-49l75 376h49z" />
    <glyph glyph-name="UkaliqQuestionMark" unicode="&#xee0e;" 
d="M265 704l-141 -704h-49l141 704h49zM638 704l-75 -377h-49l75 377h49z" />
    <glyph glyph-name="UkaliqEquals" unicode="&#xee0f;" 
d="M638 704l-141 -704h-49l141 704h49zM265 704l-141 -704h-49l141 704h49z" />
    <glyph glyph-name="UkaliqHyphen" unicode="&#xee10;" 
d="M90 49h412l-10 -49h-412z" />
    <glyph glyph-name="UkaliqLetterOzo" unicode="&#xee11;" 
d="M573 376q-76 -376 -493 -376l10 49q368 0 434 327h49z" />
    <glyph glyph-name="UkaliqGreaterThan" unicode="&#xee12;" 
d="M90 49h412l-10 -49h-412zM265 704l-75 -377h-49l75 377h49z" />
    <glyph glyph-name="UkaliqLetterAtlha" unicode="&#xee13;" 
d="M265 704l-75 -377h-49l75 377h49zM573 376q-76 -376 -493 -376l10 49q368 0 434 327h49z" />
    <glyph glyph-name="UkaliqLetterEdzre" unicode="&#xee14;" 
d="M199 376q-65 -327 303 -327l-10 -49q-417 0 -342 376h49z" />
    <glyph glyph-name="UkaliqOr" unicode="&#xee15;" 
d="M199 376q-65 -327 97 -327t228 327h49q-76 -376 -287 -376t-136 376h49z" />
    <glyph glyph-name="UkaliqLetterIdzji" unicode="&#xee16;" 
d="M265 704l-45 -227q-86 -428 282 -428l-10 -49q-417 0 -321 477l45 227h49z" />
    <glyph glyph-name="UkaliqLetterOdzo" unicode="&#xee17;" 
d="M265 704l-45 -227q-86 -428 76 -428t228 327h49q-76 -376 -287 -376t-115 477l45 227h49z" />
    <glyph glyph-name="UkaliqLessThan" unicode="&#xee18;" 
d="M90 49h412l-10 -49h-412zM638 704l-75 -377h-49l75 377h49z" />
    <glyph glyph-name="UkaliqLetterOso" unicode="&#xee19;" 
d="M638 704l-45 -227q-96 -477 -513 -477l10 49q368 0 454 428l45 227h49z" />
    <glyph glyph-name="UkaliqMultiplication" unicode="&#xee1a;" 
d="M90 49h412l-10 -49h-412zM265 704l-75 -377h-49l75 377h49zM638 704l-75 -377h-49l75 377h49z" />
    <glyph glyph-name="UkaliqLetterApfa" unicode="&#xee1b;" 
d="M265 704l-75 -377h-49l75 377h49zM638 704l-45 -227q-96 -477 -513 -477l10 49q368 0 454 428l45 227h49z" />
    <glyph glyph-name="UkaliqLetterEtsre" unicode="&#xee1c;" 
d="M199 376q-65 -327 303 -327l-10 -49q-417 0 -342 376h49zM638 704l-75 -377h-49l75 377h49z" />
    <glyph glyph-name="UkaliqLetterUkkhu" unicode="&#xee1d;" 
d="M638 704l-45 -227q-96 -477 -307 -477t-136 376h49q-65 -327 97 -327t248 428l45 227h49z" />
    <glyph glyph-name="UkaliqLetterItsji" unicode="&#xee1e;" 
d="M265 704l-45 -227q-86 -428 282 -428l-10 -49q-417 0 -321 477l45 227h49zM638 704l-75 -377h-49l75 377h49z" />
    <glyph glyph-name="UkaliqLetterOtso" unicode="&#xee1f;" 
d="M265 704l-45 -227q-86 -428 76 -428t248 428l45 227h49l-45 -227q-96 -477 -307 -477t-115 477l45 227h49z" />
    <glyph glyph-name="UkaliqRange" unicode="&#xee20;" 
d="M221 704h412l-10 -49h-412z" />
    <glyph glyph-name="UkaliqLetterEo" unicode="&#xee21;" 
d="M573 376l-76 -376h-49l76 376h49zM221 704h412l-10 -49h-412z" />
    <glyph glyph-name="UkaliqLetterUh" unicode="&#xee22;" 
d="M623 655q-368 0 -433 -328h-49q75 377 492 377z" />
    <glyph glyph-name="UkaliqLetterEu" unicode="&#xee23;" 
d="M573 376l-76 -376h-49l76 376h49zM623 655q-368 0 -433 -328h-49q75 377 492 377z" />
    <glyph glyph-name="UkaliqLetterOe" unicode="&#xee24;" 
d="M199 376l-75 -376h-49l75 376h49zM221 704h412l-10 -49h-412z" />
    <glyph glyph-name="UkaliqLetterOeh" unicode="&#xee25;" 
d="M573 376l-76 -376h-49l76 376h49zM199 376l-75 -376h-49l75 376h49zM221 704h412l-10 -49h-412z" />
    <glyph glyph-name="UkaliqLetterUi" unicode="&#xee26;" 
d="M623 655q-368 0 -454 -429l-45 -226h-49l46 226q95 478 512 478z" />
    <glyph glyph-name="UkaliqLetterAh" unicode="&#xee27;" 
d="M623 655q-368 0 -454 -429l-45 -226h-49l46 226q95 478 512 478zM573 376l-76 -376h-49l76 376h49z" />
    <glyph glyph-name="UkaliqLetterAe" unicode="&#xee28;" 
d="M221 704q417 0 342 -377h-49q65 328 -303 328z" />
    <glyph glyph-name="UkaliqLetterO" unicode="&#xee29;" 
d="M221 704q417 0 322 -478l-46 -226h-49l46 226q85 429 -283 429z" />
    <glyph glyph-name="UkaliqLetterIh" unicode="&#xee2a;" 
d="M141 327q75 377 286 377t136 -377h-49q65 328 -97 328t-227 -328h-49z" />
    <glyph glyph-name="UkaliqLetterU" unicode="&#xee2b;" 
d="M141 327q75 377 286 377t116 -478l-46 -226h-49l46 226q85 429 -77 429t-227 -328h-49z" />
    <glyph glyph-name="UkaliqLetterE" unicode="&#xee2c;" 
d="M221 704q417 0 342 -377h-49q65 328 -303 328zM199 376l-75 -376h-49l75 376h49z" />
    <glyph glyph-name="UkaliqLetterEh" unicode="&#xee2d;" 
d="M221 704q417 0 322 -478l-46 -226h-49l46 226q85 429 -283 429zM199 376l-75 -376h-49l75 376h49z" />
    <glyph glyph-name="UkaliqLetterI" unicode="&#xee2e;" 
d="M514 327q65 328 -97 328t-248 -429l-45 -226h-49l46 226q95 478 306 478t136 -377h-49z" />
    <glyph glyph-name="UkaliqLetterOh" unicode="&#xee2f;" 
d="M75 0l46 226q95 478 306 478t116 -478l-46 -226h-49l46 226q85 429 -77 429t-248 -429l-45 -226h-49z" />
    <glyph glyph-name="UkaliqPlus" unicode="&#xee30;" 
d="M90 49h412l-10 -49h-412zM221 704h412l-10 -49h-412z" />
    <glyph glyph-name="UkaliqCurrency" unicode="&#xee31;" 
d="M573 376q-76 -376 -493 -376l10 49q368 0 434 327h49zM221 704h412l-10 -49h-412z" />
    <glyph glyph-name="UkaliqAt" unicode="&#xee32;" 
d="M90 49h412l-10 -49h-412zM623 655q-368 0 -433 -328h-49q75 377 492 377z" />
    <glyph glyph-name="UkaliqLetterAlha" unicode="&#xee33;" 
d="M623 655q-368 0 -433 -328h-49q75 377 492 377zM573 376q-76 -376 -493 -376l10 49q368 0 434 327h49z" />
    <glyph glyph-name="UkaliqLetterElre" unicode="&#xee34;" 
d="M199 376q-65 -327 303 -327l-10 -49q-417 0 -342 376h49zM221 704h412l-10 -49h-412z" />
    <glyph glyph-name="UkaliqLetterUlgu" unicode="&#xee35;" 
d="M199 376q-65 -327 97 -327t228 327h49q-76 -376 -287 -376t-136 376h49zM221 704h412l-10 -49h-412z" />
    <glyph glyph-name="UkaliqLetterIlji" unicode="&#xee36;" 
d="M623 655q-368 0 -429 -303q-60 -303 308 -303l-10 -49q-417 0 -346 352q70 352 487 352z" />
    <glyph glyph-name="UkaliqLetterOlo" unicode="&#xee37;" 
d="M623 655q-368 0 -429 -303q-60 -303 102 -303t228 327h49q-76 -376 -287 -376t-140 352q70 352 487 352z" />
    <glyph glyph-name="UkaliqDegree" unicode="&#xee38;" 
d="M90 49h412l-10 -49h-412zM221 704q417 0 342 -377h-49q65 328 -303 328z" />
    <glyph glyph-name="UkaliqLetterHbat" unicode="&#xee39;" 
d="M221 704q417 0 347 -352q-71 -352 -488 -352l10 49q368 0 429 303q60 303 -308 303z" />
    <glyph glyph-name="UkaliqLetterAnqa" unicode="&#xee3a;" 
d="M90 49h412l-10 -49h-412zM141 327q75 377 286 377t136 -377h-49q65 328 -97 328t-227 -328h-49z" />
    <glyph glyph-name="UkaliqLetterAma" unicode="&#xee3b;" 
d="M141 327q75 377 286 377t141 -352q-71 -352 -488 -352l10 49q368 0 429 303q60 303 -102 303t-227 -328h-49z" />
    <glyph glyph-name="UkaliqLetterEnre" unicode="&#xee3c;" 
d="M221 704q417 0 342 -377h-49q65 328 -303 328zM199 376q-65 -327 303 -327l-10 -49q-417 0 -342 376h49z" />
    <glyph glyph-name="UkaliqLetterUngu" unicode="&#xee3d;" 
d="M221 704q417 0 347 -352q-71 -352 -282 -352t-136 376h49q-65 -327 97 -327t223 303q60 303 -308 303z" />
    <glyph glyph-name="UkaliqLetterInji" unicode="&#xee3e;" 
d="M514 327q65 328 -97 328t-223 -303q-60 -303 308 -303l-10 -49q-417 0 -346 352q70 352 281 352t136 -377h-49z" />
    <glyph glyph-name="UkaliqLetterOno" unicode="&#xee3f;" 
d="M194 352q-60 -303 102 -303t223 303q60 303 -102 303t-223 -303zM146 352q70 352 281 352t141 -352q-71 -352 -282 -352t-140 352z" />
    <glyph glyph-name="UkaliqDash" unicode="&#xee40;" 
d="M155 376h413l-10 -49h-412z" />
    <glyph glyph-name="UkaliqLetterA" unicode="&#xee41;" 
d="M155 376q418 0 342 -376h-49q66 327 -302 327z" />
    <glyph glyph-name="UkaliqMinus" unicode="&#xee42;" 
d="M265 704q-66 -328 303 -328l-10 -49q-417 0 -342 377h49z" />
    <glyph glyph-name="UkaliqLetterAwa" unicode="&#xee43;" 
d="M265 704q-66 -328 221 -328q87 0 68 -95l-57 -281h-49l57 281q9 46 -29 46q-335 0 -260 377h49z" />
    <glyph glyph-name="UkaliqLetterErre" unicode="&#xee44;" 
d="M558 327q-368 0 -434 -327h-49q75 376 493 376z" />
    <glyph glyph-name="UkaliqAnd" unicode="&#xee45;" 
d="M75 0q75 376 287 376q211 0 135 -376h-49q66 327 -96 327t-228 -327h-49z" />
    <glyph glyph-name="UkaliqLetterIzji" unicode="&#xee46;" 
d="M189 327l-65 -327h-49l71 352l70 352h49l-66 -328h369l-10 -49h-369z" />
    <glyph glyph-name="UkaliqLetterOro" unicode="&#xee47;" 
d="M189 327l-65 -327h-49l71 352l70 352h49l-66 -328q372 -11 298 -376h-49q64 316 -259 327z" />
    <glyph glyph-name="UkaliqNot" unicode="&#xee48;" 
d="M638 704q-75 -377 -492 -377l9 49q369 0 434 328h49z" />
    <glyph glyph-name="UkaliqDivision" unicode="&#xee49;" 
d="M638 704l-70 -352l-71 -352h-49l66 327h-368l9 49h369l65 328h49z" />
    <glyph glyph-name="UkaliqXor" unicode="&#xee4a;" 
d="M265 704q-66 -328 97 -328q162 0 227 328h49q-75 -377 -286 -377t-136 377h49z" />
    <glyph glyph-name="uniEE4B" unicode="&#xee4b;" 
d="M265 704q-64 -316 259 -328l65 328h49l-70 -352l-71 -352h-49l66 327q-371 11 -298 377h49z" />
    <glyph glyph-name="UkaliqLetterIji" unicode="&#xee4c;" 
d="M638 704q-75 -377 -411 -377q-37 0 -47 -46l-56 -281h-49l57 281q18 95 105 95q287 0 352 328h49z" />
    <glyph glyph-name="UkaliqLetterTkot" unicode="&#xee4d;" 
d="M638 704l-70 -352l-71 -352h-49l66 327q-326 -11 -390 -327h-49q73 364 449 376l65 328h49z" />
    <glyph glyph-name="UkaliqLetterIsji" unicode="&#xee4e;" 
d="M189 327l-65 -327h-49l71 352l70 352h49l-66 -328q327 11 390 328h49q-73 -366 -449 -377z" />
    <glyph glyph-name="UkaliqLetterOrro" unicode="&#xee4f;" 
d="M638 704l-70 -352l-71 -352h-49l66 327h-325l-65 -327h-49l71 352l70 352h49l-66 -328h325l65 328h49z" />
    <glyph glyph-name="UkaliqDigitZero" unicode="&#xee50;" 
d="M90 49h412l-10 -49h-412zM155 376h413l-10 -49h-412z" />
    <glyph glyph-name="UkaliqDigitOne" unicode="&#xee51;" 
d="M155 376q418 0 380 -188t-455 -188l10 49q368 0 396 139t-340 139z" />
    <glyph glyph-name="UkaliqDigitTwo" unicode="&#xee52;" 
d="M265 704q-66 -328 303 -328l-10 -49q-417 0 -342 377h49zM90 49h412l-10 -49h-412z" />
    <glyph glyph-name="UkaliqDigitThree" unicode="&#xee53;" 
d="M265 704q-66 -328 221 -328q87 0 71 -79q-60 -297 -477 -297l10 49q368 0 418 248q6 30 -32 30q-335 0 -260 377h49z" />
    <glyph glyph-name="UkaliqDigitFour" unicode="&#xee54;" 
d="M558 327q-368 0 -396 -139t340 -139l-10 -49q-417 0 -379 188q37 188 455 188z" />
    <glyph glyph-name="UkaliqDigitFive" unicode="&#xee55;" 
d="M162 188q-28 -139 134 -139t190 139t-134 139t-190 -139zM113 188q37 188 249 188q211 0 173 -188t-249 -188t-173 188z" />
    <glyph glyph-name="UkaliqDigitSix" unicode="&#xee56;" 
d="M190 327q-40 -278 312 -278l-10 -49q-417 0 -346 352l70 352h49l-66 -328h369l-10 -49h-368z" />
    <glyph glyph-name="UkaliqDigitSeven" unicode="&#xee57;" 
d="M189 327q-48 -278 107 -278q162 0 190 139q27 134 -297 139zM199 376q373 -6 336 -188q-38 -188 -249 -188t-140 352l70 352h49z" />
    <glyph glyph-name="UkaliqDigitEight" unicode="&#xee58;" 
d="M90 49h412l-10 -49h-412zM638 704q-75 -377 -492 -377l9 49q369 0 434 328h49z" />
    <glyph glyph-name="UkaliqDigitNine" unicode="&#xee59;" 
d="M638 704l-70 -352q-71 -352 -488 -352l10 49q352 0 423 278h-367l9 49h369l65 328h49z" />
    <glyph glyph-name="UkaliqDigitTen" unicode="&#xee5a;" 
d="M265 704q-66 -328 97 -328q162 0 227 328h49q-75 -377 -286 -377t-136 377h49zM90 49h412l-10 -49h-412z" />
    <glyph glyph-name="UkaliqDigitEleven" unicode="&#xee5b;" 
d="M265 704q-64 -316 259 -328l65 328h49l-70 -352q-71 -352 -488 -352l10 49q353 0 423 278q-370 12 -297 377h49z" />
    <glyph glyph-name="UkaliqDigitTwelve" unicode="&#xee5c;" 
d="M638 704q-75 -377 -411 -377q-37 0 -43 -30q-50 -248 318 -248l-10 -49q-417 0 -357 297q15 79 102 79q287 0 352 328h49z" />
    <glyph glyph-name="UkaliqDigitThirteen" unicode="&#xee5d;" 
d="M638 704l-70 -352q-71 -352 -282 -352t-173 188q36 182 411 188l65 328h49zM514 327q-325 -5 -352 -139q-28 -139 134 -139q155 0 218 278z" />
    <glyph glyph-name="UkaliqDigitFourteen" unicode="&#xee5e;" 
d="M190 327q-40 -278 312 -278l-10 -49q-417 0 -346 352l70 352h49l-66 -328q327 11 390 328h49q-72 -365 -448 -377z" />
    <glyph glyph-name="UkaliqDigitFifteen" unicode="&#xee5f;" 
d="M524 376l65 328h49l-70 -352q-71 -352 -282 -352t-140 352l70 352h49l-66 -328h325zM514 327h-325q-49 -278 107 -278q155 0 218 278z" />
    <glyph glyph-name="UkaliqLetterSchwa" unicode="&#xee60;" 
d="M155 376h413l-10 -49h-412zM221 704h412l-10 -49h-412z" />
    <glyph glyph-name="UkaliqLetterOhgo" unicode="&#xee61;" 
d="M155 376q418 0 342 -376h-49q66 327 -302 327zM221 704h412l-10 -49h-412z" />
    <glyph glyph-name="UkaliqLetterArha" unicode="&#xee62;" 
d="M623 655q-368 0 -396 -140q-28 -139 341 -139l-10 -49q-417 0 -380 188q38 189 455 189z" />
    <glyph glyph-name="UkaliqLetterAva" unicode="&#xee63;" 
d="M623 655q-368 0 -396 -140q-28 -139 259 -139q87 0 68 -95l-57 -281h-49l57 281q9 46 -29 46q-335 0 -298 188q38 189 455 189z" />
    <glyph glyph-name="UkaliqLetterEzre" unicode="&#xee64;" 
d="M558 327q-368 0 -434 -327h-49q75 376 493 376zM221 704h412l-10 -49h-412z" />
    <glyph glyph-name="UkaliqLetterUghu" unicode="&#xee65;" 
d="M75 0q75 376 287 376q211 0 135 -376h-49q66 327 -96 327t-228 -327h-49zM221 704h412l-10 -49h-412z" />
    <glyph glyph-name="UkaliqLetterIjji" unicode="&#xee66;" 
d="M189 327l-65 -327h-49l71 352q70 352 487 352l-10 -49q-353 0 -424 -279h369l-10 -49h-369z" />
    <glyph glyph-name="UkaliqLetterOdho" unicode="&#xee67;" 
d="M189 327l-65 -327h-49l71 352q70 352 487 352l-10 -49q-353 0 -424 -279q371 -11 298 -376h-49q64 316 -259 327z" />
    <glyph glyph-name="UkaliqLetterOhho" unicode="&#xee68;" 
d="M221 704q417 0 379 -189q-37 -188 -454 -188l9 49q369 0 397 139q27 140 -341 140z" />
    <glyph glyph-name="UkaliqLetterAha" unicode="&#xee69;" 
d="M221 704q417 0 347 -352l-71 -352h-49l66 327h-368l9 49h368q41 279 -312 279z" />
    <glyph glyph-name="UkaliqLetterAqha" unicode="&#xee6a;" 
d="M227 515q-28 -139 135 -139q162 0 190 139q27 140 -135 140t-190 -140zM178 515q38 189 249 189t173 -189q-37 -188 -248 -188t-174 188z" />
    <glyph glyph-name="UkaliqLetterAfa" unicode="&#xee6b;" 
d="M524 376q49 279 -107 279q-162 0 -190 -140q-27 -134 297 -139zM514 327q-372 6 -336 188q38 189 249 189t141 -352l-71 -352h-49z" />
    <glyph glyph-name="UkaliqLetterEsre" unicode="&#xee6c;" 
d="M221 704q417 0 379 -189q-37 -188 -373 -188q-37 0 -47 -46l-56 -281h-49l57 281q18 95 105 95q287 0 315 139q27 140 -341 140z" />
    <glyph glyph-name="UkaliqLetterUkhu" unicode="&#xee6d;" 
d="M221 704q417 0 347 -352l-71 -352h-49l66 327q-326 -11 -390 -327h-49q73 364 448 376q41 279 -312 279z" />
    <glyph glyph-name="UkaliqLetterIcji" unicode="&#xee6e;" 
d="M189 327l-65 -327h-49l71 352q70 352 281 352t173 -189q-36 -182 -411 -188zM199 376q326 5 353 139q27 140 -135 140q-156 0 -218 -279z" />
    <glyph glyph-name="UkaliqLetterOtho" unicode="&#xee6f;" 
d="M75 0l71 352q70 352 281 352t141 -352l-71 -352h-49l66 327h-325l-65 -327h-49zM199 376h324q49 279 -106 279q-156 0 -218 -279z" />
    <glyph glyph-name="UkaliqIterationMark" unicode="&#xee70;" 
d="M90 49h412l-10 -49h-412zM155 376h413l-10 -49h-412zM221 704h412l-10 -49h-412z" />
    <glyph glyph-name="UkaliqPercent" unicode="&#xee71;" 
d="M155 376q418 0 380 -188t-455 -188l10 49q368 0 396 139t-340 139zM221 704h412l-10 -49h-412z" />
    <glyph glyph-name="UkaliqLetterAgqa" unicode="&#xee72;" 
d="M623 655q-368 0 -396 -140q-28 -139 341 -139l-10 -49q-417 0 -380 188q38 189 455 189zM90 49h412l-10 -49h-412z" />
    <glyph glyph-name="UkaliqLetterAba" unicode="&#xee73;" 
d="M623 655q-368 0 -396 -140q-28 -139 259 -139q87 0 71 -79q-60 -297 -477 -297l10 49q368 0 418 248q6 30 -32 30q-335 0 -298 188q38 189 455 189z" />
    <glyph glyph-name="UkaliqLetterEdre" unicode="&#xee74;" 
d="M558 327q-368 0 -396 -139t340 -139l-10 -49q-417 0 -379 188q37 188 455 188zM221 704h412l-10 -49h-412z" />
    <glyph glyph-name="UkaliqLetterUgu" unicode="&#xee75;" 
d="M221 704h412l-10 -49h-412zM162 188q-28 -139 134 -139t190 139t-134 139t-190 -139zM113 188q37 188 249 188q211 0 173 -188t-249 -188t-173 188z" />
    <glyph glyph-name="UkaliqLetterIgji" unicode="&#xee76;" 
d="M190 327q-40 -278 312 -278l-10 -49q-417 0 -346 352q70 352 487 352l-10 -49q-353 0 -424 -279h369l-10 -49h-368z" />
    <glyph glyph-name="UkaliqLetterOdo" unicode="&#xee77;" 
d="M189 327q-48 -278 107 -278q162 0 190 139q27 134 -297 139zM199 376q372 -6 336 -188q-38 -188 -249 -188t-140 352q70 352 487 352l-10 -49q-354 0 -424 -279z" />
    <glyph glyph-name="UkaliqLetterOhhko" unicode="&#xee78;" 
d="M90 49h412l-10 -49h-412zM221 704q417 0 379 -189q-37 -188 -454 -188l9 49q369 0 397 139q27 140 -341 140z" />
    <glyph glyph-name="UkaliqLetterAhka" unicode="&#xee79;" 
d="M221 704q417 0 347 -352q-71 -352 -488 -352l10 49q352 0 423 278h-367l9 49h368q41 279 -312 279z" />
    <glyph glyph-name="UkaliqLetterAqa" unicode="&#xee7a;" 
d="M90 49h412l-10 -49h-412zM227 515q-28 -139 135 -139q162 0 190 139q27 140 -135 140t-190 -140zM178 515q38 189 249 189t173 -189q-37 -188 -248 -188t-174 188z" />
    <glyph glyph-name="UkaliqLetterApa" unicode="&#xee7b;" 
d="M524 376q49 279 -107 279q-162 0 -190 -140q-27 -134 297 -139zM513 327q-371 6 -335 188q38 189 249 189t141 -352q-71 -352 -488 -352l10 49q352 0 423 278z" />
    <glyph glyph-name="UkaliqLetterEtre" unicode="&#xee7c;" 
d="M221 704q417 0 379 -189q-37 -188 -373 -188q-37 0 -43 -30q-50 -248 318 -248l-10 -49q-417 0 -357 297q15 79 102 79q287 0 315 139q27 140 -341 140z" />
    <glyph glyph-name="UkaliqLetterUku" unicode="&#xee7d;" 
d="M221 704q417 0 347 -352q-71 -352 -282 -352t-173 188q36 182 410 188q41 279 -312 279zM514 327q-325 -5 -352 -139q-28 -139 134 -139q155 0 218 278z" />
    <glyph glyph-name="UkaliqLetterIci" unicode="&#xee7e;" 
d="M190 327q-40 -278 312 -278l-10 -49q-417 0 -346 352q70 352 281 352t173 -189q-36 -182 -410 -188zM199 376q326 5 353 139q27 140 -135 140q-156 0 -218 -279z" />
    <glyph glyph-name="UkaliqLetterOto" unicode="&#xee7f;" 
d="M199 376h324q49 279 -106 279q-156 0 -218 -279zM514 327h-325q-49 -278 107 -278q155 0 218 278zM146 352q70 352 281 352t141 -352q-71 -352 -282 -352t-140 352z" />
    <glyph glyph-name="UkaliqDot" unicode="&#xee80;" 
d="M482 -77l-38 -188h-49l38 188h49z" />
    <glyph glyph-name="UkaliqNumberWithDot" unicode="&#xee81;" 
d="M573 376l-76 -376h-49l76 376h49zM482 -77l-38 -188h-49l38 188h49z" />
    <glyph glyph-name="UkaliqRightSingleQuotationMarkWithDot" unicode="&#xee82;" 
d="M265 704l-75 -377h-49l75 377h49zM482 -77l-38 -188h-49l38 188h49z" />
    <glyph glyph-name="UkaliqColonWithDot" unicode="&#xee83;" 
d="M573 376l-76 -376h-49l76 376h49zM265 704l-75 -377h-49l75 377h49zM482 -77l-38 -188h-49l38 188h49z" />
    <glyph glyph-name="UkaliqFullStopWithDot" unicode="&#xee84;" 
d="M199 376l-75 -376h-49l75 376h49zM482 -77l-38 -188h-49l38 188h49z" />
    <glyph glyph-name="UkaliqCommaWithDot" unicode="&#xee85;" 
d="M573 376l-76 -376h-49l76 376h49zM199 376l-75 -376h-49l75 376h49zM482 -77l-38 -188h-49l38 188h49z" />
    <glyph glyph-name="UkaliqRightParenthesisWithDot" unicode="&#xee86;" 
d="M265 704l-141 -704h-49l141 704h49zM482 -77l-38 -188h-49l38 188h49z" />
    <glyph glyph-name="UkaliqExclamationMarkWithDot" unicode="&#xee87;" 
d="M265 704l-141 -704h-49l141 704h49zM573 376l-76 -376h-49l76 376h49zM482 -77l-38 -188h-49l38 188h49z" />
    <glyph glyph-name="UkaliqLeftSingleQuotationMarkWithDot" unicode="&#xee88;" 
d="M638 704l-75 -377h-49l75 377h49zM482 -77l-38 -188h-49l38 188h49z" />
    <glyph glyph-name="UkaliqLeftParenthesisWithDot" unicode="&#xee89;" 
d="M638 704l-141 -704h-49l141 704h49zM482 -77l-38 -188h-49l38 188h49z" />
    <glyph glyph-name="UkaliqDoubleQuotationMarkWithDot" unicode="&#xee8a;" 
d="M265 704l-75 -377h-49l75 377h49zM638 704l-75 -377h-49l75 377h49zM482 -77l-38 -188h-49l38 188h49z" />
    <glyph glyph-name="UkaliqReversedQuestionMarkWithDot" unicode="&#xee8b;" 
d="M638 704l-141 -704h-49l141 704h49zM265 704l-75 -377h-49l75 377h49zM482 -77l-38 -188h-49l38 188h49z" />
    <glyph glyph-name="UkaliqSemicolonWithDot" unicode="&#xee8c;" 
d="M638 704l-75 -377h-49l75 377h49zM199 376l-75 -376h-49l75 376h49zM482 -77l-38 -188h-49l38 188h49z" />
    <glyph glyph-name="UkaliqReversedExclamationMarkWithDot" unicode="&#xee8d;" 
d="M638 704l-141 -704h-49l141 704h49zM199 376l-75 -376h-49l75 376h49zM482 -77l-38 -188h-49l38 188h49z" />
    <glyph glyph-name="UkaliqQuestionMarkWithDot" unicode="&#xee8e;" 
d="M265 704l-141 -704h-49l141 704h49zM638 704l-75 -377h-49l75 377h49zM482 -77l-38 -188h-49l38 188h49z" />
    <glyph glyph-name="UkaliqEqualsWithDot" unicode="&#xee8f;" 
d="M638 704l-141 -704h-49l141 704h49zM265 704l-141 -704h-49l141 704h49zM482 -77l-38 -188h-49l38 188h49z" />
    <glyph glyph-name="UkaliqHyphenWithDot" unicode="&#xee90;" 
d="M90 49h412l-10 -49h-412zM482 -77l-38 -188h-49l38 188h49z" />
    <glyph glyph-name="UkaliqLetterOzoWithDot" unicode="&#xee91;" 
d="M482 -77l-38 -188h-49l38 188h49zM573 376q-76 -376 -493 -376l10 49q368 0 434 327h49z" />
    <glyph glyph-name="UkaliqGreaterThanWithDot" unicode="&#xee92;" 
d="M90 49h412l-10 -49h-412zM265 704l-75 -377h-49l75 377h49zM482 -77l-38 -188h-49l38 188h49z" />
    <glyph glyph-name="UkaliqLetterAtlhaWithDot" unicode="&#xee93;" 
d="M265 704l-75 -377h-49l75 377h49zM482 -77l-38 -188h-49l38 188h49zM573 376q-76 -376 -493 -376l10 49q368 0 434 327h49z" />
    <glyph glyph-name="UkaliqLetterEdzreWithDot" unicode="&#xee94;" 
d="M199 376q-65 -327 303 -327l-10 -49q-417 0 -342 376h49zM482 -77l-38 -188h-49l38 188h49z" />
    <glyph glyph-name="UkaliqOrWithDot" unicode="&#xee95;" 
d="M199 376q-65 -327 97 -327t228 327h49q-76 -376 -287 -376t-136 376h49zM482 -77l-38 -188h-49l38 188h49z" />
    <glyph glyph-name="UkaliqLetterIdzjiWithDot" unicode="&#xee96;" 
d="M265 704l-45 -227q-86 -428 282 -428l-10 -49q-417 0 -321 477l45 227h49zM482 -77l-38 -188h-49l38 188h49z" />
    <glyph glyph-name="UkaliqLetterOdzoWithDot" unicode="&#xee97;" 
d="M265 704l-45 -227q-86 -428 76 -428t228 327h49q-76 -376 -287 -376t-115 477l45 227h49zM482 -77l-38 -188h-49l38 188h49z" />
    <glyph glyph-name="UkaliqLessThanWithDot" unicode="&#xee98;" 
d="M90 49h412l-10 -49h-412zM638 704l-75 -377h-49l75 377h49zM482 -77l-38 -188h-49l38 188h49z" />
    <glyph glyph-name="UkaliqLetterOsoWithDot" unicode="&#xee99;" 
d="M638 704l-45 -227q-96 -477 -513 -477l10 49q368 0 454 428l45 227h49zM482 -77l-38 -188h-49l38 188h49z" />
    <glyph glyph-name="UkaliqMultiplicationWithDot" unicode="&#xee9a;" 
d="M90 49h412l-10 -49h-412zM265 704l-75 -377h-49l75 377h49zM638 704l-75 -377h-49l75 377h49zM482 -77l-38 -188h-49l38 188h49z" />
    <glyph glyph-name="UkaliqLetterApfaWithDot" unicode="&#xee9b;" 
d="M265 704l-75 -377h-49l75 377h49zM638 704l-45 -227q-96 -477 -513 -477l10 49q368 0 454 428l45 227h49zM482 -77l-38 -188h-49l38 188h49z" />
    <glyph glyph-name="UkaliqLetterEtsreWithDot" unicode="&#xee9c;" 
d="M199 376q-65 -327 303 -327l-10 -49q-417 0 -342 376h49zM638 704l-75 -377h-49l75 377h49zM482 -77l-38 -188h-49l38 188h49z" />
    <glyph glyph-name="UkaliqLetterUkkhuWithDot" unicode="&#xee9d;" 
d="M638 704l-45 -227q-96 -477 -307 -477t-136 376h49q-65 -327 97 -327t248 428l45 227h49zM482 -77l-38 -188h-49l38 188h49z" />
    <glyph glyph-name="UkaliqLetterItsjiWithDot" unicode="&#xee9e;" 
d="M265 704l-45 -227q-86 -428 282 -428l-10 -49q-417 0 -321 477l45 227h49zM638 704l-75 -377h-49l75 377h49zM482 -77l-38 -188h-49l38 188h49z" />
    <glyph glyph-name="UkaliqLetterOtsoWithDot" unicode="&#xee9f;" 
d="M265 704l-45 -227q-86 -428 76 -428t248 428l45 227h49l-45 -227q-96 -477 -307 -477t-115 477l45 227h49zM482 -77l-38 -188h-49l38 188h49z" />
    <glyph glyph-name="UkaliqRangeWithDot" unicode="&#xeea0;" 
d="M482 -77l-38 -188h-49l38 188h49zM221 704h412l-10 -49h-412z" />
    <glyph glyph-name="UkaliqLetterEoWithDot" unicode="&#xeea1;" 
d="M573 376l-76 -376h-49l76 376h49zM482 -77l-38 -188h-49l38 188h49zM221 704h412l-10 -49h-412z" />
    <glyph glyph-name="UkaliqLetterUhWithDot" unicode="&#xeea2;" 
d="M623 655q-368 0 -433 -328h-49q75 377 492 377zM482 -77l-38 -188h-49l38 188h49z" />
    <glyph glyph-name="UkaliqLetterEuWithDot" unicode="&#xeea3;" 
d="M573 376l-76 -376h-49l76 376h49zM623 655q-368 0 -433 -328h-49q75 377 492 377zM482 -77l-38 -188h-49l38 188h49z" />
    <glyph glyph-name="UkaliqLetterOeWithDot" unicode="&#xeea4;" 
d="M199 376l-75 -376h-49l75 376h49zM482 -77l-38 -188h-49l38 188h49zM221 704h412l-10 -49h-412z" />
    <glyph glyph-name="UkaliqLetterOehWithDot" unicode="&#xeea5;" 
d="M573 376l-76 -376h-49l76 376h49zM199 376l-75 -376h-49l75 376h49zM482 -77l-38 -188h-49l38 188h49zM221 704h412l-10 -49h-412z" />
    <glyph glyph-name="UkaliqLetterUiWithDot" unicode="&#xeea6;" 
d="M623 655q-368 0 -454 -429l-45 -226h-49l46 226q95 478 512 478zM482 -77l-38 -188h-49l38 188h49z" />
    <glyph glyph-name="UkaliqLetterAhWithDot" unicode="&#xeea7;" 
d="M623 655q-368 0 -454 -429l-45 -226h-49l46 226q95 478 512 478zM573 376l-76 -376h-49l76 376h49zM482 -77l-38 -188h-49l38 188h49z" />
    <glyph glyph-name="UkaliqLetterAeWithDot" unicode="&#xeea8;" 
d="M221 704q417 0 342 -377h-49q65 328 -303 328zM482 -77l-38 -188h-49l38 188h49z" />
    <glyph glyph-name="UkaliqLetterOWithDot" unicode="&#xeea9;" 
d="M221 704q417 0 322 -478l-46 -226h-49l46 226q85 429 -283 429zM482 -77l-38 -188h-49l38 188h49z" />
    <glyph glyph-name="UkaliqLetterIhWithDot" unicode="&#xeeaa;" 
d="M141 327q75 377 286 377t136 -377h-49q65 328 -97 328t-227 -328h-49zM482 -77l-38 -188h-49l38 188h49z" />
    <glyph glyph-name="UkaliqLetterUWithDot" unicode="&#xeeab;" 
d="M141 327q75 377 286 377t116 -478l-46 -226h-49l46 226q85 429 -77 429t-227 -328h-49zM482 -77l-38 -188h-49l38 188h49z" />
    <glyph glyph-name="UkaliqLetterEWithDot" unicode="&#xeeac;" 
d="M221 704q417 0 342 -377h-49q65 328 -303 328zM199 376l-75 -376h-49l75 376h49zM482 -77l-38 -188h-49l38 188h49z" />
    <glyph glyph-name="UkaliqLetterEhWithDot" unicode="&#xeead;" 
d="M221 704q417 0 322 -478l-46 -226h-49l46 226q85 429 -283 429zM199 376l-75 -376h-49l75 376h49zM482 -77l-38 -188h-49l38 188h49z" />
    <glyph glyph-name="UkaliqLetterIWithDot" unicode="&#xeeae;" 
d="M514 327q65 328 -97 328t-248 -429l-45 -226h-49l46 226q95 478 306 478t136 -377h-49zM482 -77l-38 -188h-49l38 188h49z" />
    <glyph glyph-name="UkaliqLetterOhWithDot" unicode="&#xeeaf;" 
d="M75 0l46 226q95 478 306 478t116 -478l-46 -226h-49l46 226q85 429 -77 429t-248 -429l-45 -226h-49zM482 -77l-38 -188h-49l38 188h49z" />
    <glyph glyph-name="UkaliqPlusWithDot" unicode="&#xeeb0;" 
d="M90 49h412l-10 -49h-412zM482 -77l-38 -188h-49l38 188h49zM221 704h412l-10 -49h-412z" />
    <glyph glyph-name="UkaliqCurrencyWithDot" unicode="&#xeeb1;" 
d="M482 -77l-38 -188h-49l38 188h49zM573 376q-76 -376 -493 -376l10 49q368 0 434 327h49zM221 704h412l-10 -49h-412z" />
    <glyph glyph-name="UkaliqAtWithDot" unicode="&#xeeb2;" 
d="M90 49h412l-10 -49h-412zM623 655q-368 0 -433 -328h-49q75 377 492 377zM482 -77l-38 -188h-49l38 188h49z" />
    <glyph glyph-name="UkaliqLetterAlhaWithDot" unicode="&#xeeb3;" 
d="M623 655q-368 0 -433 -328h-49q75 377 492 377zM482 -77l-38 -188h-49l38 188h49zM573 376q-76 -376 -493 -376l10 49q368 0 434 327h49z" />
    <glyph glyph-name="UkaliqLetterElreWithDot" unicode="&#xeeb4;" 
d="M199 376q-65 -327 303 -327l-10 -49q-417 0 -342 376h49zM482 -77l-38 -188h-49l38 188h49zM221 704h412l-10 -49h-412z" />
    <glyph glyph-name="UkaliqLetterUlguWithDot" unicode="&#xeeb5;" 
d="M199 376q-65 -327 97 -327t228 327h49q-76 -376 -287 -376t-136 376h49zM482 -77l-38 -188h-49l38 188h49zM221 704h412l-10 -49h-412z" />
    <glyph glyph-name="UkaliqLetterIljiWithDot" unicode="&#xeeb6;" 
d="M623 655q-368 0 -429 -303q-60 -303 308 -303l-10 -49q-417 0 -346 352q70 352 487 352zM482 -77l-38 -188h-49l38 188h49z" />
    <glyph glyph-name="UkaliqLetterOloWithDot" unicode="&#xeeb7;" 
d="M623 655q-368 0 -429 -303q-60 -303 102 -303t228 327h49q-76 -376 -287 -376t-140 352q70 352 487 352zM482 -77l-38 -188h-49l38 188h49z" />
    <glyph glyph-name="UkaliqDegreeWithDot" unicode="&#xeeb8;" 
d="M90 49h412l-10 -49h-412zM221 704q417 0 342 -377h-49q65 328 -303 328zM482 -77l-38 -188h-49l38 188h49z" />
    <glyph glyph-name="UkaliqLetterHbatWithDot" unicode="&#xeeb9;" 
d="M221 704q417 0 347 -352q-71 -352 -488 -352l10 49q368 0 429 303q60 303 -308 303zM482 -77l-38 -188h-49l38 188h49z" />
    <glyph glyph-name="UkaliqLetterAnqaWithDot" unicode="&#xeeba;" 
d="M90 49h412l-10 -49h-412zM141 327q75 377 286 377t136 -377h-49q65 328 -97 328t-227 -328h-49zM482 -77l-38 -188h-49l38 188h49z" />
    <glyph glyph-name="UkaliqLetterAmaWithDot" unicode="&#xeebb;" 
d="M141 327q75 377 286 377t141 -352q-71 -352 -488 -352l10 49q368 0 429 303q60 303 -102 303t-227 -328h-49zM482 -77l-38 -188h-49l38 188h49z" />
    <glyph glyph-name="UkaliqLetterEnreWithDot" unicode="&#xeebc;" 
d="M221 704q417 0 342 -377h-49q65 328 -303 328zM199 376q-65 -327 303 -327l-10 -49q-417 0 -342 376h49zM482 -77l-38 -188h-49l38 188h49z" />
    <glyph glyph-name="UkaliqLetterUnguWithDot" unicode="&#xeebd;" 
d="M221 704q417 0 347 -352q-71 -352 -282 -352t-136 376h49q-65 -327 97 -327t223 303q60 303 -308 303zM482 -77l-38 -188h-49l38 188h49z" />
    <glyph glyph-name="UkaliqLetterInjiWithDot" unicode="&#xeebe;" 
d="M514 327q65 328 -97 328t-223 -303q-60 -303 308 -303l-10 -49q-417 0 -346 352q70 352 281 352t136 -377h-49zM482 -77l-38 -188h-49l38 188h49z" />
    <glyph glyph-name="UkaliqLetterOnoWithDot" unicode="&#xeebf;" 
d="M482 -77l-38 -188h-49l38 188h49zM194 352q-60 -303 102 -303t223 303q60 303 -102 303t-223 -303zM146 352q70 352 281 352t141 -352q-71 -352 -282 -352t-140 352z" />
    <glyph glyph-name="UkaliqDashWithDot" unicode="&#xeec0;" 
d="M155 376h413l-10 -49h-412zM482 -77l-38 -188h-49l38 188h49z" />
    <glyph glyph-name="UkaliqLetterAWithDot" unicode="&#xeec1;" 
d="M155 376q418 0 342 -376h-49q66 327 -302 327zM482 -77l-38 -188h-49l38 188h49z" />
    <glyph glyph-name="UkaliqMinusWithDot" unicode="&#xeec2;" 
d="M265 704q-66 -328 303 -328l-10 -49q-417 0 -342 377h49zM482 -77l-38 -188h-49l38 188h49z" />
    <glyph glyph-name="UkaliqLetterAwaWithDot" unicode="&#xeec3;" 
d="M482 -77l-38 -188h-49l38 188h49zM265 704q-66 -328 221 -328q87 0 68 -95l-57 -281h-49l57 281q9 46 -29 46q-335 0 -260 377h49z" />
    <glyph glyph-name="UkaliqLetterErreWithDot" unicode="&#xeec4;" 
d="M558 327q-368 0 -434 -327h-49q75 376 493 376zM482 -77l-38 -188h-49l38 188h49z" />
    <glyph glyph-name="UkaliqAndWithDot" unicode="&#xeec5;" 
d="M75 0q75 376 287 376q211 0 135 -376h-49q66 327 -96 327t-228 -327h-49zM482 -77l-38 -188h-49l38 188h49z" />
    <glyph glyph-name="UkaliqLetterIzjiWithDot" unicode="&#xeec6;" 
d="M482 -77l-38 -188h-49l38 188h49zM189 327l-65 -327h-49l71 352l70 352h49l-66 -328h369l-10 -49h-369z" />
    <glyph glyph-name="UkaliqLetterOroWithDot" unicode="&#xeec7;" 
d="M482 -77l-38 -188h-49l38 188h49zM189 327l-65 -327h-49l71 352l70 352h49l-66 -328q372 -11 298 -376h-49q64 316 -259 327z" />
    <glyph glyph-name="UkaliqNotWithDot" unicode="&#xeec8;" 
d="M638 704q-75 -377 -492 -377l9 49q369 0 434 328h49zM482 -77l-38 -188h-49l38 188h49z" />
    <glyph glyph-name="UkaliqDivisionWithDot" unicode="&#xeec9;" 
d="M638 704l-70 -352l-71 -352h-49l66 327h-368l9 49h369l65 328h49zM482 -77l-38 -188h-49l38 188h49z" />
    <glyph glyph-name="UkaliqXorWithDot" unicode="&#xeeca;" 
d="M265 704q-66 -328 97 -328q162 0 227 328h49q-75 -377 -286 -377t-136 377h49zM482 -77l-38 -188h-49l38 188h49z" />
    <glyph glyph-name="uniEECB" unicode="&#xeecb;" 
d="M482 -77l-38 -188h-49l38 188h49zM265 704q-64 -316 259 -328l65 328h49l-70 -352l-71 -352h-49l66 327q-371 11 -298 377h49z" />
    <glyph glyph-name="UkaliqLetterIjiWithDot" unicode="&#xeecc;" 
d="M638 704q-75 -377 -411 -377q-37 0 -47 -46l-56 -281h-49l57 281q18 95 105 95q287 0 352 328h49zM482 -77l-38 -188h-49l38 188h49z" />
    <glyph glyph-name="UkaliqLetterTkotWithDot" unicode="&#xeecd;" 
d="M638 704l-70 -352l-71 -352h-49l66 327q-326 -11 -390 -327h-49q73 364 449 376l65 328h49zM482 -77l-38 -188h-49l38 188h49z" />
    <glyph glyph-name="UkaliqLetterIsjiWithDot" unicode="&#xeece;" 
d="M482 -77l-38 -188h-49l38 188h49zM189 327l-65 -327h-49l71 352l70 352h49l-66 -328q327 11 390 328h49q-73 -366 -449 -377z" />
    <glyph glyph-name="UkaliqLetterOrroWithDot" unicode="&#xeecf;" 
d="M482 -77l-38 -188h-49l38 188h49zM638 704l-70 -352l-71 -352h-49l66 327h-325l-65 -327h-49l71 352l70 352h49l-66 -328h325l65 328h49z" />
    <glyph glyph-name="UkaliqBaseSixteen" unicode="&#xeed0;" 
d="M90 49h412l-10 -49h-412zM155 376h413l-10 -49h-412zM482 -77l-38 -188h-49l38 188h49z" />
    <glyph glyph-name="UkaliqBaseNegativeTwo" unicode="&#xeed1;" 
d="M155 376q418 0 380 -188t-455 -188l10 49q368 0 396 139t-340 139zM482 -77l-38 -188h-49l38 188h49z" />
    <glyph glyph-name="UkaliqBaseTwo" unicode="&#xeed2;" 
d="M265 704q-66 -328 303 -328l-10 -49q-417 0 -342 377h49zM90 49h412l-10 -49h-412zM482 -77l-38 -188h-49l38 188h49z" />
    <glyph glyph-name="UkaliqBaseThree" unicode="&#xeed3;" 
d="M482 -77l-38 -188h-49l38 188h49zM265 704q-66 -328 221 -328q87 0 71 -79q-60 -297 -477 -297l10 49q368 0 418 248q6 30 -32 30q-335 0 -260 377h49z" />
    <glyph glyph-name="UkaliqBaseFour" unicode="&#xeed4;" 
d="M558 327q-368 0 -396 -139t340 -139l-10 -49q-417 0 -379 188q37 188 455 188zM482 -77l-38 -188h-49l38 188h49z" />
    <glyph glyph-name="UkaliqBaseFive" unicode="&#xeed5;" 
d="M482 -77l-38 -188h-49l38 188h49zM162 188q-28 -139 134 -139t190 139t-134 139t-190 -139zM113 188q37 188 249 188q211 0 173 -188t-249 -188t-173 188z" />
    <glyph glyph-name="UkaliqBaseSix" unicode="&#xeed6;" 
d="M482 -77l-38 -188h-49l38 188h49zM190 327q-40 -278 312 -278l-10 -49q-417 0 -346 352l70 352h49l-66 -328h369l-10 -49h-368z" />
    <glyph glyph-name="UkaliqBaseNegativeEight" unicode="&#xeed7;" 
d="M482 -77l-38 -188h-49l38 188h49zM189 327q-48 -278 107 -278q162 0 190 139q27 134 -297 139zM199 376q373 -6 336 -188q-38 -188 -249 -188t-140 352l70 352h49z" />
    <glyph glyph-name="UkaliqBaseEight" unicode="&#xeed8;" 
d="M90 49h412l-10 -49h-412zM638 704q-75 -377 -492 -377l9 49q369 0 434 328h49zM482 -77l-38 -188h-49l38 188h49z" />
    <glyph glyph-name="UkaliqBaseNegativeTen" unicode="&#xeed9;" 
d="M638 704l-70 -352q-71 -352 -488 -352l10 49q352 0 423 278h-367l9 49h369l65 328h49zM482 -77l-38 -188h-49l38 188h49z" />
    <glyph glyph-name="UkaliqBaseTen" unicode="&#xeeda;" 
d="M265 704q-66 -328 97 -328q162 0 227 328h49q-75 -377 -286 -377t-136 377h49zM90 49h412l-10 -49h-412zM482 -77l-38 -188h-49l38 188h49z" />
    <glyph glyph-name="UkaliqBaseNegativeThree" unicode="&#xeedb;" 
d="M482 -77l-38 -188h-49l38 188h49zM265 704q-64 -316 259 -328l65 328h49l-70 -352q-71 -352 -488 -352l10 49q353 0 423 278q-370 12 -297 377h49z" />
    <glyph glyph-name="UkaliqBaseNegativeFour" unicode="&#xeedc;" 
d="M638 704q-75 -377 -411 -377q-37 0 -43 -30q-50 -248 318 -248l-10 -49q-417 0 -357 297q15 79 102 79q287 0 352 328h49zM482 -77l-38 -188h-49l38 188h49z" />
    <glyph glyph-name="UkaliqBaseNegativeFive" unicode="&#xeedd;" 
d="M638 704l-70 -352q-71 -352 -282 -352t-173 188q36 182 411 188l65 328h49zM482 -77l-38 -188h-49l38 188h49zM514 327q-325 -5 -352 -139q-28 -139 134 -139q155 0 218 278z" />
    <glyph glyph-name="UkaliqBaseNegativeSix" unicode="&#xeede;" 
d="M482 -77l-38 -188h-49l38 188h49zM190 327q-40 -278 312 -278l-10 -49q-417 0 -346 352l70 352h49l-66 -328q327 11 390 328h49q-72 -365 -448 -377z" />
    <glyph glyph-name="UkaliqBaseNegativeSixteen" unicode="&#xeedf;" 
d="M482 -77l-38 -188h-49l38 188h49zM524 376l65 328h49l-70 -352q-71 -352 -282 -352t-140 352l70 352h49l-66 -328h325zM514 327h-325q-49 -278 107 -278q155 0 218 278z" />
    <glyph glyph-name="UkaliqLetterSchwaWithDot" unicode="&#xeee0;" 
d="M155 376h413l-10 -49h-412zM482 -77l-38 -188h-49l38 188h49zM221 704h412l-10 -49h-412z" />
    <glyph glyph-name="UkaliqLetterOhgoWithDot" unicode="&#xeee1;" 
d="M155 376q418 0 342 -376h-49q66 327 -302 327zM482 -77l-38 -188h-49l38 188h49zM221 704h412l-10 -49h-412z" />
    <glyph glyph-name="UkaliqLetterArhaWithDot" unicode="&#xeee2;" 
d="M623 655q-368 0 -396 -140q-28 -139 341 -139l-10 -49q-417 0 -380 188q38 189 455 189zM482 -77l-38 -188h-49l38 188h49z" />
    <glyph glyph-name="UkaliqLetterAvaWithDot" unicode="&#xeee3;" 
d="M482 -77l-38 -188h-49l38 188h49zM623 655q-368 0 -396 -140q-28 -139 259 -139q87 0 68 -95l-57 -281h-49l57 281q9 46 -29 46q-335 0 -298 188q38 189 455 189z" />
    <glyph glyph-name="UkaliqLetterEzreWithDot" unicode="&#xeee4;" 
d="M558 327q-368 0 -434 -327h-49q75 376 493 376zM482 -77l-38 -188h-49l38 188h49zM221 704h412l-10 -49h-412z" />
    <glyph glyph-name="UkaliqLetterUghuWithDot" unicode="&#xeee5;" 
d="M75 0q75 376 287 376q211 0 135 -376h-49q66 327 -96 327t-228 -327h-49zM482 -77l-38 -188h-49l38 188h49zM221 704h412l-10 -49h-412z" />
    <glyph glyph-name="UkaliqLetterIjjiWithDot" unicode="&#xeee6;" 
d="M482 -77l-38 -188h-49l38 188h49zM189 327l-65 -327h-49l71 352q70 352 487 352l-10 -49q-353 0 -424 -279h369l-10 -49h-369z" />
    <glyph glyph-name="UkaliqLetterOdhoWithDot" unicode="&#xeee7;" 
d="M482 -77l-38 -188h-49l38 188h49zM189 327l-65 -327h-49l71 352q70 352 487 352l-10 -49q-353 0 -424 -279q371 -11 298 -376h-49q64 316 -259 327z" />
    <glyph glyph-name="UkaliqLetterOhhoWithDot" unicode="&#xeee8;" 
d="M221 704q417 0 379 -189q-37 -188 -454 -188l9 49q369 0 397 139q27 140 -341 140zM482 -77l-38 -188h-49l38 188h49z" />
    <glyph glyph-name="UkaliqLetterAhaWithDot" unicode="&#xeee9;" 
d="M221 704q417 0 347 -352l-71 -352h-49l66 327h-368l9 49h368q41 279 -312 279zM482 -77l-38 -188h-49l38 188h49z" />
    <glyph glyph-name="UkaliqLetterAqhaWithDot" unicode="&#xeeea;" 
d="M482 -77l-38 -188h-49l38 188h49zM227 515q-28 -139 135 -139q162 0 190 139q27 140 -135 140t-190 -140zM178 515q38 189 249 189t173 -189q-37 -188 -248 -188t-174 188z" />
    <glyph glyph-name="UkaliqLetterAfaWithDot" unicode="&#xeeeb;" 
d="M482 -77l-38 -188h-49l38 188h49zM524 376q49 279 -107 279q-162 0 -190 -140q-27 -134 297 -139zM514 327q-372 6 -336 188q38 189 249 189t141 -352l-71 -352h-49z" />
    <glyph glyph-name="UkaliqLetterEsreWithDot" unicode="&#xeeec;" 
d="M221 704q417 0 379 -189q-37 -188 -373 -188q-37 0 -47 -46l-56 -281h-49l57 281q18 95 105 95q287 0 315 139q27 140 -341 140zM482 -77l-38 -188h-49l38 188h49z" />
    <glyph glyph-name="UkaliqLetterUkhuWithDot" unicode="&#xeeed;" 
d="M221 704q417 0 347 -352l-71 -352h-49l66 327q-326 -11 -390 -327h-49q73 364 448 376q41 279 -312 279zM482 -77l-38 -188h-49l38 188h49z" />
    <glyph glyph-name="UkaliqLetterIcjiWithDot" unicode="&#xeeee;" 
d="M482 -77l-38 -188h-49l38 188h49zM189 327l-65 -327h-49l71 352q70 352 281 352t173 -189q-36 -182 -411 -188zM199 376q326 5 353 139q27 140 -135 140q-156 0 -218 -279z" />
    <glyph glyph-name="UkaliqLetterOthoWithDot" unicode="&#xeeef;" 
d="M482 -77l-38 -188h-49l38 188h49zM75 0l71 352q70 352 281 352t141 -352l-71 -352h-49l66 327h-325l-65 -327h-49zM199 376h324q49 279 -106 279q-156 0 -218 -279z" />
    <glyph glyph-name="UkaliqIterationMarkWithDot" unicode="&#xeef0;" 
d="M90 49h412l-10 -49h-412zM155 376h413l-10 -49h-412zM482 -77l-38 -188h-49l38 188h49zM221 704h412l-10 -49h-412z" />
    <glyph glyph-name="UkaliqPercentWithDot" unicode="&#xeef1;" 
d="M155 376q418 0 380 -188t-455 -188l10 49q368 0 396 139t-340 139zM482 -77l-38 -188h-49l38 188h49zM221 704h412l-10 -49h-412z" />
    <glyph glyph-name="UkaliqLetterAgqaWithDot" unicode="&#xeef2;" 
d="M623 655q-368 0 -396 -140q-28 -139 341 -139l-10 -49q-417 0 -380 188q38 189 455 189zM90 49h412l-10 -49h-412zM482 -77l-38 -188h-49l38 188h49z" />
    <glyph glyph-name="UkaliqLetterAbaWithDot" unicode="&#xeef3;" 
d="M482 -77l-38 -188h-49l38 188h49zM623 655q-368 0 -396 -140q-28 -139 259 -139q87 0 71 -79q-60 -297 -477 -297l10 49q368 0 418 248q6 30 -32 30q-335 0 -298 188q38 189 455 189z" />
    <glyph glyph-name="UkaliqLetterEdreWithDot" unicode="&#xeef4;" 
d="M558 327q-368 0 -396 -139t340 -139l-10 -49q-417 0 -379 188q37 188 455 188zM482 -77l-38 -188h-49l38 188h49zM221 704h412l-10 -49h-412z" />
    <glyph glyph-name="UkaliqLetterUguWithDot" unicode="&#xeef5;" 
d="M482 -77l-38 -188h-49l38 188h49zM221 704h412l-10 -49h-412zM162 188q-28 -139 134 -139t190 139t-134 139t-190 -139zM113 188q37 188 249 188q211 0 173 -188t-249 -188t-173 188z" />
    <glyph glyph-name="UkaliqLetterIgjiWithDot" unicode="&#xeef6;" 
d="M482 -77l-38 -188h-49l38 188h49zM190 327q-40 -278 312 -278l-10 -49q-417 0 -346 352q70 352 487 352l-10 -49q-353 0 -424 -279h369l-10 -49h-368z" />
    <glyph glyph-name="UkaliqLetterOdoWithDot" unicode="&#xeef7;" 
d="M482 -77l-38 -188h-49l38 188h49zM189 327q-48 -278 107 -278q162 0 190 139q27 134 -297 139zM199 376q372 -6 336 -188q-38 -188 -249 -188t-140 352q70 352 487 352l-10 -49q-354 0 -424 -279z" />
    <glyph glyph-name="UkaliqLetterOhhkoWithDot" unicode="&#xeef8;" 
d="M90 49h412l-10 -49h-412zM221 704q417 0 379 -189q-37 -188 -454 -188l9 49q369 0 397 139q27 140 -341 140zM482 -77l-38 -188h-49l38 188h49z" />
    <glyph glyph-name="UkaliqLetterAhkaWithDot" unicode="&#xeef9;" 
d="M221 704q417 0 347 -352q-71 -352 -488 -352l10 49q352 0 423 278h-367l9 49h368q41 279 -312 279zM482 -77l-38 -188h-49l38 188h49z" />
    <glyph glyph-name="UkaliqLetterAqaWithDot" unicode="&#xeefa;" 
d="M90 49h412l-10 -49h-412zM482 -77l-38 -188h-49l38 188h49zM227 515q-28 -139 135 -139q162 0 190 139q27 140 -135 140t-190 -140zM178 515q38 189 249 189t173 -189q-37 -188 -248 -188t-174 188z" />
    <glyph glyph-name="UkaliqLetterApaWithDot" unicode="&#xeefb;" 
d="M482 -77l-38 -188h-49l38 188h49zM524 376q49 279 -107 279q-162 0 -190 -140q-27 -134 297 -139zM513 327q-371 6 -335 188q38 189 249 189t141 -352q-71 -352 -488 -352l10 49q352 0 423 278z" />
    <glyph glyph-name="UkaliqLetterEtreWithDot" unicode="&#xeefc;" 
d="M221 704q417 0 379 -189q-37 -188 -373 -188q-37 0 -43 -30q-50 -248 318 -248l-10 -49q-417 0 -357 297q15 79 102 79q287 0 315 139q27 140 -341 140zM482 -77l-38 -188h-49l38 188h49z" />
    <glyph glyph-name="UkaliqLetterUkuWithDot" unicode="&#xeefd;" 
d="M221 704q417 0 347 -352q-71 -352 -282 -352t-173 188q36 182 410 188q41 279 -312 279zM482 -77l-38 -188h-49l38 188h49zM514 327q-325 -5 -352 -139q-28 -139 134 -139q155 0 218 278z" />
    <glyph glyph-name="UkaliqLetterIciWithDot" unicode="&#xeefe;" 
d="M482 -77l-38 -188h-49l38 188h49zM190 327q-40 -278 312 -278l-10 -49q-417 0 -346 352q70 352 281 352t173 -189q-36 -182 -410 -188zM199 376q326 5 353 139q27 140 -135 140q-156 0 -218 -279z" />
    </font>
</defs>
</svg>
