<?xml version="1.0" standalone="no"?>
<!DOCTYPE svg PUBLIC "-//W3C//DTD SVG 1.1//EN" "http://www.w3.org/Graphics/SVG/1.1/DTD/svg11.dtd" >
<svg xmlns="http://www.w3.org/2000/svg" xmlns:xlink="http://www.w3.org/1999/xlink" version="1.1">
<metadata>
Created by FontForge 20170812 at Mon Jan 23 00:30:09 2023
 By ht,,,
Copyright (C) 2022-2023 Henrik Theiling, License CC-BY-NC4.0
</metadata>
<defs>
<font id="UkaliqPenLight" horiz-adv-x="578" >
  <font-face 
    font-family="Ukaliq Pen"
    font-weight="250"
    font-stretch="normal"
    units-per-em="1024"
    panose-1="2 0 4 3 0 0 0 0 0 0"
    ascent="727"
    descent="-297"
    bbox="0 -296 578 946"
    underline-thickness="78"
    underline-position="-171"
    unicode-range="U+000D-F1DFF"
  />
<missing-glyph 
d="M83 49h412v-49h-412v49zM500 -77v-188h-49v188h49z" />
    <glyph glyph-name="UkaliqSpace_UkaliqModifierDot" unicode="&#xee00;&#x331;" 
d="M500 -77v-188h-49v188h49z" />
    <glyph glyph-name="UkaliqNumber_UkaliqModifierDot" unicode="&#xee01;&#x331;" 
d="M500 376v-376h-49v376h49zM500 -77v-188h-49v188h49z" />
    <glyph glyph-name="UkaliqRightSingleQuotationMark_UkaliqModifierDot" unicode="&#xee02;&#x331;" 
d="M127 704v-377h-49v377h49zM500 -77v-188h-49v188h49z" />
    <glyph glyph-name="UkaliqColon_UkaliqModifierDot" unicode="&#xee03;&#x331;" 
d="M500 376v-376h-49v376h49zM127 704v-377h-49v377h49zM500 -77v-188h-49v188h49z" />
    <glyph glyph-name="UkaliqFullStop_UkaliqModifierDot" unicode="&#xee04;&#x331;" 
d="M127 376v-376h-49v376h49zM500 -77v-188h-49v188h49z" />
    <glyph glyph-name="UkaliqComma_UkaliqModifierDot" unicode="&#xee05;&#x331;" 
d="M500 376v-376h-49v376h49zM127 376v-376h-49v376h49zM500 -77v-188h-49v188h49z" />
    <glyph glyph-name="UkaliqRightParenthesis_UkaliqModifierDot" unicode="&#xee06;&#x331;" 
d="M127 704v-704h-49v704h49zM500 -77v-188h-49v188h49z" />
    <glyph glyph-name="UkaliqExclamationMark_UkaliqModifierDot" unicode="&#xee07;&#x331;" 
d="M127 704v-704h-49v704h49zM500 376v-376h-49v376h49zM500 -77v-188h-49v188h49z" />
    <glyph glyph-name="UkaliqLeftSingleQuotationMark_UkaliqModifierDot" unicode="&#xee08;&#x331;" 
d="M500 704v-377h-49v377h49zM500 -77v-188h-49v188h49z" />
    <glyph glyph-name="UkaliqLeftParenthesis_UkaliqModifierDot" unicode="&#xee09;&#x331;" 
d="M500 704v-704h-49v704h49zM500 -77v-188h-49v188h49z" />
    <glyph glyph-name="UkaliqDoubleQuotationMark_UkaliqModifierDot" unicode="&#xee0a;&#x331;" 
d="M127 704v-377h-49v377h49zM500 704v-377h-49v377h49zM500 -77v-188h-49v188h49z" />
    <glyph glyph-name="UkaliqReversedQuestionMark_UkaliqModifierDot" unicode="&#xee0b;&#x331;" 
d="M500 704v-704h-49v704h49zM127 704v-377h-49v377h49zM500 -77v-188h-49v188h49z" />
    <glyph glyph-name="UkaliqSemicolon_UkaliqModifierDot" unicode="&#xee0c;&#x331;" 
d="M500 704v-377h-49v377h49zM127 376v-376h-49v376h49zM500 -77v-188h-49v188h49z" />
    <glyph glyph-name="UkaliqReversedExclamationMark_UkaliqModifierDot" unicode="&#xee0d;&#x331;" 
d="M500 704v-704h-49v704h49zM127 376v-376h-49v376h49zM500 -77v-188h-49v188h49z" />
    <glyph glyph-name="UkaliqQuestionMark_UkaliqModifierDot" unicode="&#xee0e;&#x331;" 
d="M127 704v-704h-49v704h49zM500 704v-377h-49v377h49zM500 -77v-188h-49v188h49z" />
    <glyph glyph-name="UkaliqEquals_UkaliqModifierDot" unicode="&#xee0f;&#x331;" 
d="M500 704v-704h-49v704h49zM127 704v-704h-49v704h49zM500 -77v-188h-49v188h49z" />
    <glyph glyph-name="UkaliqHyphen_UkaliqModifierDot" unicode="&#xee10;&#x331;" 
d="M83 49h412v-49h-412v49zM500 -77v-188h-49v188h49z" />
    <glyph glyph-name="UkaliqLetterOzo_UkaliqModifierDot" unicode="&#xee11;&#x331;" 
d="M500 -77v-188h-49v188h49zM500 376q0 -376 -417 -376v49q368 0 368 327h49z" />
    <glyph glyph-name="UkaliqGreaterThan_UkaliqModifierDot" unicode="&#xee12;&#x331;" 
d="M83 49h412v-49h-412v49zM127 704v-377h-49v377h49zM500 -77v-188h-49v188h49z" />
    <glyph glyph-name="UkaliqLetterAtlha_UkaliqModifierDot" unicode="&#xee13;&#x331;" 
d="M127 704v-377h-49v377h49zM500 -77v-188h-49v188h49zM500 376q0 -376 -417 -376v49q368 0 368 327h49z" />
    <glyph glyph-name="UkaliqLetterEdzre_UkaliqModifierDot" unicode="&#xee14;&#x331;" 
d="M127 376q0 -327 368 -327v-49q-417 0 -417 376h49zM500 -77v-188h-49v188h49z" />
    <glyph glyph-name="UkaliqOr_UkaliqModifierDot" unicode="&#xee15;&#x331;" 
d="M127 376q0 -327 162 -327t162 327h49q0 -376 -211 -376t-211 376h49zM500 -77v-188h-49v188h49z" />
    <glyph glyph-name="UkaliqLetterIdzji_UkaliqModifierDot" unicode="&#xee16;&#x331;" 
d="M127 704v-227q0 -428 368 -428v-49q-417 0 -417 477v227h49zM500 -77v-188h-49v188h49z" />
    <glyph glyph-name="UkaliqLetterOdzo_UkaliqModifierDot" unicode="&#xee17;&#x331;" 
d="M127 704v-227q0 -428 162 -428t162 327h49q0 -376 -211 -376t-211 477v227h49zM500 -77v-188h-49v188h49z" />
    <glyph glyph-name="UkaliqLessThan_UkaliqModifierDot" unicode="&#xee18;&#x331;" 
d="M83 49h412v-49h-412v49zM500 704v-377h-49v377h49zM500 -77v-188h-49v188h49z" />
    <glyph glyph-name="UkaliqLetterOso_UkaliqModifierDot" unicode="&#xee19;&#x331;" 
d="M500 704v-227q0 -477 -417 -477v49q368 0 368 428v227h49zM500 -77v-188h-49v188h49z" />
    <glyph glyph-name="UkaliqMultiplication_UkaliqModifierDot" unicode="&#xee1a;&#x331;" 
d="M83 49h412v-49h-412v49zM127 704v-377h-49v377h49zM500 704v-377h-49v377h49zM500 -77v-188h-49v188h49z" />
    <glyph glyph-name="UkaliqLetterApfa_UkaliqModifierDot" unicode="&#xee1b;&#x331;" 
d="M127 704v-377h-49v377h49zM500 704v-227q0 -477 -417 -477v49q368 0 368 428v227h49zM500 -77v-188h-49v188h49z" />
    <glyph glyph-name="UkaliqLetterEtsre_UkaliqModifierDot" unicode="&#xee1c;&#x331;" 
d="M127 376q0 -327 368 -327v-49q-417 0 -417 376h49zM500 704v-377h-49v377h49zM500 -77v-188h-49v188h49z" />
    <glyph glyph-name="UkaliqLetterUkkhu_UkaliqModifierDot" unicode="&#xee1d;&#x331;" 
d="M500 704v-227q0 -477 -211 -477t-211 376h49q0 -327 162 -327t162 428v227h49zM500 -77v-188h-49v188h49z" />
    <glyph glyph-name="UkaliqLetterItsji_UkaliqModifierDot" unicode="&#xee1e;&#x331;" 
d="M127 704v-227q0 -428 368 -428v-49q-417 0 -417 477v227h49zM500 704v-377h-49v377h49zM500 -77v-188h-49v188h49z" />
    <glyph glyph-name="UkaliqLetterOtso_UkaliqModifierDot" unicode="&#xee1f;&#x331;" 
d="M127 704v-227q0 -428 162 -428t162 428v227h49v-227q0 -477 -211 -477t-211 477v227h49zM500 -77v-188h-49v188h49z" />
    <glyph glyph-name="UkaliqRange_UkaliqModifierDot" unicode="&#xee20;&#x331;" 
d="M500 -77v-188h-49v188h49zM83 704h412v-49h-412v49z" />
    <glyph glyph-name="UkaliqLetterEo_UkaliqModifierDot" unicode="&#xee21;&#x331;" 
d="M500 376v-376h-49v376h49zM500 -77v-188h-49v188h49zM83 704h412v-49h-412v49z" />
    <glyph glyph-name="UkaliqLetterUh_UkaliqModifierDot" unicode="&#xee22;&#x331;" 
d="M495 655q-368 0 -368 -328h-49q0 377 417 377v-49zM500 -77v-188h-49v188h49z" />
    <glyph glyph-name="UkaliqLetterEu_UkaliqModifierDot" unicode="&#xee23;&#x331;" 
d="M500 376v-376h-49v376h49zM495 655q-368 0 -368 -328h-49q0 377 417 377v-49zM500 -77v-188h-49v188h49z" />
    <glyph glyph-name="UkaliqLetterOe_UkaliqModifierDot" unicode="&#xee24;&#x331;" 
d="M127 376v-376h-49v376h49zM500 -77v-188h-49v188h49zM83 704h412v-49h-412v49z" />
    <glyph glyph-name="UkaliqLetterOeh_UkaliqModifierDot" unicode="&#xee25;&#x331;" 
d="M500 376v-376h-49v376h49zM127 376v-376h-49v376h49zM500 -77v-188h-49v188h49zM83 704h412v-49h-412v49z" />
    <glyph glyph-name="UkaliqLetterUi_UkaliqModifierDot" unicode="&#xee26;&#x331;" 
d="M495 655q-368 0 -368 -429v-226h-49v226q0 478 417 478v-49zM500 -77v-188h-49v188h49z" />
    <glyph glyph-name="UkaliqLetterAh_UkaliqModifierDot" unicode="&#xee27;&#x331;" 
d="M495 655q-368 0 -368 -429v-226h-49v226q0 478 417 478v-49zM500 376v-376h-49v376h49zM500 -77v-188h-49v188h49z" />
    <glyph glyph-name="UkaliqLetterAe_UkaliqModifierDot" unicode="&#xee28;&#x331;" 
d="M83 704q417 0 417 -377h-49q0 328 -368 328v49zM500 -77v-188h-49v188h49z" />
    <glyph glyph-name="UkaliqLetterO_UkaliqModifierDot" unicode="&#xee29;&#x331;" 
d="M83 704q417 0 417 -478v-226h-49v226q0 429 -368 429v49zM500 -77v-188h-49v188h49z" />
    <glyph glyph-name="UkaliqLetterIh_UkaliqModifierDot" unicode="&#xee2a;&#x331;" 
d="M78 327q0 377 211 377t211 -377h-49q0 328 -162 328t-162 -328h-49zM500 -77v-188h-49v188h49z" />
    <glyph glyph-name="UkaliqLetterU_UkaliqModifierDot" unicode="&#xee2b;&#x331;" 
d="M78 327q0 377 211 377t211 -478v-226h-49v226q0 429 -162 429t-162 -328h-49zM500 -77v-188h-49v188h49z" />
    <glyph glyph-name="UkaliqLetterE_UkaliqModifierDot" unicode="&#xee2c;&#x331;" 
d="M83 704q417 0 417 -377h-49q0 328 -368 328v49zM127 376v-376h-49v376h49zM500 -77v-188h-49v188h49z" />
    <glyph glyph-name="UkaliqLetterEh_UkaliqModifierDot" unicode="&#xee2d;&#x331;" 
d="M83 704q417 0 417 -478v-226h-49v226q0 429 -368 429v49zM127 376v-376h-49v376h49zM500 -77v-188h-49v188h49z" />
    <glyph glyph-name="UkaliqLetterI_UkaliqModifierDot" unicode="&#xee2e;&#x331;" 
d="M451 327q0 328 -162 328t-162 -429v-226h-49v226q0 478 211 478t211 -377h-49zM500 -77v-188h-49v188h49z" />
    <glyph glyph-name="UkaliqLetterOh_UkaliqModifierDot" unicode="&#xee2f;&#x331;" 
d="M78 0v226q0 478 211 478t211 -478v-226h-49v226q0 429 -162 429t-162 -429v-226h-49zM500 -77v-188h-49v188h49z" />
    <glyph glyph-name="UkaliqPlus_UkaliqModifierDot" unicode="&#xee30;&#x331;" 
d="M83 49h412v-49h-412v49zM500 -77v-188h-49v188h49zM83 704h412v-49h-412v49z" />
    <glyph glyph-name="UkaliqCurrency_UkaliqModifierDot" unicode="&#xee31;&#x331;" 
d="M500 -77v-188h-49v188h49zM500 376q0 -376 -417 -376v49q368 0 368 327h49zM83 704h412v-49h-412v49z" />
    <glyph glyph-name="UkaliqAt_UkaliqModifierDot" unicode="&#xee32;&#x331;" 
d="M83 49h412v-49h-412v49zM495 655q-368 0 -368 -328h-49q0 377 417 377v-49zM500 -77v-188h-49v188h49z" />
    <glyph glyph-name="UkaliqLetterAlha_UkaliqModifierDot" unicode="&#xee33;&#x331;" 
d="M495 655q-368 0 -368 -328h-49q0 377 417 377v-49zM500 -77v-188h-49v188h49zM500 376q0 -376 -417 -376v49q368 0 368 327h49z" />
    <glyph glyph-name="UkaliqLetterElre_UkaliqModifierDot" unicode="&#xee34;&#x331;" 
d="M127 376q0 -327 368 -327v-49q-417 0 -417 376h49zM500 -77v-188h-49v188h49zM83 704h412v-49h-412v49z" />
    <glyph glyph-name="UkaliqLetterUlgu_UkaliqModifierDot" unicode="&#xee35;&#x331;" 
d="M127 376q0 -327 162 -327t162 327h49q0 -376 -211 -376t-211 376h49zM500 -77v-188h-49v188h49zM83 704h412v-49h-412v49z" />
    <glyph glyph-name="UkaliqLetterIlji_UkaliqModifierDot" unicode="&#xee36;&#x331;" 
d="M495 655q-368 0 -368 -303t368 -303v-49q-417 0 -417 352t417 352v-49zM500 -77v-188h-49v188h49z" />
    <glyph glyph-name="UkaliqLetterOlo_UkaliqModifierDot" unicode="&#xee37;&#x331;" 
d="M495 655q-368 0 -368 -303t162 -303t162 327h49q0 -376 -211 -376t-211 352t417 352v-49zM500 -77v-188h-49v188h49z" />
    <glyph glyph-name="UkaliqDegree_UkaliqModifierDot" unicode="&#xee38;&#x331;" 
d="M83 49h412v-49h-412v49zM83 704q417 0 417 -377h-49q0 328 -368 328v49zM500 -77v-188h-49v188h49z" />
    <glyph glyph-name="UkaliqLetterHbat_UkaliqModifierDot" unicode="&#xee39;&#x331;" 
d="M83 704q417 0 417 -352t-417 -352v49q368 0 368 303t-368 303v49zM500 -77v-188h-49v188h49z" />
    <glyph glyph-name="UkaliqLetterAnqa_UkaliqModifierDot" unicode="&#xee3a;&#x331;" 
d="M83 49h412v-49h-412v49zM78 327q0 377 211 377t211 -377h-49q0 328 -162 328t-162 -328h-49zM500 -77v-188h-49v188h49z" />
    <glyph glyph-name="UkaliqLetterAma_UkaliqModifierDot" unicode="&#xee3b;&#x331;" 
d="M78 327q0 377 211 377t211 -352t-417 -352v49q368 0 368 303t-162 303t-162 -328h-49zM500 -77v-188h-49v188h49z" />
    <glyph glyph-name="UkaliqLetterEnre_UkaliqModifierDot" unicode="&#xee3c;&#x331;" 
d="M83 704q417 0 417 -377h-49q0 328 -368 328v49zM127 376q0 -327 368 -327v-49q-417 0 -417 376h49zM500 -77v-188h-49v188h49z" />
    <glyph glyph-name="UkaliqLetterUngu_UkaliqModifierDot" unicode="&#xee3d;&#x331;" 
d="M83 704q417 0 417 -352t-211 -352t-211 376h49q0 -327 162 -327t162 303t-368 303v49zM500 -77v-188h-49v188h49z" />
    <glyph glyph-name="UkaliqLetterInji_UkaliqModifierDot" unicode="&#xee3e;&#x331;" 
d="M451 327q0 328 -162 328t-162 -303t368 -303v-49q-417 0 -417 352t211 352t211 -377h-49zM500 -77v-188h-49v188h49z" />
    <glyph glyph-name="UkaliqLetterOno_UkaliqModifierDot" unicode="&#xee3f;&#x331;" 
d="M500 -77v-188h-49v188h49zM127 352q0 -303 162 -303t162 303t-162 303t-162 -303zM78 352q0 352 211 352t211 -352t-211 -352t-211 352z" />
    <glyph glyph-name="UkaliqDash_UkaliqModifierDot" unicode="&#xee40;&#x331;" 
d="M83 376h412v-49h-412v49zM500 -77v-188h-49v188h49z" />
    <glyph glyph-name="UkaliqLetterA_UkaliqModifierDot" unicode="&#xee41;&#x331;" 
d="M83 376q417 0 417 -376h-49q0 327 -368 327v49zM500 -77v-188h-49v188h49z" />
    <glyph glyph-name="UkaliqMinus_UkaliqModifierDot" unicode="&#xee42;&#x331;" 
d="M127 704q0 -328 368 -328v-49q-417 0 -417 377h49zM500 -77v-188h-49v188h49z" />
    <glyph glyph-name="UkaliqLetterAwa_UkaliqModifierDot" unicode="&#xee43;&#x331;" 
d="M500 -77v-188h-49v188h49zM127 704q0 -328 287 -328q86 0 86 -95v-281h-49v281q0 46 -37 46q-336 0 -336 377h49z" />
    <glyph glyph-name="UkaliqLetterErre_UkaliqModifierDot" unicode="&#xee44;&#x331;" 
d="M495 327q-368 0 -368 -327h-49q0 376 417 376v-49zM500 -77v-188h-49v188h49z" />
    <glyph glyph-name="UkaliqAnd_UkaliqModifierDot" unicode="&#xee45;&#x331;" 
d="M78 0q0 376 211 376t211 -376h-49q0 327 -162 327t-162 -327h-49zM500 -77v-188h-49v188h49z" />
    <glyph glyph-name="UkaliqLetterIzji_UkaliqModifierDot" unicode="&#xee46;&#x331;" 
d="M500 -77v-188h-49v188h49zM127 327v-327h-49v352v352h49v-328h368v-49h-368z" />
    <glyph glyph-name="UkaliqLetterOro_UkaliqModifierDot" unicode="&#xee47;&#x331;" 
d="M500 -77v-188h-49v188h49zM127 327v-327h-49v352v352h49v-328q373 -11 373 -376h-49q0 316 -324 327z" />
    <glyph glyph-name="UkaliqNot_UkaliqModifierDot" unicode="&#xee48;&#x331;" 
d="M500 704q0 -377 -417 -377v49q368 0 368 328h49zM500 -77v-188h-49v188h49z" />
    <glyph glyph-name="UkaliqDivision_UkaliqModifierDot" unicode="&#xee49;&#x331;" 
d="M500 704v-352v-352h-49v327h-368v49h368v328h49zM500 -77v-188h-49v188h49z" />
    <glyph glyph-name="UkaliqXor_UkaliqModifierDot" unicode="&#xee4a;&#x331;" 
d="M127 704q0 -328 162 -328t162 328h49q0 -377 -211 -377t-211 377h49zM500 -77v-188h-49v188h49z" />
    <glyph glyph-name="uniEE4B_UkaliqModifierDot" unicode="&#xee4b;&#x331;" 
d="M500 -77v-188h-49v188h49zM500 704v-352v-352h-49v327q-373 12 -373 377h49q0 -316 324 -328v328h49z" />
    <glyph glyph-name="UkaliqLetterIji_UkaliqModifierDot" unicode="&#xee4c;&#x331;" 
d="M500 704q0 -377 -335 -377q-38 0 -38 -46v-281h-49v281q0 95 87 95q286 0 286 328h49zM500 -77v-188h-49v188h49z" />
    <glyph glyph-name="UkaliqLetterTkot_UkaliqModifierDot" unicode="&#xee4d;&#x331;" 
d="M500 704v-352v-352h-49v327q-324 -11 -324 -327h-49q0 364 373 376v328h49zM500 -77v-188h-49v188h49z" />
    <glyph glyph-name="UkaliqLetterIsji_UkaliqModifierDot" unicode="&#xee4e;&#x331;" 
d="M500 -77v-188h-49v188h49zM127 327v-327h-49v352v352h49v-328q324 11 324 328h49q0 -366 -373 -377z" />
    <glyph glyph-name="UkaliqLetterOrro_UkaliqModifierDot" unicode="&#xee4f;&#x331;" 
d="M500 -77v-188h-49v188h49zM500 704v-352v-352h-49v327h-324v-327h-49v352v352h49v-328h324v328h49z" />
    <glyph glyph-name="UkaliqDigitZero_UkaliqModifierDot" unicode="&#xee50;&#x331;" 
d="M83 49h412v-49h-412v49zM83 376h412v-49h-412v49zM500 -77v-188h-49v188h49z" />
    <glyph glyph-name="UkaliqDigitOne_UkaliqModifierDot" unicode="&#xee51;&#x331;" 
d="M83 376q417 0 417 -188t-417 -188v49q368 0 368 139t-368 139v49zM500 -77v-188h-49v188h49z" />
    <glyph glyph-name="UkaliqDigitTwo_UkaliqModifierDot" unicode="&#xee52;&#x331;" 
d="M127 704q0 -328 368 -328v-49q-417 0 -417 377h49zM83 49h412v-49h-412v49zM500 -77v-188h-49v188h49z" />
    <glyph glyph-name="UkaliqDigitThree_UkaliqModifierDot" unicode="&#xee53;&#x331;" 
d="M500 -77v-188h-49v188h49zM127 704q0 -328 287 -328q86 0 86 -79q0 -297 -417 -297v49q368 0 368 248q0 30 -37 30q-336 0 -336 377h49z" />
    <glyph glyph-name="UkaliqDigitFour_UkaliqModifierDot" unicode="&#xee54;&#x331;" 
d="M495 327q-368 0 -368 -139t368 -139v-49q-417 0 -417 188t417 188v-49zM500 -77v-188h-49v188h49z" />
    <glyph glyph-name="UkaliqDigitFive_UkaliqModifierDot" unicode="&#xee55;&#x331;" 
d="M500 -77v-188h-49v188h49zM127 188q0 -139 162 -139t162 139t-162 139t-162 -139zM78 188q0 188 211 188t211 -188t-211 -188t-211 188z" />
    <glyph glyph-name="UkaliqDigitSix_UkaliqModifierDot" unicode="&#xee56;&#x331;" 
d="M500 -77v-188h-49v188h49zM128 327q15 -278 367 -278v-49q-417 0 -417 352v352h49v-328h368v-49h-367z" />
    <glyph glyph-name="UkaliqDigitSeven_UkaliqModifierDot" unicode="&#xee57;&#x331;" 
d="M500 -77v-188h-49v188h49zM127 327q7 -278 162 -278q162 0 162 139q0 134 -324 139zM127 376q373 -6 373 -188q0 -188 -211 -188t-211 352v352h49v-328z" />
    <glyph glyph-name="UkaliqDigitEight_UkaliqModifierDot" unicode="&#xee58;&#x331;" 
d="M83 49h412v-49h-412v49zM500 704q0 -377 -417 -377v49q368 0 368 328h49zM500 -77v-188h-49v188h49z" />
    <glyph glyph-name="UkaliqDigitNine_UkaliqModifierDot" unicode="&#xee59;&#x331;" 
d="M500 704v-352q0 -352 -417 -352v49q352 0 367 278h-367v49h368v328h49zM500 -77v-188h-49v188h49z" />
    <glyph glyph-name="UkaliqDigitTen_UkaliqModifierDot" unicode="&#xee5a;&#x331;" 
d="M127 704q0 -328 162 -328t162 328h49q0 -377 -211 -377t-211 377h49zM83 49h412v-49h-412v49zM500 -77v-188h-49v188h49z" />
    <glyph glyph-name="UkaliqDigitEleven_UkaliqModifierDot" unicode="&#xee5b;&#x331;" 
d="M500 -77v-188h-49v188h49zM500 704v-352q0 -352 -417 -352v49q353 0 367 278q-372 12 -372 377h49q0 -316 324 -328v328h49z" />
    <glyph glyph-name="UkaliqDigitTwelve_UkaliqModifierDot" unicode="&#xee5c;&#x331;" 
d="M500 704q0 -377 -335 -377q-38 0 -38 -30q0 -248 368 -248v-49q-417 0 -417 297q0 79 87 79q286 0 286 328h49zM500 -77v-188h-49v188h49z" />
    <glyph glyph-name="UkaliqDigitThirteen_UkaliqModifierDot" unicode="&#xee5d;&#x331;" 
d="M500 704v-352q0 -352 -211 -352t-211 188q0 182 373 188v328h49zM500 -77v-188h-49v188h49zM451 327q-324 -5 -324 -139q0 -139 162 -139q155 0 162 278z" />
    <glyph glyph-name="UkaliqDigitFourteen_UkaliqModifierDot" unicode="&#xee5e;&#x331;" 
d="M500 -77v-188h-49v188h49zM128 327q15 -278 367 -278v-49q-417 0 -417 352v352h49v-328q324 11 324 328h49q0 -365 -372 -377z" />
    <glyph glyph-name="UkaliqDigitFifteen_UkaliqModifierDot" unicode="&#xee5f;&#x331;" 
d="M500 -77v-188h-49v188h49zM451 376v328h49v-352q0 -352 -211 -352t-211 352v352h49v-328h324zM451 327h-324q7 -278 162 -278t162 278z" />
    <glyph glyph-name="UkaliqLetterSchwa_UkaliqModifierDot" unicode="&#xee60;&#x331;" 
d="M83 376h412v-49h-412v49zM500 -77v-188h-49v188h49zM83 704h412v-49h-412v49z" />
    <glyph glyph-name="UkaliqLetterOhgo_UkaliqModifierDot" unicode="&#xee61;&#x331;" 
d="M83 376q417 0 417 -376h-49q0 327 -368 327v49zM500 -77v-188h-49v188h49zM83 704h412v-49h-412v49z" />
    <glyph glyph-name="UkaliqLetterArha_UkaliqModifierDot" unicode="&#xee62;&#x331;" 
d="M495 655q-368 0 -368 -140q0 -139 368 -139v-49q-417 0 -417 188q0 189 417 189v-49zM500 -77v-188h-49v188h49z" />
    <glyph glyph-name="UkaliqLetterAva_UkaliqModifierDot" unicode="&#xee63;&#x331;" 
d="M500 -77v-188h-49v188h49zM495 655q-368 0 -368 -140q0 -139 287 -139q86 0 86 -95v-281h-49v281q0 46 -37 46q-336 0 -336 188q0 189 417 189v-49z" />
    <glyph glyph-name="UkaliqLetterEzre_UkaliqModifierDot" unicode="&#xee64;&#x331;" 
d="M495 327q-368 0 -368 -327h-49q0 376 417 376v-49zM500 -77v-188h-49v188h49zM83 704h412v-49h-412v49z" />
    <glyph glyph-name="UkaliqLetterUghu_UkaliqModifierDot" unicode="&#xee65;&#x331;" 
d="M78 0q0 376 211 376t211 -376h-49q0 327 -162 327t-162 -327h-49zM500 -77v-188h-49v188h49zM83 704h412v-49h-412v49z" />
    <glyph glyph-name="UkaliqLetterIjji_UkaliqModifierDot" unicode="&#xee66;&#x331;" 
d="M500 -77v-188h-49v188h49zM127 327v-327h-49v352q0 352 417 352v-49q-353 0 -367 -279h367v-49h-368z" />
    <glyph glyph-name="UkaliqLetterOdho_UkaliqModifierDot" unicode="&#xee67;&#x331;" 
d="M500 -77v-188h-49v188h49zM127 327v-327h-49v352q0 352 417 352v-49q-353 0 -367 -279q372 -11 372 -376h-49q0 316 -324 327z" />
    <glyph glyph-name="UkaliqLetterOhho_UkaliqModifierDot" unicode="&#xee68;&#x331;" 
d="M83 704q417 0 417 -189q0 -188 -417 -188v49q368 0 368 139q0 140 -368 140v49zM500 -77v-188h-49v188h49z" />
    <glyph glyph-name="UkaliqLetterAha_UkaliqModifierDot" unicode="&#xee69;&#x331;" 
d="M83 704q417 0 417 -352v-352h-49v327h-368v49h367q-14 279 -367 279v49zM500 -77v-188h-49v188h49z" />
    <glyph glyph-name="UkaliqLetterAqha_UkaliqModifierDot" unicode="&#xee6a;&#x331;" 
d="M500 -77v-188h-49v188h49zM127 515q0 -139 162 -139t162 139q0 140 -162 140t-162 -140zM78 515q0 189 211 189t211 -189q0 -188 -211 -188t-211 188z" />
    <glyph glyph-name="UkaliqLetterAfa_UkaliqModifierDot" unicode="&#xee6b;&#x331;" 
d="M500 -77v-188h-49v188h49zM451 376q-6 279 -162 279q-162 0 -162 -140q0 -134 324 -139zM451 327q-373 6 -373 188q0 189 211 189t211 -352v-352h-49v327z" />
    <glyph glyph-name="UkaliqLetterEsre_UkaliqModifierDot" unicode="&#xee6c;&#x331;" 
d="M83 704q417 0 417 -189q0 -188 -335 -188q-38 0 -38 -46v-281h-49v281q0 95 87 95q286 0 286 139q0 140 -368 140v49zM500 -77v-188h-49v188h49z" />
    <glyph glyph-name="UkaliqLetterUkhu_UkaliqModifierDot" unicode="&#xee6d;&#x331;" 
d="M83 704q417 0 417 -352v-352h-49v327q-324 -11 -324 -327h-49q0 364 372 376q-14 279 -367 279v49zM500 -77v-188h-49v188h49z" />
    <glyph glyph-name="UkaliqLetterIcji_UkaliqModifierDot" unicode="&#xee6e;&#x331;" 
d="M500 -77v-188h-49v188h49zM127 327v-327h-49v352q0 352 211 352t211 -189q0 -182 -373 -188zM127 376q324 5 324 139q0 140 -162 140q-156 0 -162 -279z" />
    <glyph glyph-name="UkaliqLetterOtho_UkaliqModifierDot" unicode="&#xee6f;&#x331;" 
d="M500 -77v-188h-49v188h49zM78 0v352q0 352 211 352t211 -352v-352h-49v327h-324v-327h-49zM127 376h324q-6 279 -162 279t-162 -279z" />
    <glyph glyph-name="UkaliqIterationMark_UkaliqModifierDot" unicode="&#xee70;&#x331;" 
d="M83 49h412v-49h-412v49zM83 376h412v-49h-412v49zM500 -77v-188h-49v188h49zM83 704h412v-49h-412v49z" />
    <glyph glyph-name="UkaliqPercent_UkaliqModifierDot" unicode="&#xee71;&#x331;" 
d="M83 376q417 0 417 -188t-417 -188v49q368 0 368 139t-368 139v49zM500 -77v-188h-49v188h49zM83 704h412v-49h-412v49z" />
    <glyph glyph-name="UkaliqLetterAgqa_UkaliqModifierDot" unicode="&#xee72;&#x331;" 
d="M495 655q-368 0 -368 -140q0 -139 368 -139v-49q-417 0 -417 188q0 189 417 189v-49zM83 49h412v-49h-412v49zM500 -77v-188h-49v188h49z" />
    <glyph glyph-name="UkaliqLetterAba_UkaliqModifierDot" unicode="&#xee73;&#x331;" 
d="M500 -77v-188h-49v188h49zM495 655q-368 0 -368 -140q0 -139 287 -139q86 0 86 -79q0 -297 -417 -297v49q368 0 368 248q0 30 -37 30q-336 0 -336 188q0 189 417 189v-49z" />
    <glyph glyph-name="UkaliqLetterEdre_UkaliqModifierDot" unicode="&#xee74;&#x331;" 
d="M495 327q-368 0 -368 -139t368 -139v-49q-417 0 -417 188t417 188v-49zM500 -77v-188h-49v188h49zM83 704h412v-49h-412v49z" />
    <glyph glyph-name="UkaliqLetterUgu_UkaliqModifierDot" unicode="&#xee75;&#x331;" 
d="M500 -77v-188h-49v188h49zM83 704h412v-49h-412v49zM127 188q0 -139 162 -139t162 139t-162 139t-162 -139zM78 188q0 188 211 188t211 -188t-211 -188t-211 188z" />
    <glyph glyph-name="UkaliqLetterIgji_UkaliqModifierDot" unicode="&#xee76;&#x331;" 
d="M500 -77v-188h-49v188h49zM128 327q15 -278 367 -278v-49q-417 0 -417 352t417 352v-49q-353 0 -367 -279h367v-49h-367z" />
    <glyph glyph-name="UkaliqLetterOdo_UkaliqModifierDot" unicode="&#xee77;&#x331;" 
d="M500 -77v-188h-49v188h49zM127 327q7 -278 162 -278q162 0 162 139q0 134 -324 139zM128 376q372 -6 372 -188q0 -188 -211 -188t-211 352t417 352v-49q-353 0 -367 -279z" />
    <glyph glyph-name="UkaliqLetterOhhko_UkaliqModifierDot" unicode="&#xee78;&#x331;" 
d="M83 49h412v-49h-412v49zM83 704q417 0 417 -189q0 -188 -417 -188v49q368 0 368 139q0 140 -368 140v49zM500 -77v-188h-49v188h49z" />
    <glyph glyph-name="UkaliqLetterAhka_UkaliqModifierDot" unicode="&#xee79;&#x331;" 
d="M83 704q417 0 417 -352t-417 -352v49q352 0 367 278h-367v49h367q-14 279 -367 279v49zM500 -77v-188h-49v188h49z" />
    <glyph glyph-name="UkaliqLetterAqa_UkaliqModifierDot" unicode="&#xee7a;&#x331;" 
d="M83 49h412v-49h-412v49zM500 -77v-188h-49v188h49zM127 515q0 -139 162 -139t162 139q0 140 -162 140t-162 -140zM78 515q0 189 211 189t211 -189q0 -188 -211 -188t-211 188z" />
    <glyph glyph-name="UkaliqLetterApa_UkaliqModifierDot" unicode="&#xee7b;&#x331;" 
d="M500 -77v-188h-49v188h49zM451 376q-6 279 -162 279q-162 0 -162 -140q0 -134 324 -139zM450 327q-372 6 -372 188q0 189 211 189t211 -352t-417 -352v49q352 0 367 278z" />
    <glyph glyph-name="UkaliqLetterEtre_UkaliqModifierDot" unicode="&#xee7c;&#x331;" 
d="M83 704q417 0 417 -189q0 -188 -335 -188q-38 0 -38 -30q0 -248 368 -248v-49q-417 0 -417 297q0 79 87 79q286 0 286 139q0 140 -368 140v49zM500 -77v-188h-49v188h49z" />
    <glyph glyph-name="UkaliqLetterUku_UkaliqModifierDot" unicode="&#xee7d;&#x331;" 
d="M83 704q417 0 417 -352t-211 -352t-211 188q0 182 372 188q-14 279 -367 279v49zM500 -77v-188h-49v188h49zM451 327q-324 -5 -324 -139q0 -139 162 -139q155 0 162 278z" />
    <glyph glyph-name="UkaliqLetterIci_UkaliqModifierDot" unicode="&#xee7e;&#x331;" 
d="M500 -77v-188h-49v188h49zM128 327q15 -278 367 -278v-49q-417 0 -417 352t211 352t211 -189q0 -182 -372 -188zM127 376q324 5 324 139q0 140 -162 140q-156 0 -162 -279z" />
    <glyph glyph-name="UkaliqLetterOto_UkaliqModifierDot" unicode="&#xee7f;&#x331;" 
d="M500 -77v-188h-49v188h49zM127 376h324q-6 279 -162 279t-162 -279zM451 327h-324q7 -278 162 -278t162 278zM78 352q0 352 211 352t211 -352t-211 -352t-211 352z" />
    <glyph glyph-name="UkaliqPatternBlank_UkaliqModifierDot" unicode="&#xf1d00;&#x331;" 
d="M500 -77v-188h-49v188h49z" />
    <glyph glyph-name="UkaliqPatternSegmentsC_UkaliqModifierDot" unicode="&#xf1d01;&#x331;" 
d="M500 376v-376h-49v376h49zM500 -77v-188h-49v188h49z" />
    <glyph glyph-name="UkaliqPatternSegmentsF_UkaliqModifierDot" unicode="&#xf1d02;&#x331;" 
d="M127 704v-377h-49v377h49zM500 -77v-188h-49v188h49z" />
    <glyph glyph-name="UkaliqPatternSegmentsCf_UkaliqModifierDot" unicode="&#xf1d03;&#x331;" 
d="M500 376v-376h-49v376h49zM127 704v-377h-49v377h49zM500 -77v-188h-49v188h49z" />
    <glyph glyph-name="UkaliqPatternSegmentsE_UkaliqModifierDot" unicode="&#xf1d04;&#x331;" 
d="M127 376v-376h-49v376h49zM500 -77v-188h-49v188h49z" />
    <glyph glyph-name="UkaliqPatternSegmentsCe_UkaliqModifierDot" unicode="&#xf1d05;&#x331;" 
d="M500 376v-376h-49v376h49zM127 376v-376h-49v376h49zM500 -77v-188h-49v188h49z" />
    <glyph glyph-name="UkaliqPatternSegmentsEf_UkaliqModifierDot" unicode="&#xf1d06;&#x331;" 
d="M127 704v-704h-49v704h49zM500 -77v-188h-49v188h49z" />
    <glyph glyph-name="UkaliqPatternSegmentsCef_UkaliqModifierDot" unicode="&#xf1d07;&#x331;" 
d="M127 704v-704h-49v704h49zM500 376v-376h-49v376h49zM500 -77v-188h-49v188h49z" />
    <glyph glyph-name="UkaliqPatternSegmentsB_UkaliqModifierDot" unicode="&#xf1d08;&#x331;" 
d="M500 704v-377h-49v377h49zM500 -77v-188h-49v188h49z" />
    <glyph glyph-name="UkaliqPatternSegmentsBc_UkaliqModifierDot" unicode="&#xf1d09;&#x331;" 
d="M500 704v-704h-49v704h49zM500 -77v-188h-49v188h49z" />
    <glyph glyph-name="UkaliqPatternSegmentsBf_UkaliqModifierDot" unicode="&#xf1d0a;&#x331;" 
d="M127 704v-377h-49v377h49zM500 704v-377h-49v377h49zM500 -77v-188h-49v188h49z" />
    <glyph glyph-name="UkaliqPatternSegmentsBcf_UkaliqModifierDot" unicode="&#xf1d0b;&#x331;" 
d="M500 704v-704h-49v704h49zM127 704v-377h-49v377h49zM500 -77v-188h-49v188h49z" />
    <glyph glyph-name="UkaliqPatternSegmentsBe_UkaliqModifierDot" unicode="&#xf1d0c;&#x331;" 
d="M500 704v-377h-49v377h49zM127 376v-376h-49v376h49zM500 -77v-188h-49v188h49z" />
    <glyph glyph-name="UkaliqPatternSegmentsBce_UkaliqModifierDot" unicode="&#xf1d0d;&#x331;" 
d="M500 704v-704h-49v704h49zM127 376v-376h-49v376h49zM500 -77v-188h-49v188h49z" />
    <glyph glyph-name="UkaliqPatternSegmentsBef_UkaliqModifierDot" unicode="&#xf1d0e;&#x331;" 
d="M127 704v-704h-49v704h49zM500 704v-377h-49v377h49zM500 -77v-188h-49v188h49z" />
    <glyph glyph-name="UkaliqPatternSegmentsBcef_UkaliqModifierDot" unicode="&#xf1d0f;&#x331;" 
d="M500 704v-704h-49v704h49zM127 704v-704h-49v704h49zM500 -77v-188h-49v188h49z" />
    <glyph glyph-name="UkaliqPatternSegmentsD_UkaliqModifierDot" unicode="&#xf1d10;&#x331;" 
d="M83 49h412v-49h-412v49zM500 -77v-188h-49v188h49z" />
    <glyph glyph-name="UkaliqPatternSegmentsCd_UkaliqModifierDot" unicode="&#xf1d11;&#x331;" 
d="M500 -77v-188h-49v188h49zM500 376q0 -376 -417 -376v49q368 0 368 327h49z" />
    <glyph glyph-name="UkaliqPatternSegmentsDf_UkaliqModifierDot" unicode="&#xf1d12;&#x331;" 
d="M83 49h412v-49h-412v49zM127 704v-377h-49v377h49zM500 -77v-188h-49v188h49z" />
    <glyph glyph-name="UkaliqPatternSegmentsCdf_UkaliqModifierDot" unicode="&#xf1d13;&#x331;" 
d="M127 704v-377h-49v377h49zM500 -77v-188h-49v188h49zM500 376q0 -376 -417 -376v49q368 0 368 327h49z" />
    <glyph glyph-name="UkaliqPatternSegmentsDe_UkaliqModifierDot" unicode="&#xf1d14;&#x331;" 
d="M127 376q0 -327 368 -327v-49q-417 0 -417 376h49zM500 -77v-188h-49v188h49z" />
    <glyph glyph-name="UkaliqPatternSegmentsCde_UkaliqModifierDot" unicode="&#xf1d15;&#x331;" 
d="M127 376q0 -327 162 -327t162 327h49q0 -376 -211 -376t-211 376h49zM500 -77v-188h-49v188h49z" />
    <glyph glyph-name="UkaliqPatternSegmentsDef_UkaliqModifierDot" unicode="&#xf1d16;&#x331;" 
d="M127 704v-227q0 -428 368 -428v-49q-417 0 -417 477v227h49zM500 -77v-188h-49v188h49z" />
    <glyph glyph-name="UkaliqPatternSegmentsCdef_UkaliqModifierDot" unicode="&#xf1d17;&#x331;" 
d="M127 704v-227q0 -428 162 -428t162 327h49q0 -376 -211 -376t-211 477v227h49zM500 -77v-188h-49v188h49z" />
    <glyph glyph-name="UkaliqPatternSegmentsBd_UkaliqModifierDot" unicode="&#xf1d18;&#x331;" 
d="M83 49h412v-49h-412v49zM500 704v-377h-49v377h49zM500 -77v-188h-49v188h49z" />
    <glyph glyph-name="UkaliqPatternSegmentsBcd_UkaliqModifierDot" unicode="&#xf1d19;&#x331;" 
d="M500 704v-227q0 -477 -417 -477v49q368 0 368 428v227h49zM500 -77v-188h-49v188h49z" />
    <glyph glyph-name="UkaliqPatternSegmentsBdf_UkaliqModifierDot" unicode="&#xf1d1a;&#x331;" 
d="M83 49h412v-49h-412v49zM127 704v-377h-49v377h49zM500 704v-377h-49v377h49zM500 -77v-188h-49v188h49z" />
    <glyph glyph-name="UkaliqPatternSegmentsBcdf_UkaliqModifierDot" unicode="&#xf1d1b;&#x331;" 
d="M127 704v-377h-49v377h49zM500 704v-227q0 -477 -417 -477v49q368 0 368 428v227h49zM500 -77v-188h-49v188h49z" />
    <glyph glyph-name="UkaliqPatternSegmentsBde_UkaliqModifierDot" unicode="&#xf1d1c;&#x331;" 
d="M127 376q0 -327 368 -327v-49q-417 0 -417 376h49zM500 704v-377h-49v377h49zM500 -77v-188h-49v188h49z" />
    <glyph glyph-name="UkaliqPatternSegmentsBcde_UkaliqModifierDot" unicode="&#xf1d1d;&#x331;" 
d="M500 704v-227q0 -477 -211 -477t-211 376h49q0 -327 162 -327t162 428v227h49zM500 -77v-188h-49v188h49z" />
    <glyph glyph-name="UkaliqPatternSegmentsBdef_UkaliqModifierDot" unicode="&#xf1d1e;&#x331;" 
d="M127 704v-227q0 -428 368 -428v-49q-417 0 -417 477v227h49zM500 704v-377h-49v377h49zM500 -77v-188h-49v188h49z" />
    <glyph glyph-name="UkaliqPatternSegmentsBcdef_UkaliqModifierDot" unicode="&#xf1d1f;&#x331;" 
d="M127 704v-227q0 -428 162 -428t162 428v227h49v-227q0 -477 -211 -477t-211 477v227h49zM500 -77v-188h-49v188h49z" />
    <glyph glyph-name="UkaliqPatternSegmentsA_UkaliqModifierDot" unicode="&#xf1d20;&#x331;" 
d="M500 -77v-188h-49v188h49zM83 704h412v-49h-412v49z" />
    <glyph glyph-name="UkaliqPatternSegmentsAc_UkaliqModifierDot" unicode="&#xf1d21;&#x331;" 
d="M500 376v-376h-49v376h49zM500 -77v-188h-49v188h49zM83 704h412v-49h-412v49z" />
    <glyph glyph-name="UkaliqPatternSegmentsAf_UkaliqModifierDot" unicode="&#xf1d22;&#x331;" 
d="M495 655q-368 0 -368 -328h-49q0 377 417 377v-49zM500 -77v-188h-49v188h49z" />
    <glyph glyph-name="UkaliqPatternSegmentsAcf_UkaliqModifierDot" unicode="&#xf1d23;&#x331;" 
d="M500 376v-376h-49v376h49zM495 655q-368 0 -368 -328h-49q0 377 417 377v-49zM500 -77v-188h-49v188h49z" />
    <glyph glyph-name="UkaliqPatternSegmentsAe_UkaliqModifierDot" unicode="&#xf1d24;&#x331;" 
d="M127 376v-376h-49v376h49zM500 -77v-188h-49v188h49zM83 704h412v-49h-412v49z" />
    <glyph glyph-name="UkaliqPatternSegmentsAce_UkaliqModifierDot" unicode="&#xf1d25;&#x331;" 
d="M500 376v-376h-49v376h49zM127 376v-376h-49v376h49zM500 -77v-188h-49v188h49zM83 704h412v-49h-412v49z" />
    <glyph glyph-name="UkaliqPatternSegmentsAef_UkaliqModifierDot" unicode="&#xf1d26;&#x331;" 
d="M495 655q-368 0 -368 -429v-226h-49v226q0 478 417 478v-49zM500 -77v-188h-49v188h49z" />
    <glyph glyph-name="UkaliqPatternSegmentsAcef_UkaliqModifierDot" unicode="&#xf1d27;&#x331;" 
d="M495 655q-368 0 -368 -429v-226h-49v226q0 478 417 478v-49zM500 376v-376h-49v376h49zM500 -77v-188h-49v188h49z" />
    <glyph glyph-name="UkaliqPatternSegmentsAb_UkaliqModifierDot" unicode="&#xf1d28;&#x331;" 
d="M83 704q417 0 417 -377h-49q0 328 -368 328v49zM500 -77v-188h-49v188h49z" />
    <glyph glyph-name="UkaliqPatternSegmentsAbc_UkaliqModifierDot" unicode="&#xf1d29;&#x331;" 
d="M83 704q417 0 417 -478v-226h-49v226q0 429 -368 429v49zM500 -77v-188h-49v188h49z" />
    <glyph glyph-name="UkaliqPatternSegmentsAbf_UkaliqModifierDot" unicode="&#xf1d2a;&#x331;" 
d="M78 327q0 377 211 377t211 -377h-49q0 328 -162 328t-162 -328h-49zM500 -77v-188h-49v188h49z" />
    <glyph glyph-name="UkaliqPatternSegmentsAbcf_UkaliqModifierDot" unicode="&#xf1d2b;&#x331;" 
d="M78 327q0 377 211 377t211 -478v-226h-49v226q0 429 -162 429t-162 -328h-49zM500 -77v-188h-49v188h49z" />
    <glyph glyph-name="UkaliqPatternSegmentsAbe_UkaliqModifierDot" unicode="&#xf1d2c;&#x331;" 
d="M83 704q417 0 417 -377h-49q0 328 -368 328v49zM127 376v-376h-49v376h49zM500 -77v-188h-49v188h49z" />
    <glyph glyph-name="UkaliqPatternSegmentsAbce_UkaliqModifierDot" unicode="&#xf1d2d;&#x331;" 
d="M83 704q417 0 417 -478v-226h-49v226q0 429 -368 429v49zM127 376v-376h-49v376h49zM500 -77v-188h-49v188h49z" />
    <glyph glyph-name="UkaliqPatternSegmentsAbef_UkaliqModifierDot" unicode="&#xf1d2e;&#x331;" 
d="M451 327q0 328 -162 328t-162 -429v-226h-49v226q0 478 211 478t211 -377h-49zM500 -77v-188h-49v188h49z" />
    <glyph glyph-name="UkaliqPatternSegmentsAbcef_UkaliqModifierDot" unicode="&#xf1d2f;&#x331;" 
d="M78 0v226q0 478 211 478t211 -478v-226h-49v226q0 429 -162 429t-162 -429v-226h-49zM500 -77v-188h-49v188h49z" />
    <glyph glyph-name="UkaliqPatternSegmentsAd_UkaliqModifierDot" unicode="&#xf1d30;&#x331;" 
d="M83 49h412v-49h-412v49zM500 -77v-188h-49v188h49zM83 704h412v-49h-412v49z" />
    <glyph glyph-name="UkaliqPatternSegmentsAcd_UkaliqModifierDot" unicode="&#xf1d31;&#x331;" 
d="M500 -77v-188h-49v188h49zM500 376q0 -376 -417 -376v49q368 0 368 327h49zM83 704h412v-49h-412v49z" />
    <glyph glyph-name="UkaliqPatternSegmentsAdf_UkaliqModifierDot" unicode="&#xf1d32;&#x331;" 
d="M83 49h412v-49h-412v49zM495 655q-368 0 -368 -328h-49q0 377 417 377v-49zM500 -77v-188h-49v188h49z" />
    <glyph glyph-name="UkaliqPatternSegmentsAcdf_UkaliqModifierDot" unicode="&#xf1d33;&#x331;" 
d="M495 655q-368 0 -368 -328h-49q0 377 417 377v-49zM500 -77v-188h-49v188h49zM500 376q0 -376 -417 -376v49q368 0 368 327h49z" />
    <glyph glyph-name="UkaliqPatternSegmentsAde_UkaliqModifierDot" unicode="&#xf1d34;&#x331;" 
d="M127 376q0 -327 368 -327v-49q-417 0 -417 376h49zM500 -77v-188h-49v188h49zM83 704h412v-49h-412v49z" />
    <glyph glyph-name="UkaliqPatternSegmentsAcde_UkaliqModifierDot" unicode="&#xf1d35;&#x331;" 
d="M127 376q0 -327 162 -327t162 327h49q0 -376 -211 -376t-211 376h49zM500 -77v-188h-49v188h49zM83 704h412v-49h-412v49z" />
    <glyph glyph-name="UkaliqPatternSegmentsAdef_UkaliqModifierDot" unicode="&#xf1d36;&#x331;" 
d="M495 655q-368 0 -368 -303t368 -303v-49q-417 0 -417 352t417 352v-49zM500 -77v-188h-49v188h49z" />
    <glyph glyph-name="UkaliqPatternSegmentsAcdef_UkaliqModifierDot" unicode="&#xf1d37;&#x331;" 
d="M495 655q-368 0 -368 -303t162 -303t162 327h49q0 -376 -211 -376t-211 352t417 352v-49zM500 -77v-188h-49v188h49z" />
    <glyph glyph-name="UkaliqPatternSegmentsAbd_UkaliqModifierDot" unicode="&#xf1d38;&#x331;" 
d="M83 49h412v-49h-412v49zM83 704q417 0 417 -377h-49q0 328 -368 328v49zM500 -77v-188h-49v188h49z" />
    <glyph glyph-name="UkaliqPatternSegmentsAbcd_UkaliqModifierDot" unicode="&#xf1d39;&#x331;" 
d="M83 704q417 0 417 -352t-417 -352v49q368 0 368 303t-368 303v49zM500 -77v-188h-49v188h49z" />
    <glyph glyph-name="UkaliqPatternSegmentsAbdf_UkaliqModifierDot" unicode="&#xf1d3a;&#x331;" 
d="M83 49h412v-49h-412v49zM78 327q0 377 211 377t211 -377h-49q0 328 -162 328t-162 -328h-49zM500 -77v-188h-49v188h49z" />
    <glyph glyph-name="UkaliqPatternSegmentsAbcdf_UkaliqModifierDot" unicode="&#xf1d3b;&#x331;" 
d="M78 327q0 377 211 377t211 -352t-417 -352v49q368 0 368 303t-162 303t-162 -328h-49zM500 -77v-188h-49v188h49z" />
    <glyph glyph-name="UkaliqPatternSegmentsAbde_UkaliqModifierDot" unicode="&#xf1d3c;&#x331;" 
d="M83 704q417 0 417 -377h-49q0 328 -368 328v49zM127 376q0 -327 368 -327v-49q-417 0 -417 376h49zM500 -77v-188h-49v188h49z" />
    <glyph glyph-name="UkaliqPatternSegmentsAbcde_UkaliqModifierDot" unicode="&#xf1d3d;&#x331;" 
d="M83 704q417 0 417 -352t-211 -352t-211 376h49q0 -327 162 -327t162 303t-368 303v49zM500 -77v-188h-49v188h49z" />
    <glyph glyph-name="UkaliqPatternSegmentsAbdef_UkaliqModifierDot" unicode="&#xf1d3e;&#x331;" 
d="M451 327q0 328 -162 328t-162 -303t368 -303v-49q-417 0 -417 352t211 352t211 -377h-49zM500 -77v-188h-49v188h49z" />
    <glyph glyph-name="UkaliqPatternSegmentsAbcdef_UkaliqModifierDot" unicode="&#xf1d3f;&#x331;" 
d="M500 -77v-188h-49v188h49zM127 352q0 -303 162 -303t162 303t-162 303t-162 -303zM78 352q0 352 211 352t211 -352t-211 -352t-211 352z" />
    <glyph glyph-name="UkaliqPatternSegmentsG_UkaliqModifierDot" unicode="&#xf1d40;&#x331;" 
d="M83 376h412v-49h-412v49zM500 -77v-188h-49v188h49z" />
    <glyph glyph-name="UkaliqPatternSegmentsCg_UkaliqModifierDot" unicode="&#xf1d41;&#x331;" 
d="M83 376q417 0 417 -376h-49q0 327 -368 327v49zM500 -77v-188h-49v188h49z" />
    <glyph glyph-name="UkaliqPatternSegmentsFg_UkaliqModifierDot" unicode="&#xf1d42;&#x331;" 
d="M127 704q0 -328 368 -328v-49q-417 0 -417 377h49zM500 -77v-188h-49v188h49z" />
    <glyph glyph-name="UkaliqPatternSegmentsCfg_UkaliqModifierDot" unicode="&#xf1d43;&#x331;" 
d="M500 -77v-188h-49v188h49zM127 704q0 -328 287 -328q86 0 86 -95v-281h-49v281q0 46 -37 46q-336 0 -336 377h49z" />
    <glyph glyph-name="UkaliqPatternSegmentsEg_UkaliqModifierDot" unicode="&#xf1d44;&#x331;" 
d="M495 327q-368 0 -368 -327h-49q0 376 417 376v-49zM500 -77v-188h-49v188h49z" />
    <glyph glyph-name="UkaliqPatternSegmentsCeg_UkaliqModifierDot" unicode="&#xf1d45;&#x331;" 
d="M78 0q0 376 211 376t211 -376h-49q0 327 -162 327t-162 -327h-49zM500 -77v-188h-49v188h49z" />
    <glyph glyph-name="UkaliqPatternSegmentsEfg_UkaliqModifierDot" unicode="&#xf1d46;&#x331;" 
d="M500 -77v-188h-49v188h49zM127 327v-327h-49v352v352h49v-328h368v-49h-368z" />
    <glyph glyph-name="UkaliqPatternSegmentsCefg_UkaliqModifierDot" unicode="&#xf1d47;&#x331;" 
d="M500 -77v-188h-49v188h49zM127 327v-327h-49v352v352h49v-328q373 -11 373 -376h-49q0 316 -324 327z" />
    <glyph glyph-name="UkaliqPatternSegmentsBg_UkaliqModifierDot" unicode="&#xf1d48;&#x331;" 
d="M500 704q0 -377 -417 -377v49q368 0 368 328h49zM500 -77v-188h-49v188h49z" />
    <glyph glyph-name="UkaliqPatternSegmentsBcg_UkaliqModifierDot" unicode="&#xf1d49;&#x331;" 
d="M500 704v-352v-352h-49v327h-368v49h368v328h49zM500 -77v-188h-49v188h49z" />
    <glyph glyph-name="UkaliqPatternSegmentsBfg_UkaliqModifierDot" unicode="&#xf1d4a;&#x331;" 
d="M127 704q0 -328 162 -328t162 328h49q0 -377 -211 -377t-211 377h49zM500 -77v-188h-49v188h49z" />
    <glyph glyph-name="UkaliqPatternSegmentsBcfg_UkaliqModifierDot" unicode="&#xf1d4b;&#x331;" 
d="M500 -77v-188h-49v188h49zM500 704v-352v-352h-49v327q-373 12 -373 377h49q0 -316 324 -328v328h49z" />
    <glyph glyph-name="UkaliqPatternSegmentsBeg_UkaliqModifierDot" unicode="&#xf1d4c;&#x331;" 
d="M500 704q0 -377 -335 -377q-38 0 -38 -46v-281h-49v281q0 95 87 95q286 0 286 328h49zM500 -77v-188h-49v188h49z" />
    <glyph glyph-name="UkaliqPatternSegmentsBceg_UkaliqModifierDot" unicode="&#xf1d4d;&#x331;" 
d="M500 704v-352v-352h-49v327q-324 -11 -324 -327h-49q0 364 373 376v328h49zM500 -77v-188h-49v188h49z" />
    <glyph glyph-name="UkaliqPatternSegmentsBefg_UkaliqModifierDot" unicode="&#xf1d4e;&#x331;" 
d="M500 -77v-188h-49v188h49zM127 327v-327h-49v352v352h49v-328q324 11 324 328h49q0 -366 -373 -377z" />
    <glyph glyph-name="UkaliqPatternSegmentsBcefg_UkaliqModifierDot" unicode="&#xf1d4f;&#x331;" 
d="M500 -77v-188h-49v188h49zM500 704v-352v-352h-49v327h-324v-327h-49v352v352h49v-328h324v328h49z" />
    <glyph glyph-name="UkaliqPatternSegmentsDg_UkaliqModifierDot" unicode="&#xf1d50;&#x331;" 
d="M83 49h412v-49h-412v49zM83 376h412v-49h-412v49zM500 -77v-188h-49v188h49z" />
    <glyph glyph-name="UkaliqPatternSegmentsCdg_UkaliqModifierDot" unicode="&#xf1d51;&#x331;" 
d="M83 376q417 0 417 -188t-417 -188v49q368 0 368 139t-368 139v49zM500 -77v-188h-49v188h49z" />
    <glyph glyph-name="UkaliqPatternSegmentsDfg_UkaliqModifierDot" unicode="&#xf1d52;&#x331;" 
d="M127 704q0 -328 368 -328v-49q-417 0 -417 377h49zM83 49h412v-49h-412v49zM500 -77v-188h-49v188h49z" />
    <glyph glyph-name="UkaliqPatternSegmentsCdfg_UkaliqModifierDot" unicode="&#xf1d53;&#x331;" 
d="M500 -77v-188h-49v188h49zM127 704q0 -328 287 -328q86 0 86 -79q0 -297 -417 -297v49q368 0 368 248q0 30 -37 30q-336 0 -336 377h49z" />
    <glyph glyph-name="UkaliqPatternSegmentsDeg_UkaliqModifierDot" unicode="&#xf1d54;&#x331;" 
d="M495 327q-368 0 -368 -139t368 -139v-49q-417 0 -417 188t417 188v-49zM500 -77v-188h-49v188h49z" />
    <glyph glyph-name="UkaliqPatternSegmentsCdeg_UkaliqModifierDot" unicode="&#xf1d55;&#x331;" 
d="M500 -77v-188h-49v188h49zM127 188q0 -139 162 -139t162 139t-162 139t-162 -139zM78 188q0 188 211 188t211 -188t-211 -188t-211 188z" />
    <glyph glyph-name="UkaliqPatternSegmentsDefg_UkaliqModifierDot" unicode="&#xf1d56;&#x331;" 
d="M500 -77v-188h-49v188h49zM128 327q15 -278 367 -278v-49q-417 0 -417 352v352h49v-328h368v-49h-367z" />
    <glyph glyph-name="UkaliqPatternSegmentsCdefg_UkaliqModifierDot" unicode="&#xf1d57;&#x331;" 
d="M500 -77v-188h-49v188h49zM127 327q7 -278 162 -278q162 0 162 139q0 134 -324 139zM127 376q373 -6 373 -188q0 -188 -211 -188t-211 352v352h49v-328z" />
    <glyph glyph-name="UkaliqPatternSegmentsBdg_UkaliqModifierDot" unicode="&#xf1d58;&#x331;" 
d="M83 49h412v-49h-412v49zM500 704q0 -377 -417 -377v49q368 0 368 328h49zM500 -77v-188h-49v188h49z" />
    <glyph glyph-name="UkaliqPatternSegmentsBcdg_UkaliqModifierDot" unicode="&#xf1d59;&#x331;" 
d="M500 704v-352q0 -352 -417 -352v49q352 0 367 278h-367v49h368v328h49zM500 -77v-188h-49v188h49z" />
    <glyph glyph-name="UkaliqPatternSegmentsBdfg_UkaliqModifierDot" unicode="&#xf1d5a;&#x331;" 
d="M127 704q0 -328 162 -328t162 328h49q0 -377 -211 -377t-211 377h49zM83 49h412v-49h-412v49zM500 -77v-188h-49v188h49z" />
    <glyph glyph-name="UkaliqPatternSegmentsBcdfg_UkaliqModifierDot" unicode="&#xf1d5b;&#x331;" 
d="M500 -77v-188h-49v188h49zM500 704v-352q0 -352 -417 -352v49q353 0 367 278q-372 12 -372 377h49q0 -316 324 -328v328h49z" />
    <glyph glyph-name="UkaliqPatternSegmentsBdeg_UkaliqModifierDot" unicode="&#xf1d5c;&#x331;" 
d="M500 704q0 -377 -335 -377q-38 0 -38 -30q0 -248 368 -248v-49q-417 0 -417 297q0 79 87 79q286 0 286 328h49zM500 -77v-188h-49v188h49z" />
    <glyph glyph-name="UkaliqPatternSegmentsBcdeg_UkaliqModifierDot" unicode="&#xf1d5d;&#x331;" 
d="M500 704v-352q0 -352 -211 -352t-211 188q0 182 373 188v328h49zM500 -77v-188h-49v188h49zM451 327q-324 -5 -324 -139q0 -139 162 -139q155 0 162 278z" />
    <glyph glyph-name="UkaliqPatternSegmentsBdefg_UkaliqModifierDot" unicode="&#xf1d5e;&#x331;" 
d="M500 -77v-188h-49v188h49zM128 327q15 -278 367 -278v-49q-417 0 -417 352v352h49v-328q324 11 324 328h49q0 -365 -372 -377z" />
    <glyph glyph-name="UkaliqPatternSegmentsBcdefg_UkaliqModifierDot" unicode="&#xf1d5f;&#x331;" 
d="M500 -77v-188h-49v188h49zM451 376v328h49v-352q0 -352 -211 -352t-211 352v352h49v-328h324zM451 327h-324q7 -278 162 -278t162 278z" />
    <glyph glyph-name="UkaliqPatternSegmentsAg_UkaliqModifierDot" unicode="&#xf1d60;&#x331;" 
d="M83 376h412v-49h-412v49zM500 -77v-188h-49v188h49zM83 704h412v-49h-412v49z" />
    <glyph glyph-name="UkaliqPatternSegmentsAcg_UkaliqModifierDot" unicode="&#xf1d61;&#x331;" 
d="M83 376q417 0 417 -376h-49q0 327 -368 327v49zM500 -77v-188h-49v188h49zM83 704h412v-49h-412v49z" />
    <glyph glyph-name="UkaliqPatternSegmentsAfg_UkaliqModifierDot" unicode="&#xf1d62;&#x331;" 
d="M495 655q-368 0 -368 -140q0 -139 368 -139v-49q-417 0 -417 188q0 189 417 189v-49zM500 -77v-188h-49v188h49z" />
    <glyph glyph-name="UkaliqPatternSegmentsAcfg_UkaliqModifierDot" unicode="&#xf1d63;&#x331;" 
d="M500 -77v-188h-49v188h49zM495 655q-368 0 -368 -140q0 -139 287 -139q86 0 86 -95v-281h-49v281q0 46 -37 46q-336 0 -336 188q0 189 417 189v-49z" />
    <glyph glyph-name="UkaliqPatternSegmentsAeg_UkaliqModifierDot" unicode="&#xf1d64;&#x331;" 
d="M495 327q-368 0 -368 -327h-49q0 376 417 376v-49zM500 -77v-188h-49v188h49zM83 704h412v-49h-412v49z" />
    <glyph glyph-name="UkaliqPatternSegmentsAceg_UkaliqModifierDot" unicode="&#xf1d65;&#x331;" 
d="M78 0q0 376 211 376t211 -376h-49q0 327 -162 327t-162 -327h-49zM500 -77v-188h-49v188h49zM83 704h412v-49h-412v49z" />
    <glyph glyph-name="UkaliqPatternSegmentsAefg_UkaliqModifierDot" unicode="&#xf1d66;&#x331;" 
d="M500 -77v-188h-49v188h49zM127 327v-327h-49v352q0 352 417 352v-49q-353 0 -367 -279h367v-49h-368z" />
    <glyph glyph-name="UkaliqPatternSegmentsAcefg_UkaliqModifierDot" unicode="&#xf1d67;&#x331;" 
d="M500 -77v-188h-49v188h49zM127 327v-327h-49v352q0 352 417 352v-49q-353 0 -367 -279q372 -11 372 -376h-49q0 316 -324 327z" />
    <glyph glyph-name="UkaliqPatternSegmentsAbg_UkaliqModifierDot" unicode="&#xf1d68;&#x331;" 
d="M83 704q417 0 417 -189q0 -188 -417 -188v49q368 0 368 139q0 140 -368 140v49zM500 -77v-188h-49v188h49z" />
    <glyph glyph-name="UkaliqPatternSegmentsAbcg_UkaliqModifierDot" unicode="&#xf1d69;&#x331;" 
d="M83 704q417 0 417 -352v-352h-49v327h-368v49h367q-14 279 -367 279v49zM500 -77v-188h-49v188h49z" />
    <glyph glyph-name="UkaliqPatternSegmentsAbfg_UkaliqModifierDot" unicode="&#xf1d6a;&#x331;" 
d="M500 -77v-188h-49v188h49zM127 515q0 -139 162 -139t162 139q0 140 -162 140t-162 -140zM78 515q0 189 211 189t211 -189q0 -188 -211 -188t-211 188z" />
    <glyph glyph-name="UkaliqPatternSegmentsAbcfg_UkaliqModifierDot" unicode="&#xf1d6b;&#x331;" 
d="M500 -77v-188h-49v188h49zM451 376q-6 279 -162 279q-162 0 -162 -140q0 -134 324 -139zM451 327q-373 6 -373 188q0 189 211 189t211 -352v-352h-49v327z" />
    <glyph glyph-name="UkaliqPatternSegmentsAbeg_UkaliqModifierDot" unicode="&#xf1d6c;&#x331;" 
d="M83 704q417 0 417 -189q0 -188 -335 -188q-38 0 -38 -46v-281h-49v281q0 95 87 95q286 0 286 139q0 140 -368 140v49zM500 -77v-188h-49v188h49z" />
    <glyph glyph-name="UkaliqPatternSegmentsAbceg_UkaliqModifierDot" unicode="&#xf1d6d;&#x331;" 
d="M83 704q417 0 417 -352v-352h-49v327q-324 -11 -324 -327h-49q0 364 372 376q-14 279 -367 279v49zM500 -77v-188h-49v188h49z" />
    <glyph glyph-name="UkaliqPatternSegmentsAbefg_UkaliqModifierDot" unicode="&#xf1d6e;&#x331;" 
d="M500 -77v-188h-49v188h49zM127 327v-327h-49v352q0 352 211 352t211 -189q0 -182 -373 -188zM127 376q324 5 324 139q0 140 -162 140q-156 0 -162 -279z" />
    <glyph glyph-name="UkaliqPatternSegmentsAbcefg_UkaliqModifierDot" unicode="&#xf1d6f;&#x331;" 
d="M500 -77v-188h-49v188h49zM78 0v352q0 352 211 352t211 -352v-352h-49v327h-324v-327h-49zM127 376h324q-6 279 -162 279t-162 -279z" />
    <glyph glyph-name="UkaliqPatternSegmentsAdg_UkaliqModifierDot" unicode="&#xf1d70;&#x331;" 
d="M83 49h412v-49h-412v49zM83 376h412v-49h-412v49zM500 -77v-188h-49v188h49zM83 704h412v-49h-412v49z" />
    <glyph glyph-name="UkaliqPatternSegmentsAcdg_UkaliqModifierDot" unicode="&#xf1d71;&#x331;" 
d="M83 376q417 0 417 -188t-417 -188v49q368 0 368 139t-368 139v49zM500 -77v-188h-49v188h49zM83 704h412v-49h-412v49z" />
    <glyph glyph-name="UkaliqPatternSegmentsAdfg_UkaliqModifierDot" unicode="&#xf1d72;&#x331;" 
d="M495 655q-368 0 -368 -140q0 -139 368 -139v-49q-417 0 -417 188q0 189 417 189v-49zM83 49h412v-49h-412v49zM500 -77v-188h-49v188h49z" />
    <glyph glyph-name="UkaliqPatternSegmentsAcdfg_UkaliqModifierDot" unicode="&#xf1d73;&#x331;" 
d="M500 -77v-188h-49v188h49zM495 655q-368 0 -368 -140q0 -139 287 -139q86 0 86 -79q0 -297 -417 -297v49q368 0 368 248q0 30 -37 30q-336 0 -336 188q0 189 417 189v-49z" />
    <glyph glyph-name="UkaliqPatternSegmentsAdeg_UkaliqModifierDot" unicode="&#xf1d74;&#x331;" 
d="M495 327q-368 0 -368 -139t368 -139v-49q-417 0 -417 188t417 188v-49zM500 -77v-188h-49v188h49zM83 704h412v-49h-412v49z" />
    <glyph glyph-name="UkaliqPatternSegmentsAcdeg_UkaliqModifierDot" unicode="&#xf1d75;&#x331;" 
d="M500 -77v-188h-49v188h49zM83 704h412v-49h-412v49zM127 188q0 -139 162 -139t162 139t-162 139t-162 -139zM78 188q0 188 211 188t211 -188t-211 -188t-211 188z" />
    <glyph glyph-name="UkaliqPatternSegmentsAdefg_UkaliqModifierDot" unicode="&#xf1d76;&#x331;" 
d="M500 -77v-188h-49v188h49zM128 327q15 -278 367 -278v-49q-417 0 -417 352t417 352v-49q-353 0 -367 -279h367v-49h-367z" />
    <glyph glyph-name="UkaliqPatternSegmentsAcdefg_UkaliqModifierDot" unicode="&#xf1d77;&#x331;" 
d="M500 -77v-188h-49v188h49zM127 327q7 -278 162 -278q162 0 162 139q0 134 -324 139zM128 376q372 -6 372 -188q0 -188 -211 -188t-211 352t417 352v-49q-353 0 -367 -279z" />
    <glyph glyph-name="UkaliqPatternSegmentsAbdg_UkaliqModifierDot" unicode="&#xf1d78;&#x331;" 
d="M83 49h412v-49h-412v49zM83 704q417 0 417 -189q0 -188 -417 -188v49q368 0 368 139q0 140 -368 140v49zM500 -77v-188h-49v188h49z" />
    <glyph glyph-name="UkaliqPatternSegmentsAbcdg_UkaliqModifierDot" unicode="&#xf1d79;&#x331;" 
d="M83 704q417 0 417 -352t-417 -352v49q352 0 367 278h-367v49h367q-14 279 -367 279v49zM500 -77v-188h-49v188h49z" />
    <glyph glyph-name="UkaliqPatternSegmentsAbdfg_UkaliqModifierDot" unicode="&#xf1d7a;&#x331;" 
d="M83 49h412v-49h-412v49zM500 -77v-188h-49v188h49zM127 515q0 -139 162 -139t162 139q0 140 -162 140t-162 -140zM78 515q0 189 211 189t211 -189q0 -188 -211 -188t-211 188z" />
    <glyph glyph-name="UkaliqPatternSegmentsAbcdfg_UkaliqModifierDot" unicode="&#xf1d7b;&#x331;" 
d="M500 -77v-188h-49v188h49zM451 376q-6 279 -162 279q-162 0 -162 -140q0 -134 324 -139zM450 327q-372 6 -372 188q0 189 211 189t211 -352t-417 -352v49q352 0 367 278z" />
    <glyph glyph-name="UkaliqPatternSegmentsAbdeg_UkaliqModifierDot" unicode="&#xf1d7c;&#x331;" 
d="M83 704q417 0 417 -189q0 -188 -335 -188q-38 0 -38 -30q0 -248 368 -248v-49q-417 0 -417 297q0 79 87 79q286 0 286 139q0 140 -368 140v49zM500 -77v-188h-49v188h49z" />
    <glyph glyph-name="UkaliqPatternSegmentsAbcdeg_UkaliqModifierDot" unicode="&#xf1d7d;&#x331;" 
d="M83 704q417 0 417 -352t-211 -352t-211 188q0 182 372 188q-14 279 -367 279v49zM500 -77v-188h-49v188h49zM451 327q-324 -5 -324 -139q0 -139 162 -139q155 0 162 278z" />
    <glyph glyph-name="UkaliqPatternSegmentsAbdefg_UkaliqModifierDot" unicode="&#xf1d7e;&#x331;" 
d="M500 -77v-188h-49v188h49zM128 327q15 -278 367 -278v-49q-417 0 -417 352t211 352t211 -189q0 -182 -372 -188zM127 376q324 5 324 139q0 140 -162 140q-156 0 -162 -279z" />
    <glyph glyph-name="UkaliqPatternSegmentsAbcdefg_UkaliqModifierDot" unicode="&#xf1d7f;&#x331;" 
d="M500 -77v-188h-49v188h49zM127 376h324q-6 279 -162 279t-162 -279zM451 327h-324q7 -278 162 -278t162 278zM78 352q0 352 211 352t211 -352t-211 -352t-211 352z" />
    <glyph glyph-name=".notdef" 
d="M83 49h412v-49h-412v49zM500 -77v-188h-49v188h49z" />
    <glyph glyph-name="NULL" horiz-adv-x="0" 
 />
    <glyph glyph-name="uni000D" unicode="&#xd;" horiz-adv-x="0" 
 />
    <glyph glyph-name="uni200D" unicode="&#x200d;" horiz-adv-x="0" 
 />
    <glyph glyph-name="uni200B" unicode="&#x200b;" horiz-adv-x="0" 
 />
    <glyph glyph-name="uni200C" unicode="&#x200c;" horiz-adv-x="0" 
 />
    <glyph glyph-name="uniFEFF" unicode="&#xfeff;" horiz-adv-x="0" 
 />
    <glyph glyph-name="space" unicode=" " 
 />
    <glyph glyph-name="uni00A0" unicode="&#xa0;" 
 />
    <glyph glyph-name="UkaliqModifierDot" unicode="&#x331;" 
d="M500 -77v-188h-49v188h49z" />
    <glyph glyph-name="uni2002" unicode="&#x2002;" 
 />
    <glyph glyph-name="uni2007" unicode="&#x2007;" 
 />
    <glyph glyph-name="uni2B1B" unicode="&#x2b1b;" 
d="M0 946h578v-1242h-578v1242z" />
    <glyph glyph-name="UkaliqSpace" unicode="&#xee00;" 
 />
    <glyph glyph-name="UkaliqNumber" unicode="&#xee01;" 
d="M500 376v-376h-49v376h49z" />
    <glyph glyph-name="UkaliqRightSingleQuotationMark" unicode="&#xee02;" 
d="M127 704v-377h-49v377h49z" />
    <glyph glyph-name="UkaliqColon" unicode="&#xee03;" 
d="M500 376v-376h-49v376h49zM127 704v-377h-49v377h49z" />
    <glyph glyph-name="UkaliqFullStop" unicode="&#xee04;" 
d="M127 376v-376h-49v376h49z" />
    <glyph glyph-name="UkaliqComma" unicode="&#xee05;" 
d="M500 376v-376h-49v376h49zM127 376v-376h-49v376h49z" />
    <glyph glyph-name="UkaliqRightParenthesis" unicode="&#xee06;" 
d="M127 704v-704h-49v704h49z" />
    <glyph glyph-name="UkaliqExclamationMark" unicode="&#xee07;" 
d="M127 704v-704h-49v704h49zM500 376v-376h-49v376h49z" />
    <glyph glyph-name="UkaliqLeftSingleQuotationMark" unicode="&#xee08;" 
d="M500 704v-377h-49v377h49z" />
    <glyph glyph-name="UkaliqLeftParenthesis" unicode="&#xee09;" 
d="M500 704v-704h-49v704h49z" />
    <glyph glyph-name="UkaliqDoubleQuotationMark" unicode="&#xee0a;" 
d="M127 704v-377h-49v377h49zM500 704v-377h-49v377h49z" />
    <glyph glyph-name="UkaliqReversedQuestionMark" unicode="&#xee0b;" 
d="M500 704v-704h-49v704h49zM127 704v-377h-49v377h49z" />
    <glyph glyph-name="UkaliqSemicolon" unicode="&#xee0c;" 
d="M500 704v-377h-49v377h49zM127 376v-376h-49v376h49z" />
    <glyph glyph-name="UkaliqReversedExclamationMark" unicode="&#xee0d;" 
d="M500 704v-704h-49v704h49zM127 376v-376h-49v376h49z" />
    <glyph glyph-name="UkaliqQuestionMark" unicode="&#xee0e;" 
d="M127 704v-704h-49v704h49zM500 704v-377h-49v377h49z" />
    <glyph glyph-name="UkaliqEquals" unicode="&#xee0f;" 
d="M500 704v-704h-49v704h49zM127 704v-704h-49v704h49z" />
    <glyph glyph-name="UkaliqHyphen" unicode="&#xee10;" 
d="M83 49h412v-49h-412v49z" />
    <glyph glyph-name="UkaliqLetterOzo" unicode="&#xee11;" 
d="M500 376q0 -376 -417 -376v49q368 0 368 327h49z" />
    <glyph glyph-name="UkaliqGreaterThan" unicode="&#xee12;" 
d="M83 49h412v-49h-412v49zM127 704v-377h-49v377h49z" />
    <glyph glyph-name="UkaliqLetterAtlha" unicode="&#xee13;" 
d="M127 704v-377h-49v377h49zM500 376q0 -376 -417 -376v49q368 0 368 327h49z" />
    <glyph glyph-name="UkaliqLetterEdzre" unicode="&#xee14;" 
d="M127 376q0 -327 368 -327v-49q-417 0 -417 376h49z" />
    <glyph glyph-name="UkaliqOr" unicode="&#xee15;" 
d="M127 376q0 -327 162 -327t162 327h49q0 -376 -211 -376t-211 376h49z" />
    <glyph glyph-name="UkaliqLetterIdzji" unicode="&#xee16;" 
d="M127 704v-227q0 -428 368 -428v-49q-417 0 -417 477v227h49z" />
    <glyph glyph-name="UkaliqLetterOdzo" unicode="&#xee17;" 
d="M127 704v-227q0 -428 162 -428t162 327h49q0 -376 -211 -376t-211 477v227h49z" />
    <glyph glyph-name="UkaliqLessThan" unicode="&#xee18;" 
d="M83 49h412v-49h-412v49zM500 704v-377h-49v377h49z" />
    <glyph glyph-name="UkaliqLetterOso" unicode="&#xee19;" 
d="M500 704v-227q0 -477 -417 -477v49q368 0 368 428v227h49z" />
    <glyph glyph-name="UkaliqMultiplication" unicode="&#xee1a;" 
d="M83 49h412v-49h-412v49zM127 704v-377h-49v377h49zM500 704v-377h-49v377h49z" />
    <glyph glyph-name="UkaliqLetterApfa" unicode="&#xee1b;" 
d="M127 704v-377h-49v377h49zM500 704v-227q0 -477 -417 -477v49q368 0 368 428v227h49z" />
    <glyph glyph-name="UkaliqLetterEtsre" unicode="&#xee1c;" 
d="M127 376q0 -327 368 -327v-49q-417 0 -417 376h49zM500 704v-377h-49v377h49z" />
    <glyph glyph-name="UkaliqLetterUkkhu" unicode="&#xee1d;" 
d="M500 704v-227q0 -477 -211 -477t-211 376h49q0 -327 162 -327t162 428v227h49z" />
    <glyph glyph-name="UkaliqLetterItsji" unicode="&#xee1e;" 
d="M127 704v-227q0 -428 368 -428v-49q-417 0 -417 477v227h49zM500 704v-377h-49v377h49z" />
    <glyph glyph-name="UkaliqLetterOtso" unicode="&#xee1f;" 
d="M127 704v-227q0 -428 162 -428t162 428v227h49v-227q0 -477 -211 -477t-211 477v227h49z" />
    <glyph glyph-name="UkaliqRange" unicode="&#xee20;" 
d="M83 704h412v-49h-412v49z" />
    <glyph glyph-name="UkaliqLetterEo" unicode="&#xee21;" 
d="M500 376v-376h-49v376h49zM83 704h412v-49h-412v49z" />
    <glyph glyph-name="UkaliqLetterUh" unicode="&#xee22;" 
d="M495 655q-368 0 -368 -328h-49q0 377 417 377v-49z" />
    <glyph glyph-name="UkaliqLetterEu" unicode="&#xee23;" 
d="M500 376v-376h-49v376h49zM495 655q-368 0 -368 -328h-49q0 377 417 377v-49z" />
    <glyph glyph-name="UkaliqLetterOe" unicode="&#xee24;" 
d="M127 376v-376h-49v376h49zM83 704h412v-49h-412v49z" />
    <glyph glyph-name="UkaliqLetterOeh" unicode="&#xee25;" 
d="M500 376v-376h-49v376h49zM127 376v-376h-49v376h49zM83 704h412v-49h-412v49z" />
    <glyph glyph-name="UkaliqLetterUi" unicode="&#xee26;" 
d="M495 655q-368 0 -368 -429v-226h-49v226q0 478 417 478v-49z" />
    <glyph glyph-name="UkaliqLetterAh" unicode="&#xee27;" 
d="M495 655q-368 0 -368 -429v-226h-49v226q0 478 417 478v-49zM500 376v-376h-49v376h49z" />
    <glyph glyph-name="UkaliqLetterAe" unicode="&#xee28;" 
d="M83 704q417 0 417 -377h-49q0 328 -368 328v49z" />
    <glyph glyph-name="UkaliqLetterO" unicode="&#xee29;" 
d="M83 704q417 0 417 -478v-226h-49v226q0 429 -368 429v49z" />
    <glyph glyph-name="UkaliqLetterIh" unicode="&#xee2a;" 
d="M78 327q0 377 211 377t211 -377h-49q0 328 -162 328t-162 -328h-49z" />
    <glyph glyph-name="UkaliqLetterU" unicode="&#xee2b;" 
d="M78 327q0 377 211 377t211 -478v-226h-49v226q0 429 -162 429t-162 -328h-49z" />
    <glyph glyph-name="UkaliqLetterE" unicode="&#xee2c;" 
d="M83 704q417 0 417 -377h-49q0 328 -368 328v49zM127 376v-376h-49v376h49z" />
    <glyph glyph-name="UkaliqLetterEh" unicode="&#xee2d;" 
d="M83 704q417 0 417 -478v-226h-49v226q0 429 -368 429v49zM127 376v-376h-49v376h49z" />
    <glyph glyph-name="UkaliqLetterI" unicode="&#xee2e;" 
d="M451 327q0 328 -162 328t-162 -429v-226h-49v226q0 478 211 478t211 -377h-49z" />
    <glyph glyph-name="UkaliqLetterOh" unicode="&#xee2f;" 
d="M78 0v226q0 478 211 478t211 -478v-226h-49v226q0 429 -162 429t-162 -429v-226h-49z" />
    <glyph glyph-name="UkaliqPlus" unicode="&#xee30;" 
d="M83 49h412v-49h-412v49zM83 704h412v-49h-412v49z" />
    <glyph glyph-name="UkaliqCurrency" unicode="&#xee31;" 
d="M500 376q0 -376 -417 -376v49q368 0 368 327h49zM83 704h412v-49h-412v49z" />
    <glyph glyph-name="UkaliqAt" unicode="&#xee32;" 
d="M83 49h412v-49h-412v49zM495 655q-368 0 -368 -328h-49q0 377 417 377v-49z" />
    <glyph glyph-name="UkaliqLetterAlha" unicode="&#xee33;" 
d="M495 655q-368 0 -368 -328h-49q0 377 417 377v-49zM500 376q0 -376 -417 -376v49q368 0 368 327h49z" />
    <glyph glyph-name="UkaliqLetterElre" unicode="&#xee34;" 
d="M127 376q0 -327 368 -327v-49q-417 0 -417 376h49zM83 704h412v-49h-412v49z" />
    <glyph glyph-name="UkaliqLetterUlgu" unicode="&#xee35;" 
d="M127 376q0 -327 162 -327t162 327h49q0 -376 -211 -376t-211 376h49zM83 704h412v-49h-412v49z" />
    <glyph glyph-name="UkaliqLetterIlji" unicode="&#xee36;" 
d="M495 655q-368 0 -368 -303t368 -303v-49q-417 0 -417 352t417 352v-49z" />
    <glyph glyph-name="UkaliqLetterOlo" unicode="&#xee37;" 
d="M495 655q-368 0 -368 -303t162 -303t162 327h49q0 -376 -211 -376t-211 352t417 352v-49z" />
    <glyph glyph-name="UkaliqDegree" unicode="&#xee38;" 
d="M83 49h412v-49h-412v49zM83 704q417 0 417 -377h-49q0 328 -368 328v49z" />
    <glyph glyph-name="UkaliqLetterHbat" unicode="&#xee39;" 
d="M83 704q417 0 417 -352t-417 -352v49q368 0 368 303t-368 303v49z" />
    <glyph glyph-name="UkaliqLetterAnqa" unicode="&#xee3a;" 
d="M83 49h412v-49h-412v49zM78 327q0 377 211 377t211 -377h-49q0 328 -162 328t-162 -328h-49z" />
    <glyph glyph-name="UkaliqLetterAma" unicode="&#xee3b;" 
d="M78 327q0 377 211 377t211 -352t-417 -352v49q368 0 368 303t-162 303t-162 -328h-49z" />
    <glyph glyph-name="UkaliqLetterEnre" unicode="&#xee3c;" 
d="M83 704q417 0 417 -377h-49q0 328 -368 328v49zM127 376q0 -327 368 -327v-49q-417 0 -417 376h49z" />
    <glyph glyph-name="UkaliqLetterUngu" unicode="&#xee3d;" 
d="M83 704q417 0 417 -352t-211 -352t-211 376h49q0 -327 162 -327t162 303t-368 303v49z" />
    <glyph glyph-name="UkaliqLetterInji" unicode="&#xee3e;" 
d="M451 327q0 328 -162 328t-162 -303t368 -303v-49q-417 0 -417 352t211 352t211 -377h-49z" />
    <glyph glyph-name="UkaliqLetterOno" unicode="&#xee3f;" 
d="M127 352q0 -303 162 -303t162 303t-162 303t-162 -303zM78 352q0 352 211 352t211 -352t-211 -352t-211 352z" />
    <glyph glyph-name="UkaliqDash" unicode="&#xee40;" 
d="M83 376h412v-49h-412v49z" />
    <glyph glyph-name="UkaliqLetterA" unicode="&#xee41;" 
d="M83 376q417 0 417 -376h-49q0 327 -368 327v49z" />
    <glyph glyph-name="UkaliqMinus" unicode="&#xee42;" 
d="M127 704q0 -328 368 -328v-49q-417 0 -417 377h49z" />
    <glyph glyph-name="UkaliqLetterAwa" unicode="&#xee43;" 
d="M127 704q0 -328 287 -328q86 0 86 -95v-281h-49v281q0 46 -37 46q-336 0 -336 377h49z" />
    <glyph glyph-name="UkaliqLetterErre" unicode="&#xee44;" 
d="M495 327q-368 0 -368 -327h-49q0 376 417 376v-49z" />
    <glyph glyph-name="UkaliqAnd" unicode="&#xee45;" 
d="M78 0q0 376 211 376t211 -376h-49q0 327 -162 327t-162 -327h-49z" />
    <glyph glyph-name="UkaliqLetterIzji" unicode="&#xee46;" 
d="M127 327v-327h-49v352v352h49v-328h368v-49h-368z" />
    <glyph glyph-name="UkaliqLetterOro" unicode="&#xee47;" 
d="M127 327v-327h-49v352v352h49v-328q373 -11 373 -376h-49q0 316 -324 327z" />
    <glyph glyph-name="UkaliqNot" unicode="&#xee48;" 
d="M500 704q0 -377 -417 -377v49q368 0 368 328h49z" />
    <glyph glyph-name="UkaliqDivision" unicode="&#xee49;" 
d="M500 704v-352v-352h-49v327h-368v49h368v328h49z" />
    <glyph glyph-name="UkaliqXor" unicode="&#xee4a;" 
d="M127 704q0 -328 162 -328t162 328h49q0 -377 -211 -377t-211 377h49z" />
    <glyph glyph-name="uniEE4B" unicode="&#xee4b;" 
d="M500 704v-352v-352h-49v327q-373 12 -373 377h49q0 -316 324 -328v328h49z" />
    <glyph glyph-name="UkaliqLetterIji" unicode="&#xee4c;" 
d="M500 704q0 -377 -335 -377q-38 0 -38 -46v-281h-49v281q0 95 87 95q286 0 286 328h49z" />
    <glyph glyph-name="UkaliqLetterTkot" unicode="&#xee4d;" 
d="M500 704v-352v-352h-49v327q-324 -11 -324 -327h-49q0 364 373 376v328h49z" />
    <glyph glyph-name="UkaliqLetterIsji" unicode="&#xee4e;" 
d="M127 327v-327h-49v352v352h49v-328q324 11 324 328h49q0 -366 -373 -377z" />
    <glyph glyph-name="UkaliqLetterOrro" unicode="&#xee4f;" 
d="M500 704v-352v-352h-49v327h-324v-327h-49v352v352h49v-328h324v328h49z" />
    <glyph glyph-name="UkaliqDigitZero" unicode="&#xee50;" 
d="M83 49h412v-49h-412v49zM83 376h412v-49h-412v49z" />
    <glyph glyph-name="UkaliqDigitOne" unicode="&#xee51;" 
d="M83 376q417 0 417 -188t-417 -188v49q368 0 368 139t-368 139v49z" />
    <glyph glyph-name="UkaliqDigitTwo" unicode="&#xee52;" 
d="M127 704q0 -328 368 -328v-49q-417 0 -417 377h49zM83 49h412v-49h-412v49z" />
    <glyph glyph-name="UkaliqDigitThree" unicode="&#xee53;" 
d="M127 704q0 -328 287 -328q86 0 86 -79q0 -297 -417 -297v49q368 0 368 248q0 30 -37 30q-336 0 -336 377h49z" />
    <glyph glyph-name="UkaliqDigitFour" unicode="&#xee54;" 
d="M495 327q-368 0 -368 -139t368 -139v-49q-417 0 -417 188t417 188v-49z" />
    <glyph glyph-name="UkaliqDigitFive" unicode="&#xee55;" 
d="M127 188q0 -139 162 -139t162 139t-162 139t-162 -139zM78 188q0 188 211 188t211 -188t-211 -188t-211 188z" />
    <glyph glyph-name="UkaliqDigitSix" unicode="&#xee56;" 
d="M128 327q15 -278 367 -278v-49q-417 0 -417 352v352h49v-328h368v-49h-367z" />
    <glyph glyph-name="UkaliqDigitSeven" unicode="&#xee57;" 
d="M127 327q7 -278 162 -278q162 0 162 139q0 134 -324 139zM127 376q373 -6 373 -188q0 -188 -211 -188t-211 352v352h49v-328z" />
    <glyph glyph-name="UkaliqDigitEight" unicode="&#xee58;" 
d="M83 49h412v-49h-412v49zM500 704q0 -377 -417 -377v49q368 0 368 328h49z" />
    <glyph glyph-name="UkaliqDigitNine" unicode="&#xee59;" 
d="M500 704v-352q0 -352 -417 -352v49q352 0 367 278h-367v49h368v328h49z" />
    <glyph glyph-name="UkaliqDigitTen" unicode="&#xee5a;" 
d="M127 704q0 -328 162 -328t162 328h49q0 -377 -211 -377t-211 377h49zM83 49h412v-49h-412v49z" />
    <glyph glyph-name="UkaliqDigitEleven" unicode="&#xee5b;" 
d="M500 704v-352q0 -352 -417 -352v49q353 0 367 278q-372 12 -372 377h49q0 -316 324 -328v328h49z" />
    <glyph glyph-name="UkaliqDigitTwelve" unicode="&#xee5c;" 
d="M500 704q0 -377 -335 -377q-38 0 -38 -30q0 -248 368 -248v-49q-417 0 -417 297q0 79 87 79q286 0 286 328h49z" />
    <glyph glyph-name="UkaliqDigitThirteen" unicode="&#xee5d;" 
d="M500 704v-352q0 -352 -211 -352t-211 188q0 182 373 188v328h49zM451 327q-324 -5 -324 -139q0 -139 162 -139q155 0 162 278z" />
    <glyph glyph-name="UkaliqDigitFourteen" unicode="&#xee5e;" 
d="M128 327q15 -278 367 -278v-49q-417 0 -417 352v352h49v-328q324 11 324 328h49q0 -365 -372 -377z" />
    <glyph glyph-name="UkaliqDigitFifteen" unicode="&#xee5f;" 
d="M451 376v328h49v-352q0 -352 -211 -352t-211 352v352h49v-328h324zM451 327h-324q7 -278 162 -278t162 278z" />
    <glyph glyph-name="UkaliqLetterSchwa" unicode="&#xee60;" 
d="M83 376h412v-49h-412v49zM83 704h412v-49h-412v49z" />
    <glyph glyph-name="UkaliqLetterOhgo" unicode="&#xee61;" 
d="M83 376q417 0 417 -376h-49q0 327 -368 327v49zM83 704h412v-49h-412v49z" />
    <glyph glyph-name="UkaliqLetterArha" unicode="&#xee62;" 
d="M495 655q-368 0 -368 -140q0 -139 368 -139v-49q-417 0 -417 188q0 189 417 189v-49z" />
    <glyph glyph-name="UkaliqLetterAva" unicode="&#xee63;" 
d="M495 655q-368 0 -368 -140q0 -139 287 -139q86 0 86 -95v-281h-49v281q0 46 -37 46q-336 0 -336 188q0 189 417 189v-49z" />
    <glyph glyph-name="UkaliqLetterEzre" unicode="&#xee64;" 
d="M495 327q-368 0 -368 -327h-49q0 376 417 376v-49zM83 704h412v-49h-412v49z" />
    <glyph glyph-name="UkaliqLetterUghu" unicode="&#xee65;" 
d="M78 0q0 376 211 376t211 -376h-49q0 327 -162 327t-162 -327h-49zM83 704h412v-49h-412v49z" />
    <glyph glyph-name="UkaliqLetterIjji" unicode="&#xee66;" 
d="M127 327v-327h-49v352q0 352 417 352v-49q-353 0 -367 -279h367v-49h-368z" />
    <glyph glyph-name="UkaliqLetterOdho" unicode="&#xee67;" 
d="M127 327v-327h-49v352q0 352 417 352v-49q-353 0 -367 -279q372 -11 372 -376h-49q0 316 -324 327z" />
    <glyph glyph-name="UkaliqLetterOhho" unicode="&#xee68;" 
d="M83 704q417 0 417 -189q0 -188 -417 -188v49q368 0 368 139q0 140 -368 140v49z" />
    <glyph glyph-name="UkaliqLetterAha" unicode="&#xee69;" 
d="M83 704q417 0 417 -352v-352h-49v327h-368v49h367q-14 279 -367 279v49z" />
    <glyph glyph-name="UkaliqLetterAqha" unicode="&#xee6a;" 
d="M127 515q0 -139 162 -139t162 139q0 140 -162 140t-162 -140zM78 515q0 189 211 189t211 -189q0 -188 -211 -188t-211 188z" />
    <glyph glyph-name="UkaliqLetterAfa" unicode="&#xee6b;" 
d="M451 376q-6 279 -162 279q-162 0 -162 -140q0 -134 324 -139zM451 327q-373 6 -373 188q0 189 211 189t211 -352v-352h-49v327z" />
    <glyph glyph-name="UkaliqLetterEsre" unicode="&#xee6c;" 
d="M83 704q417 0 417 -189q0 -188 -335 -188q-38 0 -38 -46v-281h-49v281q0 95 87 95q286 0 286 139q0 140 -368 140v49z" />
    <glyph glyph-name="UkaliqLetterUkhu" unicode="&#xee6d;" 
d="M83 704q417 0 417 -352v-352h-49v327q-324 -11 -324 -327h-49q0 364 372 376q-14 279 -367 279v49z" />
    <glyph glyph-name="UkaliqLetterIcji" unicode="&#xee6e;" 
d="M127 327v-327h-49v352q0 352 211 352t211 -189q0 -182 -373 -188zM127 376q324 5 324 139q0 140 -162 140q-156 0 -162 -279z" />
    <glyph glyph-name="UkaliqLetterOtho" unicode="&#xee6f;" 
d="M78 0v352q0 352 211 352t211 -352v-352h-49v327h-324v-327h-49zM127 376h324q-6 279 -162 279t-162 -279z" />
    <glyph glyph-name="UkaliqIterationMark" unicode="&#xee70;" 
d="M83 49h412v-49h-412v49zM83 376h412v-49h-412v49zM83 704h412v-49h-412v49z" />
    <glyph glyph-name="UkaliqPercent" unicode="&#xee71;" 
d="M83 376q417 0 417 -188t-417 -188v49q368 0 368 139t-368 139v49zM83 704h412v-49h-412v49z" />
    <glyph glyph-name="UkaliqLetterAgqa" unicode="&#xee72;" 
d="M495 655q-368 0 -368 -140q0 -139 368 -139v-49q-417 0 -417 188q0 189 417 189v-49zM83 49h412v-49h-412v49z" />
    <glyph glyph-name="UkaliqLetterAba" unicode="&#xee73;" 
d="M495 655q-368 0 -368 -140q0 -139 287 -139q86 0 86 -79q0 -297 -417 -297v49q368 0 368 248q0 30 -37 30q-336 0 -336 188q0 189 417 189v-49z" />
    <glyph glyph-name="UkaliqLetterEdre" unicode="&#xee74;" 
d="M495 327q-368 0 -368 -139t368 -139v-49q-417 0 -417 188t417 188v-49zM83 704h412v-49h-412v49z" />
    <glyph glyph-name="UkaliqLetterUgu" unicode="&#xee75;" 
d="M83 704h412v-49h-412v49zM127 188q0 -139 162 -139t162 139t-162 139t-162 -139zM78 188q0 188 211 188t211 -188t-211 -188t-211 188z" />
    <glyph glyph-name="UkaliqLetterIgji" unicode="&#xee76;" 
d="M128 327q15 -278 367 -278v-49q-417 0 -417 352t417 352v-49q-353 0 -367 -279h367v-49h-367z" />
    <glyph glyph-name="UkaliqLetterOdo" unicode="&#xee77;" 
d="M127 327q7 -278 162 -278q162 0 162 139q0 134 -324 139zM128 376q372 -6 372 -188q0 -188 -211 -188t-211 352t417 352v-49q-353 0 -367 -279z" />
    <glyph glyph-name="UkaliqLetterOhhko" unicode="&#xee78;" 
d="M83 49h412v-49h-412v49zM83 704q417 0 417 -189q0 -188 -417 -188v49q368 0 368 139q0 140 -368 140v49z" />
    <glyph glyph-name="UkaliqLetterAhka" unicode="&#xee79;" 
d="M83 704q417 0 417 -352t-417 -352v49q352 0 367 278h-367v49h367q-14 279 -367 279v49z" />
    <glyph glyph-name="UkaliqLetterAqa" unicode="&#xee7a;" 
d="M83 49h412v-49h-412v49zM127 515q0 -139 162 -139t162 139q0 140 -162 140t-162 -140zM78 515q0 189 211 189t211 -189q0 -188 -211 -188t-211 188z" />
    <glyph glyph-name="UkaliqLetterApa" unicode="&#xee7b;" 
d="M451 376q-6 279 -162 279q-162 0 -162 -140q0 -134 324 -139zM450 327q-372 6 -372 188q0 189 211 189t211 -352t-417 -352v49q352 0 367 278z" />
    <glyph glyph-name="UkaliqLetterEtre" unicode="&#xee7c;" 
d="M83 704q417 0 417 -189q0 -188 -335 -188q-38 0 -38 -30q0 -248 368 -248v-49q-417 0 -417 297q0 79 87 79q286 0 286 139q0 140 -368 140v49z" />
    <glyph glyph-name="UkaliqLetterUku" unicode="&#xee7d;" 
d="M83 704q417 0 417 -352t-211 -352t-211 188q0 182 372 188q-14 279 -367 279v49zM451 327q-324 -5 -324 -139q0 -139 162 -139q155 0 162 278z" />
    <glyph glyph-name="UkaliqLetterIci" unicode="&#xee7e;" 
d="M128 327q15 -278 367 -278v-49q-417 0 -417 352t211 352t211 -189q0 -182 -372 -188zM127 376q324 5 324 139q0 140 -162 140q-156 0 -162 -279z" />
    <glyph glyph-name="UkaliqLetterOto" unicode="&#xee7f;" 
d="M127 376h324q-6 279 -162 279t-162 -279zM451 327h-324q7 -278 162 -278t162 278zM78 352q0 352 211 352t211 -352t-211 -352t-211 352z" />
    <glyph glyph-name="UkaliqDot" unicode="&#xee80;" 
d="M500 -77v-188h-49v188h49z" />
    <glyph glyph-name="UkaliqNumberWithDot" unicode="&#xee81;" 
d="M500 376v-376h-49v376h49zM500 -77v-188h-49v188h49z" />
    <glyph glyph-name="UkaliqRightSingleQuotationMarkWithDot" unicode="&#xee82;" 
d="M127 704v-377h-49v377h49zM500 -77v-188h-49v188h49z" />
    <glyph glyph-name="UkaliqColonWithDot" unicode="&#xee83;" 
d="M500 376v-376h-49v376h49zM127 704v-377h-49v377h49zM500 -77v-188h-49v188h49z" />
    <glyph glyph-name="UkaliqFullStopWithDot" unicode="&#xee84;" 
d="M127 376v-376h-49v376h49zM500 -77v-188h-49v188h49z" />
    <glyph glyph-name="UkaliqCommaWithDot" unicode="&#xee85;" 
d="M500 376v-376h-49v376h49zM127 376v-376h-49v376h49zM500 -77v-188h-49v188h49z" />
    <glyph glyph-name="UkaliqRightParenthesisWithDot" unicode="&#xee86;" 
d="M127 704v-704h-49v704h49zM500 -77v-188h-49v188h49z" />
    <glyph glyph-name="UkaliqExclamationMarkWithDot" unicode="&#xee87;" 
d="M127 704v-704h-49v704h49zM500 376v-376h-49v376h49zM500 -77v-188h-49v188h49z" />
    <glyph glyph-name="UkaliqLeftSingleQuotationMarkWithDot" unicode="&#xee88;" 
d="M500 704v-377h-49v377h49zM500 -77v-188h-49v188h49z" />
    <glyph glyph-name="UkaliqLeftParenthesisWithDot" unicode="&#xee89;" 
d="M500 704v-704h-49v704h49zM500 -77v-188h-49v188h49z" />
    <glyph glyph-name="UkaliqDoubleQuotationMarkWithDot" unicode="&#xee8a;" 
d="M127 704v-377h-49v377h49zM500 704v-377h-49v377h49zM500 -77v-188h-49v188h49z" />
    <glyph glyph-name="UkaliqReversedQuestionMarkWithDot" unicode="&#xee8b;" 
d="M500 704v-704h-49v704h49zM127 704v-377h-49v377h49zM500 -77v-188h-49v188h49z" />
    <glyph glyph-name="UkaliqSemicolonWithDot" unicode="&#xee8c;" 
d="M500 704v-377h-49v377h49zM127 376v-376h-49v376h49zM500 -77v-188h-49v188h49z" />
    <glyph glyph-name="UkaliqReversedExclamationMarkWithDot" unicode="&#xee8d;" 
d="M500 704v-704h-49v704h49zM127 376v-376h-49v376h49zM500 -77v-188h-49v188h49z" />
    <glyph glyph-name="UkaliqQuestionMarkWithDot" unicode="&#xee8e;" 
d="M127 704v-704h-49v704h49zM500 704v-377h-49v377h49zM500 -77v-188h-49v188h49z" />
    <glyph glyph-name="UkaliqEqualsWithDot" unicode="&#xee8f;" 
d="M500 704v-704h-49v704h49zM127 704v-704h-49v704h49zM500 -77v-188h-49v188h49z" />
    <glyph glyph-name="UkaliqHyphenWithDot" unicode="&#xee90;" 
d="M83 49h412v-49h-412v49zM500 -77v-188h-49v188h49z" />
    <glyph glyph-name="UkaliqLetterOzoWithDot" unicode="&#xee91;" 
d="M500 -77v-188h-49v188h49zM500 376q0 -376 -417 -376v49q368 0 368 327h49z" />
    <glyph glyph-name="UkaliqGreaterThanWithDot" unicode="&#xee92;" 
d="M83 49h412v-49h-412v49zM127 704v-377h-49v377h49zM500 -77v-188h-49v188h49z" />
    <glyph glyph-name="UkaliqLetterAtlhaWithDot" unicode="&#xee93;" 
d="M127 704v-377h-49v377h49zM500 -77v-188h-49v188h49zM500 376q0 -376 -417 -376v49q368 0 368 327h49z" />
    <glyph glyph-name="UkaliqLetterEdzreWithDot" unicode="&#xee94;" 
d="M127 376q0 -327 368 -327v-49q-417 0 -417 376h49zM500 -77v-188h-49v188h49z" />
    <glyph glyph-name="UkaliqOrWithDot" unicode="&#xee95;" 
d="M127 376q0 -327 162 -327t162 327h49q0 -376 -211 -376t-211 376h49zM500 -77v-188h-49v188h49z" />
    <glyph glyph-name="UkaliqLetterIdzjiWithDot" unicode="&#xee96;" 
d="M127 704v-227q0 -428 368 -428v-49q-417 0 -417 477v227h49zM500 -77v-188h-49v188h49z" />
    <glyph glyph-name="UkaliqLetterOdzoWithDot" unicode="&#xee97;" 
d="M127 704v-227q0 -428 162 -428t162 327h49q0 -376 -211 -376t-211 477v227h49zM500 -77v-188h-49v188h49z" />
    <glyph glyph-name="UkaliqLessThanWithDot" unicode="&#xee98;" 
d="M83 49h412v-49h-412v49zM500 704v-377h-49v377h49zM500 -77v-188h-49v188h49z" />
    <glyph glyph-name="UkaliqLetterOsoWithDot" unicode="&#xee99;" 
d="M500 704v-227q0 -477 -417 -477v49q368 0 368 428v227h49zM500 -77v-188h-49v188h49z" />
    <glyph glyph-name="UkaliqMultiplicationWithDot" unicode="&#xee9a;" 
d="M83 49h412v-49h-412v49zM127 704v-377h-49v377h49zM500 704v-377h-49v377h49zM500 -77v-188h-49v188h49z" />
    <glyph glyph-name="UkaliqLetterApfaWithDot" unicode="&#xee9b;" 
d="M127 704v-377h-49v377h49zM500 704v-227q0 -477 -417 -477v49q368 0 368 428v227h49zM500 -77v-188h-49v188h49z" />
    <glyph glyph-name="UkaliqLetterEtsreWithDot" unicode="&#xee9c;" 
d="M127 376q0 -327 368 -327v-49q-417 0 -417 376h49zM500 704v-377h-49v377h49zM500 -77v-188h-49v188h49z" />
    <glyph glyph-name="UkaliqLetterUkkhuWithDot" unicode="&#xee9d;" 
d="M500 704v-227q0 -477 -211 -477t-211 376h49q0 -327 162 -327t162 428v227h49zM500 -77v-188h-49v188h49z" />
    <glyph glyph-name="UkaliqLetterItsjiWithDot" unicode="&#xee9e;" 
d="M127 704v-227q0 -428 368 -428v-49q-417 0 -417 477v227h49zM500 704v-377h-49v377h49zM500 -77v-188h-49v188h49z" />
    <glyph glyph-name="UkaliqLetterOtsoWithDot" unicode="&#xee9f;" 
d="M127 704v-227q0 -428 162 -428t162 428v227h49v-227q0 -477 -211 -477t-211 477v227h49zM500 -77v-188h-49v188h49z" />
    <glyph glyph-name="UkaliqRangeWithDot" unicode="&#xeea0;" 
d="M500 -77v-188h-49v188h49zM83 704h412v-49h-412v49z" />
    <glyph glyph-name="UkaliqLetterEoWithDot" unicode="&#xeea1;" 
d="M500 376v-376h-49v376h49zM500 -77v-188h-49v188h49zM83 704h412v-49h-412v49z" />
    <glyph glyph-name="UkaliqLetterUhWithDot" unicode="&#xeea2;" 
d="M495 655q-368 0 -368 -328h-49q0 377 417 377v-49zM500 -77v-188h-49v188h49z" />
    <glyph glyph-name="UkaliqLetterEuWithDot" unicode="&#xeea3;" 
d="M500 376v-376h-49v376h49zM495 655q-368 0 -368 -328h-49q0 377 417 377v-49zM500 -77v-188h-49v188h49z" />
    <glyph glyph-name="UkaliqLetterOeWithDot" unicode="&#xeea4;" 
d="M127 376v-376h-49v376h49zM500 -77v-188h-49v188h49zM83 704h412v-49h-412v49z" />
    <glyph glyph-name="UkaliqLetterOehWithDot" unicode="&#xeea5;" 
d="M500 376v-376h-49v376h49zM127 376v-376h-49v376h49zM500 -77v-188h-49v188h49zM83 704h412v-49h-412v49z" />
    <glyph glyph-name="UkaliqLetterUiWithDot" unicode="&#xeea6;" 
d="M495 655q-368 0 -368 -429v-226h-49v226q0 478 417 478v-49zM500 -77v-188h-49v188h49z" />
    <glyph glyph-name="UkaliqLetterAhWithDot" unicode="&#xeea7;" 
d="M495 655q-368 0 -368 -429v-226h-49v226q0 478 417 478v-49zM500 376v-376h-49v376h49zM500 -77v-188h-49v188h49z" />
    <glyph glyph-name="UkaliqLetterAeWithDot" unicode="&#xeea8;" 
d="M83 704q417 0 417 -377h-49q0 328 -368 328v49zM500 -77v-188h-49v188h49z" />
    <glyph glyph-name="UkaliqLetterOWithDot" unicode="&#xeea9;" 
d="M83 704q417 0 417 -478v-226h-49v226q0 429 -368 429v49zM500 -77v-188h-49v188h49z" />
    <glyph glyph-name="UkaliqLetterIhWithDot" unicode="&#xeeaa;" 
d="M78 327q0 377 211 377t211 -377h-49q0 328 -162 328t-162 -328h-49zM500 -77v-188h-49v188h49z" />
    <glyph glyph-name="UkaliqLetterUWithDot" unicode="&#xeeab;" 
d="M78 327q0 377 211 377t211 -478v-226h-49v226q0 429 -162 429t-162 -328h-49zM500 -77v-188h-49v188h49z" />
    <glyph glyph-name="UkaliqLetterEWithDot" unicode="&#xeeac;" 
d="M83 704q417 0 417 -377h-49q0 328 -368 328v49zM127 376v-376h-49v376h49zM500 -77v-188h-49v188h49z" />
    <glyph glyph-name="UkaliqLetterEhWithDot" unicode="&#xeead;" 
d="M83 704q417 0 417 -478v-226h-49v226q0 429 -368 429v49zM127 376v-376h-49v376h49zM500 -77v-188h-49v188h49z" />
    <glyph glyph-name="UkaliqLetterIWithDot" unicode="&#xeeae;" 
d="M451 327q0 328 -162 328t-162 -429v-226h-49v226q0 478 211 478t211 -377h-49zM500 -77v-188h-49v188h49z" />
    <glyph glyph-name="UkaliqLetterOhWithDot" unicode="&#xeeaf;" 
d="M78 0v226q0 478 211 478t211 -478v-226h-49v226q0 429 -162 429t-162 -429v-226h-49zM500 -77v-188h-49v188h49z" />
    <glyph glyph-name="UkaliqPlusWithDot" unicode="&#xeeb0;" 
d="M83 49h412v-49h-412v49zM500 -77v-188h-49v188h49zM83 704h412v-49h-412v49z" />
    <glyph glyph-name="UkaliqCurrencyWithDot" unicode="&#xeeb1;" 
d="M500 -77v-188h-49v188h49zM500 376q0 -376 -417 -376v49q368 0 368 327h49zM83 704h412v-49h-412v49z" />
    <glyph glyph-name="UkaliqAtWithDot" unicode="&#xeeb2;" 
d="M83 49h412v-49h-412v49zM495 655q-368 0 -368 -328h-49q0 377 417 377v-49zM500 -77v-188h-49v188h49z" />
    <glyph glyph-name="UkaliqLetterAlhaWithDot" unicode="&#xeeb3;" 
d="M495 655q-368 0 -368 -328h-49q0 377 417 377v-49zM500 -77v-188h-49v188h49zM500 376q0 -376 -417 -376v49q368 0 368 327h49z" />
    <glyph glyph-name="UkaliqLetterElreWithDot" unicode="&#xeeb4;" 
d="M127 376q0 -327 368 -327v-49q-417 0 -417 376h49zM500 -77v-188h-49v188h49zM83 704h412v-49h-412v49z" />
    <glyph glyph-name="UkaliqLetterUlguWithDot" unicode="&#xeeb5;" 
d="M127 376q0 -327 162 -327t162 327h49q0 -376 -211 -376t-211 376h49zM500 -77v-188h-49v188h49zM83 704h412v-49h-412v49z" />
    <glyph glyph-name="UkaliqLetterIljiWithDot" unicode="&#xeeb6;" 
d="M495 655q-368 0 -368 -303t368 -303v-49q-417 0 -417 352t417 352v-49zM500 -77v-188h-49v188h49z" />
    <glyph glyph-name="UkaliqLetterOloWithDot" unicode="&#xeeb7;" 
d="M495 655q-368 0 -368 -303t162 -303t162 327h49q0 -376 -211 -376t-211 352t417 352v-49zM500 -77v-188h-49v188h49z" />
    <glyph glyph-name="UkaliqDegreeWithDot" unicode="&#xeeb8;" 
d="M83 49h412v-49h-412v49zM83 704q417 0 417 -377h-49q0 328 -368 328v49zM500 -77v-188h-49v188h49z" />
    <glyph glyph-name="UkaliqLetterHbatWithDot" unicode="&#xeeb9;" 
d="M83 704q417 0 417 -352t-417 -352v49q368 0 368 303t-368 303v49zM500 -77v-188h-49v188h49z" />
    <glyph glyph-name="UkaliqLetterAnqaWithDot" unicode="&#xeeba;" 
d="M83 49h412v-49h-412v49zM78 327q0 377 211 377t211 -377h-49q0 328 -162 328t-162 -328h-49zM500 -77v-188h-49v188h49z" />
    <glyph glyph-name="UkaliqLetterAmaWithDot" unicode="&#xeebb;" 
d="M78 327q0 377 211 377t211 -352t-417 -352v49q368 0 368 303t-162 303t-162 -328h-49zM500 -77v-188h-49v188h49z" />
    <glyph glyph-name="UkaliqLetterEnreWithDot" unicode="&#xeebc;" 
d="M83 704q417 0 417 -377h-49q0 328 -368 328v49zM127 376q0 -327 368 -327v-49q-417 0 -417 376h49zM500 -77v-188h-49v188h49z" />
    <glyph glyph-name="UkaliqLetterUnguWithDot" unicode="&#xeebd;" 
d="M83 704q417 0 417 -352t-211 -352t-211 376h49q0 -327 162 -327t162 303t-368 303v49zM500 -77v-188h-49v188h49z" />
    <glyph glyph-name="UkaliqLetterInjiWithDot" unicode="&#xeebe;" 
d="M451 327q0 328 -162 328t-162 -303t368 -303v-49q-417 0 -417 352t211 352t211 -377h-49zM500 -77v-188h-49v188h49z" />
    <glyph glyph-name="UkaliqLetterOnoWithDot" unicode="&#xeebf;" 
d="M500 -77v-188h-49v188h49zM127 352q0 -303 162 -303t162 303t-162 303t-162 -303zM78 352q0 352 211 352t211 -352t-211 -352t-211 352z" />
    <glyph glyph-name="UkaliqDashWithDot" unicode="&#xeec0;" 
d="M83 376h412v-49h-412v49zM500 -77v-188h-49v188h49z" />
    <glyph glyph-name="UkaliqLetterAWithDot" unicode="&#xeec1;" 
d="M83 376q417 0 417 -376h-49q0 327 -368 327v49zM500 -77v-188h-49v188h49z" />
    <glyph glyph-name="UkaliqMinusWithDot" unicode="&#xeec2;" 
d="M127 704q0 -328 368 -328v-49q-417 0 -417 377h49zM500 -77v-188h-49v188h49z" />
    <glyph glyph-name="UkaliqLetterAwaWithDot" unicode="&#xeec3;" 
d="M500 -77v-188h-49v188h49zM127 704q0 -328 287 -328q86 0 86 -95v-281h-49v281q0 46 -37 46q-336 0 -336 377h49z" />
    <glyph glyph-name="UkaliqLetterErreWithDot" unicode="&#xeec4;" 
d="M495 327q-368 0 -368 -327h-49q0 376 417 376v-49zM500 -77v-188h-49v188h49z" />
    <glyph glyph-name="UkaliqAndWithDot" unicode="&#xeec5;" 
d="M78 0q0 376 211 376t211 -376h-49q0 327 -162 327t-162 -327h-49zM500 -77v-188h-49v188h49z" />
    <glyph glyph-name="UkaliqLetterIzjiWithDot" unicode="&#xeec6;" 
d="M500 -77v-188h-49v188h49zM127 327v-327h-49v352v352h49v-328h368v-49h-368z" />
    <glyph glyph-name="UkaliqLetterOroWithDot" unicode="&#xeec7;" 
d="M500 -77v-188h-49v188h49zM127 327v-327h-49v352v352h49v-328q373 -11 373 -376h-49q0 316 -324 327z" />
    <glyph glyph-name="UkaliqNotWithDot" unicode="&#xeec8;" 
d="M500 704q0 -377 -417 -377v49q368 0 368 328h49zM500 -77v-188h-49v188h49z" />
    <glyph glyph-name="UkaliqDivisionWithDot" unicode="&#xeec9;" 
d="M500 704v-352v-352h-49v327h-368v49h368v328h49zM500 -77v-188h-49v188h49z" />
    <glyph glyph-name="UkaliqXorWithDot" unicode="&#xeeca;" 
d="M127 704q0 -328 162 -328t162 328h49q0 -377 -211 -377t-211 377h49zM500 -77v-188h-49v188h49z" />
    <glyph glyph-name="uniEECB" unicode="&#xeecb;" 
d="M500 -77v-188h-49v188h49zM500 704v-352v-352h-49v327q-373 12 -373 377h49q0 -316 324 -328v328h49z" />
    <glyph glyph-name="UkaliqLetterIjiWithDot" unicode="&#xeecc;" 
d="M500 704q0 -377 -335 -377q-38 0 -38 -46v-281h-49v281q0 95 87 95q286 0 286 328h49zM500 -77v-188h-49v188h49z" />
    <glyph glyph-name="UkaliqLetterTkotWithDot" unicode="&#xeecd;" 
d="M500 704v-352v-352h-49v327q-324 -11 -324 -327h-49q0 364 373 376v328h49zM500 -77v-188h-49v188h49z" />
    <glyph glyph-name="UkaliqLetterIsjiWithDot" unicode="&#xeece;" 
d="M500 -77v-188h-49v188h49zM127 327v-327h-49v352v352h49v-328q324 11 324 328h49q0 -366 -373 -377z" />
    <glyph glyph-name="UkaliqLetterOrroWithDot" unicode="&#xeecf;" 
d="M500 -77v-188h-49v188h49zM500 704v-352v-352h-49v327h-324v-327h-49v352v352h49v-328h324v328h49z" />
    <glyph glyph-name="UkaliqBaseSixteen" unicode="&#xeed0;" 
d="M83 49h412v-49h-412v49zM83 376h412v-49h-412v49zM500 -77v-188h-49v188h49z" />
    <glyph glyph-name="UkaliqBaseNegativeTwo" unicode="&#xeed1;" 
d="M83 376q417 0 417 -188t-417 -188v49q368 0 368 139t-368 139v49zM500 -77v-188h-49v188h49z" />
    <glyph glyph-name="UkaliqBaseTwo" unicode="&#xeed2;" 
d="M127 704q0 -328 368 -328v-49q-417 0 -417 377h49zM83 49h412v-49h-412v49zM500 -77v-188h-49v188h49z" />
    <glyph glyph-name="UkaliqBaseThree" unicode="&#xeed3;" 
d="M500 -77v-188h-49v188h49zM127 704q0 -328 287 -328q86 0 86 -79q0 -297 -417 -297v49q368 0 368 248q0 30 -37 30q-336 0 -336 377h49z" />
    <glyph glyph-name="UkaliqBaseFour" unicode="&#xeed4;" 
d="M495 327q-368 0 -368 -139t368 -139v-49q-417 0 -417 188t417 188v-49zM500 -77v-188h-49v188h49z" />
    <glyph glyph-name="UkaliqBaseFive" unicode="&#xeed5;" 
d="M500 -77v-188h-49v188h49zM127 188q0 -139 162 -139t162 139t-162 139t-162 -139zM78 188q0 188 211 188t211 -188t-211 -188t-211 188z" />
    <glyph glyph-name="UkaliqBaseSix" unicode="&#xeed6;" 
d="M500 -77v-188h-49v188h49zM128 327q15 -278 367 -278v-49q-417 0 -417 352v352h49v-328h368v-49h-367z" />
    <glyph glyph-name="UkaliqBaseNegativeEight" unicode="&#xeed7;" 
d="M500 -77v-188h-49v188h49zM127 327q7 -278 162 -278q162 0 162 139q0 134 -324 139zM127 376q373 -6 373 -188q0 -188 -211 -188t-211 352v352h49v-328z" />
    <glyph glyph-name="UkaliqBaseEight" unicode="&#xeed8;" 
d="M83 49h412v-49h-412v49zM500 704q0 -377 -417 -377v49q368 0 368 328h49zM500 -77v-188h-49v188h49z" />
    <glyph glyph-name="UkaliqBaseNegativeTen" unicode="&#xeed9;" 
d="M500 704v-352q0 -352 -417 -352v49q352 0 367 278h-367v49h368v328h49zM500 -77v-188h-49v188h49z" />
    <glyph glyph-name="UkaliqBaseTen" unicode="&#xeeda;" 
d="M127 704q0 -328 162 -328t162 328h49q0 -377 -211 -377t-211 377h49zM83 49h412v-49h-412v49zM500 -77v-188h-49v188h49z" />
    <glyph glyph-name="UkaliqBaseNegativeThree" unicode="&#xeedb;" 
d="M500 -77v-188h-49v188h49zM500 704v-352q0 -352 -417 -352v49q353 0 367 278q-372 12 -372 377h49q0 -316 324 -328v328h49z" />
    <glyph glyph-name="UkaliqBaseNegativeFour" unicode="&#xeedc;" 
d="M500 704q0 -377 -335 -377q-38 0 -38 -30q0 -248 368 -248v-49q-417 0 -417 297q0 79 87 79q286 0 286 328h49zM500 -77v-188h-49v188h49z" />
    <glyph glyph-name="UkaliqBaseNegativeFive" unicode="&#xeedd;" 
d="M500 704v-352q0 -352 -211 -352t-211 188q0 182 373 188v328h49zM500 -77v-188h-49v188h49zM451 327q-324 -5 -324 -139q0 -139 162 -139q155 0 162 278z" />
    <glyph glyph-name="UkaliqBaseNegativeSix" unicode="&#xeede;" 
d="M500 -77v-188h-49v188h49zM128 327q15 -278 367 -278v-49q-417 0 -417 352v352h49v-328q324 11 324 328h49q0 -365 -372 -377z" />
    <glyph glyph-name="UkaliqBaseNegativeSixteen" unicode="&#xeedf;" 
d="M500 -77v-188h-49v188h49zM451 376v328h49v-352q0 -352 -211 -352t-211 352v352h49v-328h324zM451 327h-324q7 -278 162 -278t162 278z" />
    <glyph glyph-name="UkaliqLetterSchwaWithDot" unicode="&#xeee0;" 
d="M83 376h412v-49h-412v49zM500 -77v-188h-49v188h49zM83 704h412v-49h-412v49z" />
    <glyph glyph-name="UkaliqLetterOhgoWithDot" unicode="&#xeee1;" 
d="M83 376q417 0 417 -376h-49q0 327 -368 327v49zM500 -77v-188h-49v188h49zM83 704h412v-49h-412v49z" />
    <glyph glyph-name="UkaliqLetterArhaWithDot" unicode="&#xeee2;" 
d="M495 655q-368 0 -368 -140q0 -139 368 -139v-49q-417 0 -417 188q0 189 417 189v-49zM500 -77v-188h-49v188h49z" />
    <glyph glyph-name="UkaliqLetterAvaWithDot" unicode="&#xeee3;" 
d="M500 -77v-188h-49v188h49zM495 655q-368 0 -368 -140q0 -139 287 -139q86 0 86 -95v-281h-49v281q0 46 -37 46q-336 0 -336 188q0 189 417 189v-49z" />
    <glyph glyph-name="UkaliqLetterEzreWithDot" unicode="&#xeee4;" 
d="M495 327q-368 0 -368 -327h-49q0 376 417 376v-49zM500 -77v-188h-49v188h49zM83 704h412v-49h-412v49z" />
    <glyph glyph-name="UkaliqLetterUghuWithDot" unicode="&#xeee5;" 
d="M78 0q0 376 211 376t211 -376h-49q0 327 -162 327t-162 -327h-49zM500 -77v-188h-49v188h49zM83 704h412v-49h-412v49z" />
    <glyph glyph-name="UkaliqLetterIjjiWithDot" unicode="&#xeee6;" 
d="M500 -77v-188h-49v188h49zM127 327v-327h-49v352q0 352 417 352v-49q-353 0 -367 -279h367v-49h-368z" />
    <glyph glyph-name="UkaliqLetterOdhoWithDot" unicode="&#xeee7;" 
d="M500 -77v-188h-49v188h49zM127 327v-327h-49v352q0 352 417 352v-49q-353 0 -367 -279q372 -11 372 -376h-49q0 316 -324 327z" />
    <glyph glyph-name="UkaliqLetterOhhoWithDot" unicode="&#xeee8;" 
d="M83 704q417 0 417 -189q0 -188 -417 -188v49q368 0 368 139q0 140 -368 140v49zM500 -77v-188h-49v188h49z" />
    <glyph glyph-name="UkaliqLetterAhaWithDot" unicode="&#xeee9;" 
d="M83 704q417 0 417 -352v-352h-49v327h-368v49h367q-14 279 -367 279v49zM500 -77v-188h-49v188h49z" />
    <glyph glyph-name="UkaliqLetterAqhaWithDot" unicode="&#xeeea;" 
d="M500 -77v-188h-49v188h49zM127 515q0 -139 162 -139t162 139q0 140 -162 140t-162 -140zM78 515q0 189 211 189t211 -189q0 -188 -211 -188t-211 188z" />
    <glyph glyph-name="UkaliqLetterAfaWithDot" unicode="&#xeeeb;" 
d="M500 -77v-188h-49v188h49zM451 376q-6 279 -162 279q-162 0 -162 -140q0 -134 324 -139zM451 327q-373 6 -373 188q0 189 211 189t211 -352v-352h-49v327z" />
    <glyph glyph-name="UkaliqLetterEsreWithDot" unicode="&#xeeec;" 
d="M83 704q417 0 417 -189q0 -188 -335 -188q-38 0 -38 -46v-281h-49v281q0 95 87 95q286 0 286 139q0 140 -368 140v49zM500 -77v-188h-49v188h49z" />
    <glyph glyph-name="UkaliqLetterUkhuWithDot" unicode="&#xeeed;" 
d="M83 704q417 0 417 -352v-352h-49v327q-324 -11 -324 -327h-49q0 364 372 376q-14 279 -367 279v49zM500 -77v-188h-49v188h49z" />
    <glyph glyph-name="UkaliqLetterIcjiWithDot" unicode="&#xeeee;" 
d="M500 -77v-188h-49v188h49zM127 327v-327h-49v352q0 352 211 352t211 -189q0 -182 -373 -188zM127 376q324 5 324 139q0 140 -162 140q-156 0 -162 -279z" />
    <glyph glyph-name="UkaliqLetterOthoWithDot" unicode="&#xeeef;" 
d="M500 -77v-188h-49v188h49zM78 0v352q0 352 211 352t211 -352v-352h-49v327h-324v-327h-49zM127 376h324q-6 279 -162 279t-162 -279z" />
    <glyph glyph-name="UkaliqIterationMarkWithDot" unicode="&#xeef0;" 
d="M83 49h412v-49h-412v49zM83 376h412v-49h-412v49zM500 -77v-188h-49v188h49zM83 704h412v-49h-412v49z" />
    <glyph glyph-name="UkaliqPercentWithDot" unicode="&#xeef1;" 
d="M83 376q417 0 417 -188t-417 -188v49q368 0 368 139t-368 139v49zM500 -77v-188h-49v188h49zM83 704h412v-49h-412v49z" />
    <glyph glyph-name="UkaliqLetterAgqaWithDot" unicode="&#xeef2;" 
d="M495 655q-368 0 -368 -140q0 -139 368 -139v-49q-417 0 -417 188q0 189 417 189v-49zM83 49h412v-49h-412v49zM500 -77v-188h-49v188h49z" />
    <glyph glyph-name="UkaliqLetterAbaWithDot" unicode="&#xeef3;" 
d="M500 -77v-188h-49v188h49zM495 655q-368 0 -368 -140q0 -139 287 -139q86 0 86 -79q0 -297 -417 -297v49q368 0 368 248q0 30 -37 30q-336 0 -336 188q0 189 417 189v-49z" />
    <glyph glyph-name="UkaliqLetterEdreWithDot" unicode="&#xeef4;" 
d="M495 327q-368 0 -368 -139t368 -139v-49q-417 0 -417 188t417 188v-49zM500 -77v-188h-49v188h49zM83 704h412v-49h-412v49z" />
    <glyph glyph-name="UkaliqLetterUguWithDot" unicode="&#xeef5;" 
d="M500 -77v-188h-49v188h49zM83 704h412v-49h-412v49zM127 188q0 -139 162 -139t162 139t-162 139t-162 -139zM78 188q0 188 211 188t211 -188t-211 -188t-211 188z" />
    <glyph glyph-name="UkaliqLetterIgjiWithDot" unicode="&#xeef6;" 
d="M500 -77v-188h-49v188h49zM128 327q15 -278 367 -278v-49q-417 0 -417 352t417 352v-49q-353 0 -367 -279h367v-49h-367z" />
    <glyph glyph-name="UkaliqLetterOdoWithDot" unicode="&#xeef7;" 
d="M500 -77v-188h-49v188h49zM127 327q7 -278 162 -278q162 0 162 139q0 134 -324 139zM128 376q372 -6 372 -188q0 -188 -211 -188t-211 352t417 352v-49q-353 0 -367 -279z" />
    <glyph glyph-name="UkaliqLetterOhhkoWithDot" unicode="&#xeef8;" 
d="M83 49h412v-49h-412v49zM83 704q417 0 417 -189q0 -188 -417 -188v49q368 0 368 139q0 140 -368 140v49zM500 -77v-188h-49v188h49z" />
    <glyph glyph-name="UkaliqLetterAhkaWithDot" unicode="&#xeef9;" 
d="M83 704q417 0 417 -352t-417 -352v49q352 0 367 278h-367v49h367q-14 279 -367 279v49zM500 -77v-188h-49v188h49z" />
    <glyph glyph-name="UkaliqLetterAqaWithDot" unicode="&#xeefa;" 
d="M83 49h412v-49h-412v49zM500 -77v-188h-49v188h49zM127 515q0 -139 162 -139t162 139q0 140 -162 140t-162 -140zM78 515q0 189 211 189t211 -189q0 -188 -211 -188t-211 188z" />
    <glyph glyph-name="UkaliqLetterApaWithDot" unicode="&#xeefb;" 
d="M500 -77v-188h-49v188h49zM451 376q-6 279 -162 279q-162 0 -162 -140q0 -134 324 -139zM450 327q-372 6 -372 188q0 189 211 189t211 -352t-417 -352v49q352 0 367 278z" />
    <glyph glyph-name="UkaliqLetterEtreWithDot" unicode="&#xeefc;" 
d="M83 704q417 0 417 -189q0 -188 -335 -188q-38 0 -38 -30q0 -248 368 -248v-49q-417 0 -417 297q0 79 87 79q286 0 286 139q0 140 -368 140v49zM500 -77v-188h-49v188h49z" />
    <glyph glyph-name="UkaliqLetterUkuWithDot" unicode="&#xeefd;" 
d="M83 704q417 0 417 -352t-211 -352t-211 188q0 182 372 188q-14 279 -367 279v49zM500 -77v-188h-49v188h49zM451 327q-324 -5 -324 -139q0 -139 162 -139q155 0 162 278z" />
    <glyph glyph-name="UkaliqLetterIciWithDot" unicode="&#xeefe;" 
d="M500 -77v-188h-49v188h49zM128 327q15 -278 367 -278v-49q-417 0 -417 352t211 352t211 -189q0 -182 -372 -188zM127 376q324 5 324 139q0 140 -162 140q-156 0 -162 -279z" />
    <glyph glyph-name="UkaliqLetterOtoWithDot" unicode="&#xeeff;" 
d="M500 -77v-188h-49v188h49zM127 376h324q-6 279 -162 279t-162 -279zM451 327h-324q7 -278 162 -278t162 278zM78 352q0 352 211 352t211 -352t-211 -352t-211 352z" />
    <glyph glyph-name="UkaliqPatternBlank" unicode="&#xf1d00;" 
 />
    <glyph glyph-name="UkaliqPatternSegmentsC" unicode="&#xf1d01;" 
d="M500 376v-376h-49v376h49z" />
    <glyph glyph-name="UkaliqPatternSegmentsF" unicode="&#xf1d02;" 
d="M127 704v-377h-49v377h49z" />
    <glyph glyph-name="UkaliqPatternSegmentsCf" unicode="&#xf1d03;" 
d="M500 376v-376h-49v376h49zM127 704v-377h-49v377h49z" />
    <glyph glyph-name="UkaliqPatternSegmentsE" unicode="&#xf1d04;" 
d="M127 376v-376h-49v376h49z" />
    <glyph glyph-name="UkaliqPatternSegmentsCe" unicode="&#xf1d05;" 
d="M500 376v-376h-49v376h49zM127 376v-376h-49v376h49z" />
    <glyph glyph-name="UkaliqPatternSegmentsEf" unicode="&#xf1d06;" 
d="M127 704v-704h-49v704h49z" />
    <glyph glyph-name="UkaliqPatternSegmentsCef" unicode="&#xf1d07;" 
d="M127 704v-704h-49v704h49zM500 376v-376h-49v376h49z" />
    <glyph glyph-name="UkaliqPatternSegmentsB" unicode="&#xf1d08;" 
d="M500 704v-377h-49v377h49z" />
    <glyph glyph-name="UkaliqPatternSegmentsBc" unicode="&#xf1d09;" 
d="M500 704v-704h-49v704h49z" />
    <glyph glyph-name="UkaliqPatternSegmentsBf" unicode="&#xf1d0a;" 
d="M127 704v-377h-49v377h49zM500 704v-377h-49v377h49z" />
    <glyph glyph-name="UkaliqPatternSegmentsBcf" unicode="&#xf1d0b;" 
d="M500 704v-704h-49v704h49zM127 704v-377h-49v377h49z" />
    <glyph glyph-name="UkaliqPatternSegmentsBe" unicode="&#xf1d0c;" 
d="M500 704v-377h-49v377h49zM127 376v-376h-49v376h49z" />
    <glyph glyph-name="UkaliqPatternSegmentsBce" unicode="&#xf1d0d;" 
d="M500 704v-704h-49v704h49zM127 376v-376h-49v376h49z" />
    <glyph glyph-name="UkaliqPatternSegmentsBef" unicode="&#xf1d0e;" 
d="M127 704v-704h-49v704h49zM500 704v-377h-49v377h49z" />
    <glyph glyph-name="UkaliqPatternSegmentsBcef" unicode="&#xf1d0f;" 
d="M500 704v-704h-49v704h49zM127 704v-704h-49v704h49z" />
    <glyph glyph-name="UkaliqPatternSegmentsD" unicode="&#xf1d10;" 
d="M83 49h412v-49h-412v49z" />
    <glyph glyph-name="UkaliqPatternSegmentsCd" unicode="&#xf1d11;" 
d="M500 376q0 -376 -417 -376v49q368 0 368 327h49z" />
    <glyph glyph-name="UkaliqPatternSegmentsDf" unicode="&#xf1d12;" 
d="M83 49h412v-49h-412v49zM127 704v-377h-49v377h49z" />
    <glyph glyph-name="UkaliqPatternSegmentsCdf" unicode="&#xf1d13;" 
d="M127 704v-377h-49v377h49zM500 376q0 -376 -417 -376v49q368 0 368 327h49z" />
    <glyph glyph-name="UkaliqPatternSegmentsDe" unicode="&#xf1d14;" 
d="M127 376q0 -327 368 -327v-49q-417 0 -417 376h49z" />
    <glyph glyph-name="UkaliqPatternSegmentsCde" unicode="&#xf1d15;" 
d="M127 376q0 -327 162 -327t162 327h49q0 -376 -211 -376t-211 376h49z" />
    <glyph glyph-name="UkaliqPatternSegmentsDef" unicode="&#xf1d16;" 
d="M127 704v-227q0 -428 368 -428v-49q-417 0 -417 477v227h49z" />
    <glyph glyph-name="UkaliqPatternSegmentsCdef" unicode="&#xf1d17;" 
d="M127 704v-227q0 -428 162 -428t162 327h49q0 -376 -211 -376t-211 477v227h49z" />
    <glyph glyph-name="UkaliqPatternSegmentsBd" unicode="&#xf1d18;" 
d="M83 49h412v-49h-412v49zM500 704v-377h-49v377h49z" />
    <glyph glyph-name="UkaliqPatternSegmentsBcd" unicode="&#xf1d19;" 
d="M500 704v-227q0 -477 -417 -477v49q368 0 368 428v227h49z" />
    <glyph glyph-name="UkaliqPatternSegmentsBdf" unicode="&#xf1d1a;" 
d="M83 49h412v-49h-412v49zM127 704v-377h-49v377h49zM500 704v-377h-49v377h49z" />
    <glyph glyph-name="UkaliqPatternSegmentsBcdf" unicode="&#xf1d1b;" 
d="M127 704v-377h-49v377h49zM500 704v-227q0 -477 -417 -477v49q368 0 368 428v227h49z" />
    <glyph glyph-name="UkaliqPatternSegmentsBde" unicode="&#xf1d1c;" 
d="M127 376q0 -327 368 -327v-49q-417 0 -417 376h49zM500 704v-377h-49v377h49z" />
    <glyph glyph-name="UkaliqPatternSegmentsBcde" unicode="&#xf1d1d;" 
d="M500 704v-227q0 -477 -211 -477t-211 376h49q0 -327 162 -327t162 428v227h49z" />
    <glyph glyph-name="UkaliqPatternSegmentsBdef" unicode="&#xf1d1e;" 
d="M127 704v-227q0 -428 368 -428v-49q-417 0 -417 477v227h49zM500 704v-377h-49v377h49z" />
    <glyph glyph-name="UkaliqPatternSegmentsBcdef" unicode="&#xf1d1f;" 
d="M127 704v-227q0 -428 162 -428t162 428v227h49v-227q0 -477 -211 -477t-211 477v227h49z" />
    <glyph glyph-name="UkaliqPatternSegmentsA" unicode="&#xf1d20;" 
d="M83 704h412v-49h-412v49z" />
    <glyph glyph-name="UkaliqPatternSegmentsAc" unicode="&#xf1d21;" 
d="M500 376v-376h-49v376h49zM83 704h412v-49h-412v49z" />
    <glyph glyph-name="UkaliqPatternSegmentsAf" unicode="&#xf1d22;" 
d="M495 655q-368 0 -368 -328h-49q0 377 417 377v-49z" />
    <glyph glyph-name="UkaliqPatternSegmentsAcf" unicode="&#xf1d23;" 
d="M500 376v-376h-49v376h49zM495 655q-368 0 -368 -328h-49q0 377 417 377v-49z" />
    <glyph glyph-name="UkaliqPatternSegmentsAe" unicode="&#xf1d24;" 
d="M127 376v-376h-49v376h49zM83 704h412v-49h-412v49z" />
    <glyph glyph-name="UkaliqPatternSegmentsAce" unicode="&#xf1d25;" 
d="M500 376v-376h-49v376h49zM127 376v-376h-49v376h49zM83 704h412v-49h-412v49z" />
    <glyph glyph-name="UkaliqPatternSegmentsAef" unicode="&#xf1d26;" 
d="M495 655q-368 0 -368 -429v-226h-49v226q0 478 417 478v-49z" />
    <glyph glyph-name="UkaliqPatternSegmentsAcef" unicode="&#xf1d27;" 
d="M495 655q-368 0 -368 -429v-226h-49v226q0 478 417 478v-49zM500 376v-376h-49v376h49z" />
    <glyph glyph-name="UkaliqPatternSegmentsAb" unicode="&#xf1d28;" 
d="M83 704q417 0 417 -377h-49q0 328 -368 328v49z" />
    <glyph glyph-name="UkaliqPatternSegmentsAbc" unicode="&#xf1d29;" 
d="M83 704q417 0 417 -478v-226h-49v226q0 429 -368 429v49z" />
    <glyph glyph-name="UkaliqPatternSegmentsAbf" unicode="&#xf1d2a;" 
d="M78 327q0 377 211 377t211 -377h-49q0 328 -162 328t-162 -328h-49z" />
    <glyph glyph-name="UkaliqPatternSegmentsAbcf" unicode="&#xf1d2b;" 
d="M78 327q0 377 211 377t211 -478v-226h-49v226q0 429 -162 429t-162 -328h-49z" />
    <glyph glyph-name="UkaliqPatternSegmentsAbe" unicode="&#xf1d2c;" 
d="M83 704q417 0 417 -377h-49q0 328 -368 328v49zM127 376v-376h-49v376h49z" />
    <glyph glyph-name="UkaliqPatternSegmentsAbce" unicode="&#xf1d2d;" 
d="M83 704q417 0 417 -478v-226h-49v226q0 429 -368 429v49zM127 376v-376h-49v376h49z" />
    <glyph glyph-name="UkaliqPatternSegmentsAbef" unicode="&#xf1d2e;" 
d="M451 327q0 328 -162 328t-162 -429v-226h-49v226q0 478 211 478t211 -377h-49z" />
    <glyph glyph-name="UkaliqPatternSegmentsAbcef" unicode="&#xf1d2f;" 
d="M78 0v226q0 478 211 478t211 -478v-226h-49v226q0 429 -162 429t-162 -429v-226h-49z" />
    <glyph glyph-name="UkaliqPatternSegmentsAd" unicode="&#xf1d30;" 
d="M83 49h412v-49h-412v49zM83 704h412v-49h-412v49z" />
    <glyph glyph-name="UkaliqPatternSegmentsAcd" unicode="&#xf1d31;" 
d="M500 376q0 -376 -417 -376v49q368 0 368 327h49zM83 704h412v-49h-412v49z" />
    <glyph glyph-name="UkaliqPatternSegmentsAdf" unicode="&#xf1d32;" 
d="M83 49h412v-49h-412v49zM495 655q-368 0 -368 -328h-49q0 377 417 377v-49z" />
    <glyph glyph-name="UkaliqPatternSegmentsAcdf" unicode="&#xf1d33;" 
d="M495 655q-368 0 -368 -328h-49q0 377 417 377v-49zM500 376q0 -376 -417 -376v49q368 0 368 327h49z" />
    <glyph glyph-name="UkaliqPatternSegmentsAde" unicode="&#xf1d34;" 
d="M127 376q0 -327 368 -327v-49q-417 0 -417 376h49zM83 704h412v-49h-412v49z" />
    <glyph glyph-name="UkaliqPatternSegmentsAcde" unicode="&#xf1d35;" 
d="M127 376q0 -327 162 -327t162 327h49q0 -376 -211 -376t-211 376h49zM83 704h412v-49h-412v49z" />
    <glyph glyph-name="UkaliqPatternSegmentsAdef" unicode="&#xf1d36;" 
d="M495 655q-368 0 -368 -303t368 -303v-49q-417 0 -417 352t417 352v-49z" />
    <glyph glyph-name="UkaliqPatternSegmentsAcdef" unicode="&#xf1d37;" 
d="M495 655q-368 0 -368 -303t162 -303t162 327h49q0 -376 -211 -376t-211 352t417 352v-49z" />
    </font>
</defs>
</svg>
