<?xml version="1.0" standalone="no"?>
<!DOCTYPE svg PUBLIC "-//W3C//DTD SVG 1.1//EN" "http://www.w3.org/Graphics/SVG/1.1/DTD/svg11.dtd" >
<svg xmlns="http://www.w3.org/2000/svg" xmlns:xlink="http://www.w3.org/1999/xlink" version="1.1">
<metadata>
Created by FontForge 20170812 at Mon Jan 23 00:30:09 2023
 By ht,,,
Copyright (C) 2022-2023 Henrik Theiling, License CC-BY-NC4.0
</metadata>
<defs>
<font id="UkaliqPenBoldOblique" horiz-adv-x="578" >
  <font-face 
    font-family="Ukaliq Pen"
    font-weight="600"
    font-style="oblique"
    font-stretch="normal"
    units-per-em="1024"
    panose-1="2 0 7 3 0 0 0 0 0 0"
    ascent="727"
    descent="-297"
    bbox="0 -296 655 946"
    underline-thickness="78"
    underline-position="-171"
    unicode-range="U+000D-F1DFF"
  />
<missing-glyph 
d="M107 117h419l-24 -117h-418zM498 -77l-37 -188h-117l37 188h117z" />
    <glyph glyph-name="UkaliqSpace_UkaliqModifierDot" unicode="&#xee00;&#x331;" 
d="M498 -77l-37 -188h-117l37 188h117z" />
    <glyph glyph-name="UkaliqNumber_UkaliqModifierDot" unicode="&#xee01;&#x331;" 
d="M596 410l-82 -410h-117l82 410h117zM498 -77l-37 -188h-117l37 188h117z" />
    <glyph glyph-name="UkaliqRightSingleQuotationMark_UkaliqModifierDot" unicode="&#xee02;&#x331;" 
d="M330 704l-82 -411h-117l82 411h117zM498 -77l-37 -188h-117l37 188h117z" />
    <glyph glyph-name="UkaliqColon_UkaliqModifierDot" unicode="&#xee03;&#x331;" 
d="M596 410l-82 -410h-117l82 410h117zM330 704l-82 -411h-117l82 411h117zM498 -77l-37 -188h-117l37 188h117z" />
    <glyph glyph-name="UkaliqFullStop_UkaliqModifierDot" unicode="&#xee04;&#x331;" 
d="M272 410l-82 -410h-118l82 410h118zM498 -77l-37 -188h-117l37 188h117z" />
    <glyph glyph-name="UkaliqComma_UkaliqModifierDot" unicode="&#xee05;&#x331;" 
d="M596 410l-82 -410h-117l82 410h117zM272 410l-82 -410h-118l82 410h118zM498 -77l-37 -188h-117l37 188h117z" />
    <glyph glyph-name="UkaliqRightParenthesis_UkaliqModifierDot" unicode="&#xee06;&#x331;" 
d="M330 704l-140 -704h-118l141 704h117zM498 -77l-37 -188h-117l37 188h117z" />
    <glyph glyph-name="UkaliqExclamationMark_UkaliqModifierDot" unicode="&#xee07;&#x331;" 
d="M330 704l-140 -704h-118l141 704h117zM596 410l-82 -410h-117l82 410h117zM498 -77l-37 -188h-117l37 188h117z" />
    <glyph glyph-name="UkaliqLeftSingleQuotationMark_UkaliqModifierDot" unicode="&#xee08;&#x331;" 
d="M655 704l-82 -411h-118l82 411h118zM498 -77l-37 -188h-117l37 188h117z" />
    <glyph glyph-name="UkaliqLeftParenthesis_UkaliqModifierDot" unicode="&#xee09;&#x331;" 
d="M655 704l-141 -704h-117l140 704h118zM498 -77l-37 -188h-117l37 188h117z" />
    <glyph glyph-name="UkaliqDoubleQuotationMark_UkaliqModifierDot" unicode="&#xee0a;&#x331;" 
d="M330 704l-82 -411h-117l82 411h117zM655 704l-82 -411h-118l82 411h118zM498 -77l-37 -188h-117l37 188h117z" />
    <glyph glyph-name="UkaliqReversedQuestionMark_UkaliqModifierDot" unicode="&#xee0b;&#x331;" 
d="M655 704l-141 -704h-117l140 704h118zM330 704l-82 -411h-117l82 411h117zM498 -77l-37 -188h-117l37 188h117z" />
    <glyph glyph-name="UkaliqSemicolon_UkaliqModifierDot" unicode="&#xee0c;&#x331;" 
d="M655 704l-82 -411h-118l82 411h118zM272 410l-82 -410h-118l82 410h118zM498 -77l-37 -188h-117l37 188h117z" />
    <glyph glyph-name="UkaliqReversedExclamationMark_UkaliqModifierDot" unicode="&#xee0d;&#x331;" 
d="M655 704l-141 -704h-117l140 704h118zM272 410l-82 -410h-118l82 410h118zM498 -77l-37 -188h-117l37 188h117z" />
    <glyph glyph-name="UkaliqQuestionMark_UkaliqModifierDot" unicode="&#xee0e;&#x331;" 
d="M330 704l-140 -704h-118l141 704h117zM655 704l-82 -411h-118l82 411h118zM498 -77l-37 -188h-117l37 188h117z" />
    <glyph glyph-name="UkaliqEquals_UkaliqModifierDot" unicode="&#xee0f;&#x331;" 
d="M655 704l-141 -704h-117l140 704h118zM330 704l-140 -704h-118l141 704h117zM498 -77l-37 -188h-117l37 188h117z" />
    <glyph glyph-name="UkaliqHyphen_UkaliqModifierDot" unicode="&#xee10;&#x331;" 
d="M107 117h419l-24 -117h-418zM498 -77l-37 -188h-117l37 188h117z" />
    <glyph glyph-name="UkaliqLetterOzo_UkaliqModifierDot" unicode="&#xee11;&#x331;" 
d="M498 -77l-37 -188h-117l37 188h117zM596 410q-82 -410 -512 -410l23 117q313 0 372 293h117z" />
    <glyph glyph-name="UkaliqGreaterThan_UkaliqModifierDot" unicode="&#xee12;&#x331;" 
d="M107 117h419l-24 -117h-418zM330 704l-82 -411h-117l82 411h117zM498 -77l-37 -188h-117l37 188h117z" />
    <glyph glyph-name="UkaliqLetterAtlha_UkaliqModifierDot" unicode="&#xee13;&#x331;" 
d="M330 704l-82 -411h-117l82 411h117zM498 -77l-37 -188h-117l37 188h117zM596 410q-82 -410 -512 -410l23 117q313 0 372 293h117z" />
    <glyph glyph-name="UkaliqLetterEdzre_UkaliqModifierDot" unicode="&#xee14;&#x331;" 
d="M272 410q-59 -293 254 -293l-24 -117q-430 0 -348 410h118zM498 -77l-37 -188h-117l37 188h117z" />
    <glyph glyph-name="UkaliqOr_UkaliqModifierDot" unicode="&#xee15;&#x331;" 
d="M272 410q-59 -293 45 -293q103 0 162 293h117q-82 -410 -303 -410t-139 410h118zM498 -77l-37 -188h-117l37 188h117z" />
    <glyph glyph-name="UkaliqLetterIdzji_UkaliqModifierDot" unicode="&#xee16;&#x331;" 
d="M330 704l-43 -215q-74 -372 239 -372l-24 -117q-430 0 -332 489l43 215h117zM498 -77l-37 -188h-117l37 188h117z" />
    <glyph glyph-name="UkaliqLetterOdzo_UkaliqModifierDot" unicode="&#xee17;&#x331;" 
d="M330 704l-43 -215q-74 -372 30 -372q103 0 162 293h117q-82 -410 -303 -410t-123 489l43 215h117zM498 -77l-37 -188h-117l37 188h117z" />
    <glyph glyph-name="UkaliqLessThan_UkaliqModifierDot" unicode="&#xee18;&#x331;" 
d="M107 117h419l-24 -117h-418zM655 704l-82 -411h-118l82 411h118zM498 -77l-37 -188h-117l37 188h117z" />
    <glyph glyph-name="UkaliqLetterOso_UkaliqModifierDot" unicode="&#xee19;&#x331;" 
d="M655 704l-43 -215q-98 -489 -528 -489l23 117q313 0 387 372l43 215h118zM498 -77l-37 -188h-117l37 188h117z" />
    <glyph glyph-name="UkaliqMultiplication_UkaliqModifierDot" unicode="&#xee1a;&#x331;" 
d="M107 117h419l-24 -117h-418zM330 704l-82 -411h-117l82 411h117zM655 704l-82 -411h-118l82 411h118zM498 -77l-37 -188h-117l37 188h117z" />
    <glyph glyph-name="UkaliqLetterApfa_UkaliqModifierDot" unicode="&#xee1b;&#x331;" 
d="M330 704l-82 -411h-117l82 411h117zM655 704l-43 -215q-98 -489 -528 -489l23 117q313 0 387 372l43 215h118zM498 -77l-37 -188h-117l37 188h117z" />
    <glyph glyph-name="UkaliqLetterEtsre_UkaliqModifierDot" unicode="&#xee1c;&#x331;" 
d="M272 410q-59 -293 254 -293l-24 -117q-430 0 -348 410h118zM655 704l-82 -411h-118l82 411h118zM498 -77l-37 -188h-117l37 188h117z" />
    <glyph glyph-name="UkaliqLetterUkkhu_UkaliqModifierDot" unicode="&#xee1d;&#x331;" 
d="M655 704l-43 -215q-98 -489 -319 -489t-139 410h118q-59 -293 45 -293q103 0 177 372l43 215h118zM498 -77l-37 -188h-117l37 188h117z" />
    <glyph glyph-name="UkaliqLetterItsji_UkaliqModifierDot" unicode="&#xee1e;&#x331;" 
d="M330 704l-43 -215q-74 -372 239 -372l-24 -117q-430 0 -332 489l43 215h117zM655 704l-82 -411h-118l82 411h118zM498 -77l-37 -188h-117l37 188h117z" />
    <glyph glyph-name="UkaliqLetterOtso_UkaliqModifierDot" unicode="&#xee1f;&#x331;" 
d="M330 704l-43 -215q-74 -372 30 -372q103 0 177 372l43 215h118l-43 -215q-98 -489 -319 -489t-123 489l43 215h117zM498 -77l-37 -188h-117l37 188h117z" />
    <glyph glyph-name="UkaliqRange_UkaliqModifierDot" unicode="&#xee20;&#x331;" 
d="M498 -77l-37 -188h-117l37 188h117zM225 704h418l-24 -118h-418z" />
    <glyph glyph-name="UkaliqLetterEo_UkaliqModifierDot" unicode="&#xee21;&#x331;" 
d="M596 410l-82 -410h-117l82 410h117zM498 -77l-37 -188h-117l37 188h117zM225 704h418l-24 -118h-418z" />
    <glyph glyph-name="UkaliqLetterUh_UkaliqModifierDot" unicode="&#xee22;&#x331;" 
d="M619 586q-312 0 -371 -293h-117q82 411 512 411zM498 -77l-37 -188h-117l37 188h117z" />
    <glyph glyph-name="UkaliqLetterEu_UkaliqModifierDot" unicode="&#xee23;&#x331;" 
d="M596 410l-82 -410h-117l82 410h117zM619 586q-312 0 -371 -293h-117q82 411 512 411zM498 -77l-37 -188h-117l37 188h117z" />
    <glyph glyph-name="UkaliqLetterOe_UkaliqModifierDot" unicode="&#xee24;&#x331;" 
d="M272 410l-82 -410h-118l82 410h118zM498 -77l-37 -188h-117l37 188h117zM225 704h418l-24 -118h-418z" />
    <glyph glyph-name="UkaliqLetterOeh_UkaliqModifierDot" unicode="&#xee25;&#x331;" 
d="M596 410l-82 -410h-117l82 410h117zM272 410l-82 -410h-118l82 410h118zM498 -77l-37 -188h-117l37 188h117zM225 704h418l-24 -118h-418z" />
    <glyph glyph-name="UkaliqLetterUi_UkaliqModifierDot" unicode="&#xee26;&#x331;" 
d="M619 586q-312 0 -386 -371l-43 -215h-118l43 215q98 489 528 489zM498 -77l-37 -188h-117l37 188h117z" />
    <glyph glyph-name="UkaliqLetterAh_UkaliqModifierDot" unicode="&#xee27;&#x331;" 
d="M619 586q-312 0 -386 -371l-43 -215h-118l43 215q98 489 528 489zM596 410l-82 -410h-117l82 410h117zM498 -77l-37 -188h-117l37 188h117z" />
    <glyph glyph-name="UkaliqLetterAe_UkaliqModifierDot" unicode="&#xee28;&#x331;" 
d="M225 704q430 0 348 -411h-118q59 293 -254 293zM498 -77l-37 -188h-117l37 188h117z" />
    <glyph glyph-name="UkaliqLetterO_UkaliqModifierDot" unicode="&#xee29;&#x331;" 
d="M225 704q430 0 332 -489l-43 -215h-117l43 215q74 371 -239 371zM498 -77l-37 -188h-117l37 188h117z" />
    <glyph glyph-name="UkaliqLetterIh_UkaliqModifierDot" unicode="&#xee2a;&#x331;" 
d="M131 293q82 411 303 411t139 -411h-118q59 293 -45 293q-103 0 -162 -293h-117zM498 -77l-37 -188h-117l37 188h117z" />
    <glyph glyph-name="UkaliqLetterU_UkaliqModifierDot" unicode="&#xee2b;&#x331;" 
d="M131 293q82 411 303 411t123 -489l-43 -215h-117l43 215q74 371 -30 371q-103 0 -162 -293h-117zM498 -77l-37 -188h-117l37 188h117z" />
    <glyph glyph-name="UkaliqLetterE_UkaliqModifierDot" unicode="&#xee2c;&#x331;" 
d="M225 704q430 0 348 -411h-118q59 293 -254 293zM272 410l-82 -410h-118l82 410h118zM498 -77l-37 -188h-117l37 188h117z" />
    <glyph glyph-name="UkaliqLetterEh_UkaliqModifierDot" unicode="&#xee2d;&#x331;" 
d="M225 704q430 0 332 -489l-43 -215h-117l43 215q74 371 -239 371zM272 410l-82 -410h-118l82 410h118zM498 -77l-37 -188h-117l37 188h117z" />
    <glyph glyph-name="UkaliqLetterI_UkaliqModifierDot" unicode="&#xee2e;&#x331;" 
d="M455 293q59 293 -45 293q-103 0 -177 -371l-43 -215h-118l43 215q98 489 319 489t139 -411h-118zM498 -77l-37 -188h-117l37 188h117z" />
    <glyph glyph-name="UkaliqLetterOh_UkaliqModifierDot" unicode="&#xee2f;&#x331;" 
d="M72 0l43 215q98 489 319 489t123 -489l-43 -215h-117l43 215q74 371 -30 371q-103 0 -177 -371l-43 -215h-118zM498 -77l-37 -188h-117l37 188h117z" />
    <glyph glyph-name="UkaliqPlus_UkaliqModifierDot" unicode="&#xee30;&#x331;" 
d="M107 117h419l-24 -117h-418zM498 -77l-37 -188h-117l37 188h117zM225 704h418l-24 -118h-418z" />
    <glyph glyph-name="UkaliqCurrency_UkaliqModifierDot" unicode="&#xee31;&#x331;" 
d="M498 -77l-37 -188h-117l37 188h117zM596 410q-82 -410 -512 -410l23 117q313 0 372 293h117zM225 704h418l-24 -118h-418z" />
    <glyph glyph-name="UkaliqAt_UkaliqModifierDot" unicode="&#xee32;&#x331;" 
d="M107 117h419l-24 -117h-418zM619 586q-312 0 -371 -293h-117q82 411 512 411zM498 -77l-37 -188h-117l37 188h117z" />
    <glyph glyph-name="UkaliqLetterAlha_UkaliqModifierDot" unicode="&#xee33;&#x331;" 
d="M619 586q-312 0 -371 -293h-117q82 411 512 411zM498 -77l-37 -188h-117l37 188h117zM596 410q-82 -410 -512 -410l23 117q313 0 372 293h117z" />
    <glyph glyph-name="UkaliqLetterElre_UkaliqModifierDot" unicode="&#xee34;&#x331;" 
d="M272 410q-59 -293 254 -293l-24 -117q-430 0 -348 410h118zM498 -77l-37 -188h-117l37 188h117zM225 704h418l-24 -118h-418z" />
    <glyph glyph-name="UkaliqLetterUlgu_UkaliqModifierDot" unicode="&#xee35;&#x331;" 
d="M272 410q-59 -293 45 -293q103 0 162 293h117q-82 -410 -303 -410t-139 410h118zM498 -77l-37 -188h-117l37 188h117zM225 704h418l-24 -118h-418z" />
    <glyph glyph-name="UkaliqLetterIlji_UkaliqModifierDot" unicode="&#xee36;&#x331;" 
d="M619 586q-312 0 -359 -234q-47 -235 266 -235l-24 -117q-430 0 -359 352q70 352 500 352zM498 -77l-37 -188h-117l37 188h117z" />
    <glyph glyph-name="UkaliqLetterOlo_UkaliqModifierDot" unicode="&#xee37;&#x331;" 
d="M619 586q-312 0 -359 -234q-47 -235 57 -235q103 0 162 293h117q-82 -410 -303 -410t-150 352q70 352 500 352zM498 -77l-37 -188h-117l37 188h117z" />
    <glyph glyph-name="UkaliqDegree_UkaliqModifierDot" unicode="&#xee38;&#x331;" 
d="M107 117h419l-24 -117h-418zM225 704q430 0 348 -411h-118q59 293 -254 293zM498 -77l-37 -188h-117l37 188h117z" />
    <glyph glyph-name="UkaliqLetterHbat_UkaliqModifierDot" unicode="&#xee39;&#x331;" 
d="M225 704q430 0 359 -352q-70 -352 -500 -352l23 117q313 0 360 235q47 234 -266 234zM498 -77l-37 -188h-117l37 188h117z" />
    <glyph glyph-name="UkaliqLetterAnqa_UkaliqModifierDot" unicode="&#xee3a;&#x331;" 
d="M107 117h419l-24 -117h-418zM131 293q82 411 303 411t139 -411h-118q59 293 -45 293q-103 0 -162 -293h-117zM498 -77l-37 -188h-117l37 188h117z" />
    <glyph glyph-name="UkaliqLetterAma_UkaliqModifierDot" unicode="&#xee3b;&#x331;" 
d="M131 293q82 411 303 411t150 -352q-70 -352 -500 -352l23 117q313 0 360 235q47 234 -57 234q-103 0 -162 -293h-117zM498 -77l-37 -188h-117l37 188h117z" />
    <glyph glyph-name="UkaliqLetterEnre_UkaliqModifierDot" unicode="&#xee3c;&#x331;" 
d="M225 704q430 0 348 -411h-118q59 293 -254 293zM272 410q-59 -293 254 -293l-24 -117q-430 0 -348 410h118zM498 -77l-37 -188h-117l37 188h117z" />
    <glyph glyph-name="UkaliqLetterUngu_UkaliqModifierDot" unicode="&#xee3d;&#x331;" 
d="M225 704q430 0 359 -352q-70 -352 -291 -352t-139 410h118q-59 -293 45 -293q103 0 150 235q47 234 -266 234zM498 -77l-37 -188h-117l37 188h117z" />
    <glyph glyph-name="UkaliqLetterInji_UkaliqModifierDot" unicode="&#xee3e;&#x331;" 
d="M455 293q59 293 -45 293q-103 0 -150 -234q-47 -235 266 -235l-24 -117q-430 0 -359 352q70 352 291 352t139 -411h-118zM498 -77l-37 -188h-117l37 188h117z" />
    <glyph glyph-name="UkaliqLetterOno_UkaliqModifierDot" unicode="&#xee3f;&#x331;" 
d="M498 -77l-37 -188h-117l37 188h117zM260 352q-47 -235 57 -235q103 0 150 235q47 234 -57 234q-103 0 -150 -234zM143 352q70 352 291 352t150 -352q-70 -352 -291 -352t-150 352z" />
    <glyph glyph-name="UkaliqDash_UkaliqModifierDot" unicode="&#xee40;&#x331;" 
d="M166 410h418l-23 -117h-418zM498 -77l-37 -188h-117l37 188h117z" />
    <glyph glyph-name="UkaliqLetterA_UkaliqModifierDot" unicode="&#xee41;&#x331;" 
d="M166 410q430 0 348 -410h-117q58 293 -254 293zM498 -77l-37 -188h-117l37 188h117z" />
    <glyph glyph-name="UkaliqMinus_UkaliqModifierDot" unicode="&#xee42;&#x331;" 
d="M330 704q-58 -294 254 -294l-23 -117q-430 0 -348 411h117zM498 -77l-37 -188h-117l37 188h117z" />
    <glyph glyph-name="UkaliqLetterAwa_UkaliqModifierDot" unicode="&#xee43;&#x331;" 
d="M498 -77l-37 -188h-117l37 188h117zM330 704q-58 -294 153 -294q113 0 87 -129l-56 -281h-117l56 281q2 12 7 12q-329 0 -247 411h117z" />
    <glyph glyph-name="UkaliqLetterErre_UkaliqModifierDot" unicode="&#xee44;&#x331;" 
d="M561 293q-313 0 -371 -293h-118q82 410 512 410zM498 -77l-37 -188h-117l37 188h117z" />
    <glyph glyph-name="UkaliqAnd_UkaliqModifierDot" unicode="&#xee45;&#x331;" 
d="M72 0q82 410 303 410t139 -410h-117q58 293 -45 293q-104 0 -162 -293h-118zM498 -77l-37 -188h-117l37 188h117z" />
    <glyph glyph-name="UkaliqLetterIzji_UkaliqModifierDot" unicode="&#xee46;&#x331;" 
d="M498 -77l-37 -188h-117l37 188h117zM248 293l-58 -293h-118l71 352l70 352h117l-58 -294h312l-23 -117h-313z" />
    <glyph glyph-name="UkaliqLetterOro_UkaliqModifierDot" unicode="&#xee47;&#x331;" 
d="M498 -77l-37 -188h-117l37 188h117zM247 289l-57 -289h-118l71 352l70 352h117l-59 -297q318 -30 243 -407h-117q51 259 -150 289z" />
    <glyph glyph-name="UkaliqNot_UkaliqModifierDot" unicode="&#xee48;&#x331;" 
d="M655 704q-82 -411 -512 -411l23 117q313 0 371 294h118zM498 -77l-37 -188h-117l37 188h117z" />
    <glyph glyph-name="UkaliqDivision_UkaliqModifierDot" unicode="&#xee49;&#x331;" 
d="M655 704l-71 -352l-70 -352h-117l58 293h-312l23 117h313l58 294h118zM498 -77l-37 -188h-117l37 188h117z" />
    <glyph glyph-name="UkaliqXor_UkaliqModifierDot" unicode="&#xee4a;&#x331;" 
d="M330 704q-58 -294 45 -294q104 0 162 294h118q-82 -411 -303 -411t-139 411h117zM498 -77l-37 -188h-117l37 188h117z" />
    <glyph glyph-name="uniEE4B_UkaliqModifierDot" unicode="&#xee4b;&#x331;" 
d="M498 -77l-37 -188h-117l37 188h117zM330 704q-51 -260 149 -290l58 290h118l-71 -352l-70 -352h-117l59 296q-318 30 -243 408h117z" />
    <glyph glyph-name="UkaliqLetterIji_UkaliqModifierDot" unicode="&#xee4c;&#x331;" 
d="M655 704q-82 -411 -411 -411q4 0 2 -12l-56 -281h-118l57 281q25 129 138 129q212 0 270 294h118zM498 -77l-37 -188h-117l37 188h117z" />
    <glyph glyph-name="UkaliqLetterTkot_UkaliqModifierDot" unicode="&#xee4d;&#x331;" 
d="M655 704l-71 -352l-70 -352h-117l57 289q-213 -30 -264 -289h-118q75 377 406 407l59 297h118zM498 -77l-37 -188h-117l37 188h117z" />
    <glyph glyph-name="UkaliqLetterIsji_UkaliqModifierDot" unicode="&#xee4e;&#x331;" 
d="M498 -77l-37 -188h-117l37 188h117zM249 296l-59 -296h-118l71 352l70 352h117l-58 -290q213 30 265 290h118q-75 -378 -406 -408z" />
    <glyph glyph-name="UkaliqLetterOrro_UkaliqModifierDot" unicode="&#xee4f;&#x331;" 
d="M498 -77l-37 -188h-117l37 188h117zM655 704l-71 -352l-70 -352h-117l58 293h-207l-58 -293h-118l71 352l70 352h117l-58 -294h207l58 294h118z" />
    <glyph glyph-name="UkaliqDigitZero_UkaliqModifierDot" unicode="&#xee50;&#x331;" 
d="M107 117h419l-24 -117h-418zM166 410h418l-23 -117h-418zM498 -77l-37 -188h-117l37 188h117z" />
    <glyph glyph-name="UkaliqDigitOne_UkaliqModifierDot" unicode="&#xee51;&#x331;" 
d="M166 410q430 0 389 -205t-471 -205l23 117q313 0 331 88q17 88 -295 88zM498 -77l-37 -188h-117l37 188h117z" />
    <glyph glyph-name="UkaliqDigitTwo_UkaliqModifierDot" unicode="&#xee52;&#x331;" 
d="M330 704q-58 -294 254 -294l-23 -117q-430 0 -348 411h117zM107 117h419l-24 -117h-418zM498 -77l-37 -188h-117l37 188h117z" />
    <glyph glyph-name="UkaliqDigitThree_UkaliqModifierDot" unicode="&#xee53;&#x331;" 
d="M498 -77l-37 -188h-117l37 188h117zM330 704q-58 -294 153 -294q113 0 92 -107q-61 -303 -491 -303l23 117q304 0 348 176q-323 3 -242 411h117z" />
    <glyph glyph-name="UkaliqDigitFour_UkaliqModifierDot" unicode="&#xee54;&#x331;" 
d="M561 293q-313 0 -330 -88q-18 -88 295 -88l-24 -117q-430 0 -389 205t471 205zM498 -77l-37 -188h-117l37 188h117z" />
    <glyph glyph-name="UkaliqDigitFive_UkaliqModifierDot" unicode="&#xee55;&#x331;" 
d="M498 -77l-37 -188h-117l37 188h117zM231 205q-18 -88 86 -88q103 0 121 88q17 88 -86 88q-104 0 -121 -88zM113 205q41 205 262 205t180 -205t-262 -205t-180 205z" />
    <glyph glyph-name="UkaliqDigitSix_UkaliqModifierDot" unicode="&#xee56;&#x331;" 
d="M498 -77l-37 -188h-117l37 188h117zM254 293q1 -176 272 -176l-24 -117q-430 0 -359 352l70 352h117l-58 -294h312l-23 -117h-307z" />
    <glyph glyph-name="UkaliqDigitSeven_UkaliqModifierDot" unicode="&#xee57;&#x331;" 
d="M498 -77l-37 -188h-117l37 188h117zM250 292q-23 -175 67 -175q103 0 121 88q15 78 -188 87zM271 409q321 -15 284 -204q-41 -205 -262 -205t-150 352l70 352h117z" />
    <glyph glyph-name="UkaliqDigitEight_UkaliqModifierDot" unicode="&#xee58;&#x331;" 
d="M107 117h419l-24 -117h-418zM655 704q-82 -411 -512 -411l23 117q313 0 371 294h118zM498 -77l-37 -188h-117l37 188h117z" />
    <glyph glyph-name="UkaliqDigitNine_UkaliqModifierDot" unicode="&#xee59;&#x331;" 
d="M655 704l-71 -352q-70 -352 -500 -352l23 117q271 0 343 176h-307l23 117h313l58 294h118zM498 -77l-37 -188h-117l37 188h117z" />
    <glyph glyph-name="UkaliqDigitTen_UkaliqModifierDot" unicode="&#xee5a;&#x331;" 
d="M330 704q-58 -294 45 -294q104 0 162 294h118q-82 -411 -303 -411t-139 411h117zM107 117h419l-24 -117h-418zM498 -77l-37 -188h-117l37 188h117z" />
    <glyph glyph-name="UkaliqDigitEleven_UkaliqModifierDot" unicode="&#xee5b;&#x331;" 
d="M498 -77l-37 -188h-117l37 188h117zM330 704q-51 -260 149 -290l58 290h118l-71 -352q-70 -352 -500 -352l23 117q273 0 344 179q-313 33 -238 408h117z" />
    <glyph glyph-name="UkaliqDigitTwelve_UkaliqModifierDot" unicode="&#xee5c;&#x331;" 
d="M498 -77l-37 -188h-117l37 188h117zM248 293q-27 -176 278 -176l-24 -117q-430 0 -369 303q21 107 134 107q212 0 270 294h118q-82 -408 -407 -411z" />
    <glyph glyph-name="UkaliqDigitThirteen_UkaliqModifierDot" unicode="&#xee5d;&#x331;" 
d="M655 704l-71 -352q-70 -352 -291 -352t-180 205q38 189 365 204l59 295h118zM498 -77l-37 -188h-117l37 188h117zM453 292q-207 -9 -222 -87q-18 -88 86 -88q89 0 136 175z" />
    <glyph glyph-name="UkaliqDigitFourteen_UkaliqModifierDot" unicode="&#xee5e;&#x331;" 
d="M498 -77l-37 -188h-117l37 188h117zM254 296q-1 -179 272 -179l-24 -117q-430 0 -359 352l70 352h117l-58 -290q213 30 265 290h118q-75 -376 -401 -408z" />
    <glyph glyph-name="UkaliqDigitFifteen_UkaliqModifierDot" unicode="&#xee5f;&#x331;" 
d="M498 -77l-37 -188h-117l37 188h117zM479 410l58 294h118l-71 -352q-70 -352 -291 -352t-150 352l70 352h117l-58 -294h207zM453 293h-203q-23 -176 67 -176q89 0 136 176z" />
    <glyph glyph-name="UkaliqLetterSchwa_UkaliqModifierDot" unicode="&#xee60;&#x331;" 
d="M166 410h418l-23 -117h-418zM498 -77l-37 -188h-117l37 188h117zM225 704h418l-24 -118h-418z" />
    <glyph glyph-name="UkaliqLetterOhgo_UkaliqModifierDot" unicode="&#xee61;&#x331;" 
d="M166 410q430 0 348 -410h-117q58 293 -254 293zM498 -77l-37 -188h-117l37 188h117zM225 704h418l-24 -118h-418z" />
    <glyph glyph-name="UkaliqLetterArha_UkaliqModifierDot" unicode="&#xee62;&#x331;" 
d="M619 586q-312 0 -330 -88q-17 -88 295 -88l-23 -117q-430 0 -389 205q41 206 471 206zM498 -77l-37 -188h-117l37 188h117z" />
    <glyph glyph-name="UkaliqLetterAva_UkaliqModifierDot" unicode="&#xee63;&#x331;" 
d="M498 -77l-37 -188h-117l37 188h117zM619 586q-312 0 -330 -88q-17 -88 194 -88q113 0 87 -129l-56 -281h-117l56 281q2 12 7 12q-329 0 -288 205q41 206 471 206z" />
    <glyph glyph-name="UkaliqLetterEzre_UkaliqModifierDot" unicode="&#xee64;&#x331;" 
d="M561 293q-313 0 -371 -293h-118q82 410 512 410zM498 -77l-37 -188h-117l37 188h117zM225 704h418l-24 -118h-418z" />
    <glyph glyph-name="UkaliqLetterUghu_UkaliqModifierDot" unicode="&#xee65;&#x331;" 
d="M72 0q82 410 303 410t139 -410h-117q58 293 -45 293q-104 0 -162 -293h-118zM498 -77l-37 -188h-117l37 188h117zM225 704h418l-24 -118h-418z" />
    <glyph glyph-name="UkaliqLetterIjji_UkaliqModifierDot" unicode="&#xee66;&#x331;" 
d="M498 -77l-37 -188h-117l37 188h117zM248 293l-58 -293h-118l71 352q70 352 500 352l-24 -118q-271 0 -342 -176h307l-23 -117h-313z" />
    <glyph glyph-name="UkaliqLetterOdho_UkaliqModifierDot" unicode="&#xee67;&#x331;" 
d="M498 -77l-37 -188h-117l37 188h117zM247 289l-57 -289h-118l71 352q70 352 500 352l-24 -118q-273 0 -343 -179q313 -32 238 -407h-117q51 259 -150 289z" />
    <glyph glyph-name="UkaliqLetterOhho_UkaliqModifierDot" unicode="&#xee68;&#x331;" 
d="M225 704q430 0 389 -206q-41 -205 -471 -205l23 117q313 0 330 88q18 88 -295 88zM498 -77l-37 -188h-117l37 188h117z" />
    <glyph glyph-name="UkaliqLetterAha_UkaliqModifierDot" unicode="&#xee69;&#x331;" 
d="M225 704q430 0 359 -352l-70 -352h-117l58 293h-312l23 117h307q-1 176 -272 176zM498 -77l-37 -188h-117l37 188h117z" />
    <glyph glyph-name="UkaliqLetterAqha_UkaliqModifierDot" unicode="&#xee6a;&#x331;" 
d="M498 -77l-37 -188h-117l37 188h117zM289 498q-17 -88 86 -88q104 0 121 88q18 88 -86 88q-103 0 -121 -88zM172 498q41 206 262 206t180 -206q-41 -205 -262 -205t-180 205z" />
    <glyph glyph-name="UkaliqLetterAfa_UkaliqModifierDot" unicode="&#xee6b;&#x331;" 
d="M498 -77l-37 -188h-117l37 188h117zM477 411q23 175 -67 175q-103 0 -121 -88q-15 -78 188 -87zM456 294q-321 15 -284 204q41 206 262 206t150 -352l-70 -352h-117z" />
    <glyph glyph-name="UkaliqLetterEsre_UkaliqModifierDot" unicode="&#xee6c;&#x331;" 
d="M225 704q430 0 389 -206q-41 -205 -370 -205q4 0 2 -12l-56 -281h-118l57 281q25 129 138 129q212 0 229 88q18 88 -295 88zM498 -77l-37 -188h-117l37 188h117z" />
    <glyph glyph-name="UkaliqLetterUkhu_UkaliqModifierDot" unicode="&#xee6d;&#x331;" 
d="M225 704q430 0 359 -352l-70 -352h-117l57 289q-213 -30 -264 -289h-118q75 375 401 407q2 179 -272 179zM498 -77l-37 -188h-117l37 188h117z" />
    <glyph glyph-name="UkaliqLetterIcji_UkaliqModifierDot" unicode="&#xee6e;&#x331;" 
d="M498 -77l-37 -188h-117l37 188h117zM249 294l-59 -294h-118l71 352q70 352 291 352t180 -206q-37 -189 -365 -204zM274 411q207 9 222 87q18 88 -86 88q-89 0 -136 -175z" />
    <glyph glyph-name="UkaliqLetterOtho_UkaliqModifierDot" unicode="&#xee6f;&#x331;" 
d="M498 -77l-37 -188h-117l37 188h117zM72 0l71 352q70 352 291 352t150 -352l-70 -352h-117l58 293h-207l-58 -293h-118zM273 410h204q23 176 -67 176t-137 -176z" />
    <glyph glyph-name="UkaliqIterationMark_UkaliqModifierDot" unicode="&#xee70;&#x331;" 
d="M107 117h419l-24 -117h-418zM166 410h418l-23 -117h-418zM498 -77l-37 -188h-117l37 188h117zM225 704h418l-24 -118h-418z" />
    <glyph glyph-name="UkaliqPercent_UkaliqModifierDot" unicode="&#xee71;&#x331;" 
d="M166 410q430 0 389 -205t-471 -205l23 117q313 0 331 88q17 88 -295 88zM498 -77l-37 -188h-117l37 188h117zM225 704h418l-24 -118h-418z" />
    <glyph glyph-name="UkaliqLetterAgqa_UkaliqModifierDot" unicode="&#xee72;&#x331;" 
d="M619 586q-312 0 -330 -88q-17 -88 295 -88l-23 -117q-430 0 -389 205q41 206 471 206zM107 117h419l-24 -117h-418zM498 -77l-37 -188h-117l37 188h117z" />
    <glyph glyph-name="UkaliqLetterAba_UkaliqModifierDot" unicode="&#xee73;&#x331;" 
d="M498 -77l-37 -188h-117l37 188h117zM619 586q-312 0 -330 -88q-17 -88 194 -88q113 0 92 -107q-61 -303 -491 -303l23 117q304 0 348 176q-323 2 -283 205q41 206 471 206z" />
    <glyph glyph-name="UkaliqLetterEdre_UkaliqModifierDot" unicode="&#xee74;&#x331;" 
d="M561 293q-313 0 -330 -88q-18 -88 295 -88l-24 -117q-430 0 -389 205t471 205zM498 -77l-37 -188h-117l37 188h117zM225 704h418l-24 -118h-418z" />
    <glyph glyph-name="UkaliqLetterUgu_UkaliqModifierDot" unicode="&#xee75;&#x331;" 
d="M498 -77l-37 -188h-117l37 188h117zM225 704h418l-24 -118h-418zM231 205q-18 -88 86 -88q103 0 121 88q17 88 -86 88q-104 0 -121 -88zM113 205q41 205 262 205t180 -205t-262 -205t-180 205z" />
    <glyph glyph-name="UkaliqLetterIgji_UkaliqModifierDot" unicode="&#xee76;&#x331;" 
d="M498 -77l-37 -188h-117l37 188h117zM254 293q1 -176 272 -176l-24 -117q-430 0 -359 352q70 352 500 352l-24 -118q-271 0 -342 -176h307l-23 -117h-307z" />
    <glyph glyph-name="UkaliqLetterOdo_UkaliqModifierDot" unicode="&#xee77;&#x331;" 
d="M498 -77l-37 -188h-117l37 188h117zM250 292q-23 -175 67 -175q103 0 121 88q15 78 -188 87zM277 408q316 -16 278 -203q-41 -205 -262 -205t-150 352q70 352 500 352l-24 -118q-271 0 -342 -178z" />
    <glyph glyph-name="UkaliqLetterOhhko_UkaliqModifierDot" unicode="&#xee78;&#x331;" 
d="M107 117h419l-24 -117h-418zM225 704q430 0 389 -206q-41 -205 -471 -205l23 117q313 0 330 88q18 88 -295 88zM498 -77l-37 -188h-117l37 188h117z" />
    <glyph glyph-name="UkaliqLetterAhka_UkaliqModifierDot" unicode="&#xee79;&#x331;" 
d="M225 704q430 0 359 -352q-70 -352 -500 -352l23 117q271 0 343 176h-307l23 117h307q-1 176 -272 176zM498 -77l-37 -188h-117l37 188h117z" />
    <glyph glyph-name="UkaliqLetterAqa_UkaliqModifierDot" unicode="&#xee7a;&#x331;" 
d="M107 117h419l-24 -117h-418zM498 -77l-37 -188h-117l37 188h117zM289 498q-17 -88 86 -88q104 0 121 88q18 88 -86 88q-103 0 -121 -88zM172 498q41 206 262 206t180 -206q-41 -205 -262 -205t-180 205z" />
    <glyph glyph-name="UkaliqLetterApa_UkaliqModifierDot" unicode="&#xee7b;&#x331;" 
d="M498 -77l-37 -188h-117l37 188h117zM477 411q23 175 -67 175q-103 0 -121 -88q-15 -78 188 -87zM450 295q-316 16 -278 203q41 206 262 206t150 -352q-70 -352 -500 -352l23 117q272 0 343 178z" />
    <glyph glyph-name="UkaliqLetterEtre_UkaliqModifierDot" unicode="&#xee7c;&#x331;" 
d="M225 704q430 0 389 -206q-41 -204 -366 -205q-27 -176 278 -176l-24 -117q-430 0 -369 303q21 107 134 107q212 0 229 88q18 88 -295 88zM498 -77l-37 -188h-117l37 188h117z" />
    <glyph glyph-name="UkaliqLetterUku_UkaliqModifierDot" unicode="&#xee7d;&#x331;" 
d="M225 704q430 0 359 -352q-70 -352 -291 -352t-180 205q37 187 360 203q1 178 -272 178zM498 -77l-37 -188h-117l37 188h117zM453 292q-207 -9 -222 -87q-18 -88 86 -88q89 0 136 175z" />
    <glyph glyph-name="UkaliqLetterIci_UkaliqModifierDot" unicode="&#xee7e;&#x331;" 
d="M498 -77l-37 -188h-117l37 188h117zM254 295q0 -178 272 -178l-24 -117q-430 0 -359 352q70 352 291 352t180 -206q-37 -187 -360 -203zM274 411q207 9 222 87q18 88 -86 88q-89 0 -136 -175z" />
    <glyph glyph-name="UkaliqLetterOto_UkaliqModifierDot" unicode="&#xee7f;&#x331;" 
d="M498 -77l-37 -188h-117l37 188h117zM273 410h204q23 176 -67 176t-137 -176zM453 293h-203q-23 -176 67 -176q89 0 136 176zM143 352q70 352 291 352t150 -352q-70 -352 -291 -352t-150 352z" />
    <glyph glyph-name="UkaliqPatternBlank_UkaliqModifierDot" unicode="&#xf1d00;&#x331;" 
d="M498 -77l-37 -188h-117l37 188h117z" />
    <glyph glyph-name="UkaliqPatternSegmentsC_UkaliqModifierDot" unicode="&#xf1d01;&#x331;" 
d="M596 410l-82 -410h-117l82 410h117zM498 -77l-37 -188h-117l37 188h117z" />
    <glyph glyph-name="UkaliqPatternSegmentsF_UkaliqModifierDot" unicode="&#xf1d02;&#x331;" 
d="M330 704l-82 -411h-117l82 411h117zM498 -77l-37 -188h-117l37 188h117z" />
    <glyph glyph-name="UkaliqPatternSegmentsCf_UkaliqModifierDot" unicode="&#xf1d03;&#x331;" 
d="M596 410l-82 -410h-117l82 410h117zM330 704l-82 -411h-117l82 411h117zM498 -77l-37 -188h-117l37 188h117z" />
    <glyph glyph-name="UkaliqPatternSegmentsE_UkaliqModifierDot" unicode="&#xf1d04;&#x331;" 
d="M272 410l-82 -410h-118l82 410h118zM498 -77l-37 -188h-117l37 188h117z" />
    <glyph glyph-name="UkaliqPatternSegmentsCe_UkaliqModifierDot" unicode="&#xf1d05;&#x331;" 
d="M596 410l-82 -410h-117l82 410h117zM272 410l-82 -410h-118l82 410h118zM498 -77l-37 -188h-117l37 188h117z" />
    <glyph glyph-name="UkaliqPatternSegmentsEf_UkaliqModifierDot" unicode="&#xf1d06;&#x331;" 
d="M330 704l-140 -704h-118l141 704h117zM498 -77l-37 -188h-117l37 188h117z" />
    <glyph glyph-name="UkaliqPatternSegmentsCef_UkaliqModifierDot" unicode="&#xf1d07;&#x331;" 
d="M330 704l-140 -704h-118l141 704h117zM596 410l-82 -410h-117l82 410h117zM498 -77l-37 -188h-117l37 188h117z" />
    <glyph glyph-name="UkaliqPatternSegmentsB_UkaliqModifierDot" unicode="&#xf1d08;&#x331;" 
d="M655 704l-82 -411h-118l82 411h118zM498 -77l-37 -188h-117l37 188h117z" />
    <glyph glyph-name="UkaliqPatternSegmentsBc_UkaliqModifierDot" unicode="&#xf1d09;&#x331;" 
d="M655 704l-141 -704h-117l140 704h118zM498 -77l-37 -188h-117l37 188h117z" />
    <glyph glyph-name="UkaliqPatternSegmentsBf_UkaliqModifierDot" unicode="&#xf1d0a;&#x331;" 
d="M330 704l-82 -411h-117l82 411h117zM655 704l-82 -411h-118l82 411h118zM498 -77l-37 -188h-117l37 188h117z" />
    <glyph glyph-name="UkaliqPatternSegmentsBcf_UkaliqModifierDot" unicode="&#xf1d0b;&#x331;" 
d="M655 704l-141 -704h-117l140 704h118zM330 704l-82 -411h-117l82 411h117zM498 -77l-37 -188h-117l37 188h117z" />
    <glyph glyph-name="UkaliqPatternSegmentsBe_UkaliqModifierDot" unicode="&#xf1d0c;&#x331;" 
d="M655 704l-82 -411h-118l82 411h118zM272 410l-82 -410h-118l82 410h118zM498 -77l-37 -188h-117l37 188h117z" />
    <glyph glyph-name="UkaliqPatternSegmentsBce_UkaliqModifierDot" unicode="&#xf1d0d;&#x331;" 
d="M655 704l-141 -704h-117l140 704h118zM272 410l-82 -410h-118l82 410h118zM498 -77l-37 -188h-117l37 188h117z" />
    <glyph glyph-name="UkaliqPatternSegmentsBef_UkaliqModifierDot" unicode="&#xf1d0e;&#x331;" 
d="M330 704l-140 -704h-118l141 704h117zM655 704l-82 -411h-118l82 411h118zM498 -77l-37 -188h-117l37 188h117z" />
    <glyph glyph-name="UkaliqPatternSegmentsBcef_UkaliqModifierDot" unicode="&#xf1d0f;&#x331;" 
d="M655 704l-141 -704h-117l140 704h118zM330 704l-140 -704h-118l141 704h117zM498 -77l-37 -188h-117l37 188h117z" />
    <glyph glyph-name="UkaliqPatternSegmentsD_UkaliqModifierDot" unicode="&#xf1d10;&#x331;" 
d="M107 117h419l-24 -117h-418zM498 -77l-37 -188h-117l37 188h117z" />
    <glyph glyph-name="UkaliqPatternSegmentsCd_UkaliqModifierDot" unicode="&#xf1d11;&#x331;" 
d="M498 -77l-37 -188h-117l37 188h117zM596 410q-82 -410 -512 -410l23 117q313 0 372 293h117z" />
    <glyph glyph-name="UkaliqPatternSegmentsDf_UkaliqModifierDot" unicode="&#xf1d12;&#x331;" 
d="M107 117h419l-24 -117h-418zM330 704l-82 -411h-117l82 411h117zM498 -77l-37 -188h-117l37 188h117z" />
    <glyph glyph-name="UkaliqPatternSegmentsCdf_UkaliqModifierDot" unicode="&#xf1d13;&#x331;" 
d="M330 704l-82 -411h-117l82 411h117zM498 -77l-37 -188h-117l37 188h117zM596 410q-82 -410 -512 -410l23 117q313 0 372 293h117z" />
    <glyph glyph-name="UkaliqPatternSegmentsDe_UkaliqModifierDot" unicode="&#xf1d14;&#x331;" 
d="M272 410q-59 -293 254 -293l-24 -117q-430 0 -348 410h118zM498 -77l-37 -188h-117l37 188h117z" />
    <glyph glyph-name="UkaliqPatternSegmentsCde_UkaliqModifierDot" unicode="&#xf1d15;&#x331;" 
d="M272 410q-59 -293 45 -293q103 0 162 293h117q-82 -410 -303 -410t-139 410h118zM498 -77l-37 -188h-117l37 188h117z" />
    <glyph glyph-name="UkaliqPatternSegmentsDef_UkaliqModifierDot" unicode="&#xf1d16;&#x331;" 
d="M330 704l-43 -215q-74 -372 239 -372l-24 -117q-430 0 -332 489l43 215h117zM498 -77l-37 -188h-117l37 188h117z" />
    <glyph glyph-name="UkaliqPatternSegmentsCdef_UkaliqModifierDot" unicode="&#xf1d17;&#x331;" 
d="M330 704l-43 -215q-74 -372 30 -372q103 0 162 293h117q-82 -410 -303 -410t-123 489l43 215h117zM498 -77l-37 -188h-117l37 188h117z" />
    <glyph glyph-name="UkaliqPatternSegmentsBd_UkaliqModifierDot" unicode="&#xf1d18;&#x331;" 
d="M107 117h419l-24 -117h-418zM655 704l-82 -411h-118l82 411h118zM498 -77l-37 -188h-117l37 188h117z" />
    <glyph glyph-name="UkaliqPatternSegmentsBcd_UkaliqModifierDot" unicode="&#xf1d19;&#x331;" 
d="M655 704l-43 -215q-98 -489 -528 -489l23 117q313 0 387 372l43 215h118zM498 -77l-37 -188h-117l37 188h117z" />
    <glyph glyph-name="UkaliqPatternSegmentsBdf_UkaliqModifierDot" unicode="&#xf1d1a;&#x331;" 
d="M107 117h419l-24 -117h-418zM330 704l-82 -411h-117l82 411h117zM655 704l-82 -411h-118l82 411h118zM498 -77l-37 -188h-117l37 188h117z" />
    <glyph glyph-name="UkaliqPatternSegmentsBcdf_UkaliqModifierDot" unicode="&#xf1d1b;&#x331;" 
d="M330 704l-82 -411h-117l82 411h117zM655 704l-43 -215q-98 -489 -528 -489l23 117q313 0 387 372l43 215h118zM498 -77l-37 -188h-117l37 188h117z" />
    <glyph glyph-name="UkaliqPatternSegmentsBde_UkaliqModifierDot" unicode="&#xf1d1c;&#x331;" 
d="M272 410q-59 -293 254 -293l-24 -117q-430 0 -348 410h118zM655 704l-82 -411h-118l82 411h118zM498 -77l-37 -188h-117l37 188h117z" />
    <glyph glyph-name="UkaliqPatternSegmentsBcde_UkaliqModifierDot" unicode="&#xf1d1d;&#x331;" 
d="M655 704l-43 -215q-98 -489 -319 -489t-139 410h118q-59 -293 45 -293q103 0 177 372l43 215h118zM498 -77l-37 -188h-117l37 188h117z" />
    <glyph glyph-name="UkaliqPatternSegmentsBdef_UkaliqModifierDot" unicode="&#xf1d1e;&#x331;" 
d="M330 704l-43 -215q-74 -372 239 -372l-24 -117q-430 0 -332 489l43 215h117zM655 704l-82 -411h-118l82 411h118zM498 -77l-37 -188h-117l37 188h117z" />
    <glyph glyph-name="UkaliqPatternSegmentsBcdef_UkaliqModifierDot" unicode="&#xf1d1f;&#x331;" 
d="M330 704l-43 -215q-74 -372 30 -372q103 0 177 372l43 215h118l-43 -215q-98 -489 -319 -489t-123 489l43 215h117zM498 -77l-37 -188h-117l37 188h117z" />
    <glyph glyph-name="UkaliqPatternSegmentsA_UkaliqModifierDot" unicode="&#xf1d20;&#x331;" 
d="M498 -77l-37 -188h-117l37 188h117zM225 704h418l-24 -118h-418z" />
    <glyph glyph-name="UkaliqPatternSegmentsAc_UkaliqModifierDot" unicode="&#xf1d21;&#x331;" 
d="M596 410l-82 -410h-117l82 410h117zM498 -77l-37 -188h-117l37 188h117zM225 704h418l-24 -118h-418z" />
    <glyph glyph-name="UkaliqPatternSegmentsAf_UkaliqModifierDot" unicode="&#xf1d22;&#x331;" 
d="M619 586q-312 0 -371 -293h-117q82 411 512 411zM498 -77l-37 -188h-117l37 188h117z" />
    <glyph glyph-name="UkaliqPatternSegmentsAcf_UkaliqModifierDot" unicode="&#xf1d23;&#x331;" 
d="M596 410l-82 -410h-117l82 410h117zM619 586q-312 0 -371 -293h-117q82 411 512 411zM498 -77l-37 -188h-117l37 188h117z" />
    <glyph glyph-name="UkaliqPatternSegmentsAe_UkaliqModifierDot" unicode="&#xf1d24;&#x331;" 
d="M272 410l-82 -410h-118l82 410h118zM498 -77l-37 -188h-117l37 188h117zM225 704h418l-24 -118h-418z" />
    <glyph glyph-name="UkaliqPatternSegmentsAce_UkaliqModifierDot" unicode="&#xf1d25;&#x331;" 
d="M596 410l-82 -410h-117l82 410h117zM272 410l-82 -410h-118l82 410h118zM498 -77l-37 -188h-117l37 188h117zM225 704h418l-24 -118h-418z" />
    <glyph glyph-name="UkaliqPatternSegmentsAef_UkaliqModifierDot" unicode="&#xf1d26;&#x331;" 
d="M619 586q-312 0 -386 -371l-43 -215h-118l43 215q98 489 528 489zM498 -77l-37 -188h-117l37 188h117z" />
    <glyph glyph-name="UkaliqPatternSegmentsAcef_UkaliqModifierDot" unicode="&#xf1d27;&#x331;" 
d="M619 586q-312 0 -386 -371l-43 -215h-118l43 215q98 489 528 489zM596 410l-82 -410h-117l82 410h117zM498 -77l-37 -188h-117l37 188h117z" />
    <glyph glyph-name="UkaliqPatternSegmentsAb_UkaliqModifierDot" unicode="&#xf1d28;&#x331;" 
d="M225 704q430 0 348 -411h-118q59 293 -254 293zM498 -77l-37 -188h-117l37 188h117z" />
    <glyph glyph-name="UkaliqPatternSegmentsAbc_UkaliqModifierDot" unicode="&#xf1d29;&#x331;" 
d="M225 704q430 0 332 -489l-43 -215h-117l43 215q74 371 -239 371zM498 -77l-37 -188h-117l37 188h117z" />
    <glyph glyph-name="UkaliqPatternSegmentsAbf_UkaliqModifierDot" unicode="&#xf1d2a;&#x331;" 
d="M131 293q82 411 303 411t139 -411h-118q59 293 -45 293q-103 0 -162 -293h-117zM498 -77l-37 -188h-117l37 188h117z" />
    <glyph glyph-name="UkaliqPatternSegmentsAbcf_UkaliqModifierDot" unicode="&#xf1d2b;&#x331;" 
d="M131 293q82 411 303 411t123 -489l-43 -215h-117l43 215q74 371 -30 371q-103 0 -162 -293h-117zM498 -77l-37 -188h-117l37 188h117z" />
    <glyph glyph-name="UkaliqPatternSegmentsAbe_UkaliqModifierDot" unicode="&#xf1d2c;&#x331;" 
d="M225 704q430 0 348 -411h-118q59 293 -254 293zM272 410l-82 -410h-118l82 410h118zM498 -77l-37 -188h-117l37 188h117z" />
    <glyph glyph-name="UkaliqPatternSegmentsAbce_UkaliqModifierDot" unicode="&#xf1d2d;&#x331;" 
d="M225 704q430 0 332 -489l-43 -215h-117l43 215q74 371 -239 371zM272 410l-82 -410h-118l82 410h118zM498 -77l-37 -188h-117l37 188h117z" />
    <glyph glyph-name="UkaliqPatternSegmentsAbef_UkaliqModifierDot" unicode="&#xf1d2e;&#x331;" 
d="M455 293q59 293 -45 293q-103 0 -177 -371l-43 -215h-118l43 215q98 489 319 489t139 -411h-118zM498 -77l-37 -188h-117l37 188h117z" />
    <glyph glyph-name="UkaliqPatternSegmentsAbcef_UkaliqModifierDot" unicode="&#xf1d2f;&#x331;" 
d="M72 0l43 215q98 489 319 489t123 -489l-43 -215h-117l43 215q74 371 -30 371q-103 0 -177 -371l-43 -215h-118zM498 -77l-37 -188h-117l37 188h117z" />
    <glyph glyph-name="UkaliqPatternSegmentsAd_UkaliqModifierDot" unicode="&#xf1d30;&#x331;" 
d="M107 117h419l-24 -117h-418zM498 -77l-37 -188h-117l37 188h117zM225 704h418l-24 -118h-418z" />
    <glyph glyph-name="UkaliqPatternSegmentsAcd_UkaliqModifierDot" unicode="&#xf1d31;&#x331;" 
d="M498 -77l-37 -188h-117l37 188h117zM596 410q-82 -410 -512 -410l23 117q313 0 372 293h117zM225 704h418l-24 -118h-418z" />
    <glyph glyph-name="UkaliqPatternSegmentsAdf_UkaliqModifierDot" unicode="&#xf1d32;&#x331;" 
d="M107 117h419l-24 -117h-418zM619 586q-312 0 -371 -293h-117q82 411 512 411zM498 -77l-37 -188h-117l37 188h117z" />
    <glyph glyph-name="UkaliqPatternSegmentsAcdf_UkaliqModifierDot" unicode="&#xf1d33;&#x331;" 
d="M619 586q-312 0 -371 -293h-117q82 411 512 411zM498 -77l-37 -188h-117l37 188h117zM596 410q-82 -410 -512 -410l23 117q313 0 372 293h117z" />
    <glyph glyph-name="UkaliqPatternSegmentsAde_UkaliqModifierDot" unicode="&#xf1d34;&#x331;" 
d="M272 410q-59 -293 254 -293l-24 -117q-430 0 -348 410h118zM498 -77l-37 -188h-117l37 188h117zM225 704h418l-24 -118h-418z" />
    <glyph glyph-name="UkaliqPatternSegmentsAcde_UkaliqModifierDot" unicode="&#xf1d35;&#x331;" 
d="M272 410q-59 -293 45 -293q103 0 162 293h117q-82 -410 -303 -410t-139 410h118zM498 -77l-37 -188h-117l37 188h117zM225 704h418l-24 -118h-418z" />
    <glyph glyph-name="UkaliqPatternSegmentsAdef_UkaliqModifierDot" unicode="&#xf1d36;&#x331;" 
d="M619 586q-312 0 -359 -234q-47 -235 266 -235l-24 -117q-430 0 -359 352q70 352 500 352zM498 -77l-37 -188h-117l37 188h117z" />
    <glyph glyph-name="UkaliqPatternSegmentsAcdef_UkaliqModifierDot" unicode="&#xf1d37;&#x331;" 
d="M619 586q-312 0 -359 -234q-47 -235 57 -235q103 0 162 293h117q-82 -410 -303 -410t-150 352q70 352 500 352zM498 -77l-37 -188h-117l37 188h117z" />
    <glyph glyph-name="UkaliqPatternSegmentsAbd_UkaliqModifierDot" unicode="&#xf1d38;&#x331;" 
d="M107 117h419l-24 -117h-418zM225 704q430 0 348 -411h-118q59 293 -254 293zM498 -77l-37 -188h-117l37 188h117z" />
    <glyph glyph-name="UkaliqPatternSegmentsAbcd_UkaliqModifierDot" unicode="&#xf1d39;&#x331;" 
d="M225 704q430 0 359 -352q-70 -352 -500 -352l23 117q313 0 360 235q47 234 -266 234zM498 -77l-37 -188h-117l37 188h117z" />
    <glyph glyph-name="UkaliqPatternSegmentsAbdf_UkaliqModifierDot" unicode="&#xf1d3a;&#x331;" 
d="M107 117h419l-24 -117h-418zM131 293q82 411 303 411t139 -411h-118q59 293 -45 293q-103 0 -162 -293h-117zM498 -77l-37 -188h-117l37 188h117z" />
    <glyph glyph-name="UkaliqPatternSegmentsAbcdf_UkaliqModifierDot" unicode="&#xf1d3b;&#x331;" 
d="M131 293q82 411 303 411t150 -352q-70 -352 -500 -352l23 117q313 0 360 235q47 234 -57 234q-103 0 -162 -293h-117zM498 -77l-37 -188h-117l37 188h117z" />
    <glyph glyph-name="UkaliqPatternSegmentsAbde_UkaliqModifierDot" unicode="&#xf1d3c;&#x331;" 
d="M225 704q430 0 348 -411h-118q59 293 -254 293zM272 410q-59 -293 254 -293l-24 -117q-430 0 -348 410h118zM498 -77l-37 -188h-117l37 188h117z" />
    <glyph glyph-name="UkaliqPatternSegmentsAbcde_UkaliqModifierDot" unicode="&#xf1d3d;&#x331;" 
d="M225 704q430 0 359 -352q-70 -352 -291 -352t-139 410h118q-59 -293 45 -293q103 0 150 235q47 234 -266 234zM498 -77l-37 -188h-117l37 188h117z" />
    <glyph glyph-name="UkaliqPatternSegmentsAbdef_UkaliqModifierDot" unicode="&#xf1d3e;&#x331;" 
d="M455 293q59 293 -45 293q-103 0 -150 -234q-47 -235 266 -235l-24 -117q-430 0 -359 352q70 352 291 352t139 -411h-118zM498 -77l-37 -188h-117l37 188h117z" />
    <glyph glyph-name="UkaliqPatternSegmentsAbcdef_UkaliqModifierDot" unicode="&#xf1d3f;&#x331;" 
d="M498 -77l-37 -188h-117l37 188h117zM260 352q-47 -235 57 -235q103 0 150 235q47 234 -57 234q-103 0 -150 -234zM143 352q70 352 291 352t150 -352q-70 -352 -291 -352t-150 352z" />
    <glyph glyph-name="UkaliqPatternSegmentsG_UkaliqModifierDot" unicode="&#xf1d40;&#x331;" 
d="M166 410h418l-23 -117h-418zM498 -77l-37 -188h-117l37 188h117z" />
    <glyph glyph-name="UkaliqPatternSegmentsCg_UkaliqModifierDot" unicode="&#xf1d41;&#x331;" 
d="M166 410q430 0 348 -410h-117q58 293 -254 293zM498 -77l-37 -188h-117l37 188h117z" />
    <glyph glyph-name="UkaliqPatternSegmentsFg_UkaliqModifierDot" unicode="&#xf1d42;&#x331;" 
d="M330 704q-58 -294 254 -294l-23 -117q-430 0 -348 411h117zM498 -77l-37 -188h-117l37 188h117z" />
    <glyph glyph-name="UkaliqPatternSegmentsCfg_UkaliqModifierDot" unicode="&#xf1d43;&#x331;" 
d="M498 -77l-37 -188h-117l37 188h117zM330 704q-58 -294 153 -294q113 0 87 -129l-56 -281h-117l56 281q2 12 7 12q-329 0 -247 411h117z" />
    <glyph glyph-name="UkaliqPatternSegmentsEg_UkaliqModifierDot" unicode="&#xf1d44;&#x331;" 
d="M561 293q-313 0 -371 -293h-118q82 410 512 410zM498 -77l-37 -188h-117l37 188h117z" />
    <glyph glyph-name="UkaliqPatternSegmentsCeg_UkaliqModifierDot" unicode="&#xf1d45;&#x331;" 
d="M72 0q82 410 303 410t139 -410h-117q58 293 -45 293q-104 0 -162 -293h-118zM498 -77l-37 -188h-117l37 188h117z" />
    <glyph glyph-name="UkaliqPatternSegmentsEfg_UkaliqModifierDot" unicode="&#xf1d46;&#x331;" 
d="M498 -77l-37 -188h-117l37 188h117zM248 293l-58 -293h-118l71 352l70 352h117l-58 -294h312l-23 -117h-313z" />
    <glyph glyph-name="UkaliqPatternSegmentsCefg_UkaliqModifierDot" unicode="&#xf1d47;&#x331;" 
d="M498 -77l-37 -188h-117l37 188h117zM247 289l-57 -289h-118l71 352l70 352h117l-59 -297q318 -30 243 -407h-117q51 259 -150 289z" />
    <glyph glyph-name="UkaliqPatternSegmentsBg_UkaliqModifierDot" unicode="&#xf1d48;&#x331;" 
d="M655 704q-82 -411 -512 -411l23 117q313 0 371 294h118zM498 -77l-37 -188h-117l37 188h117z" />
    <glyph glyph-name="UkaliqPatternSegmentsBcg_UkaliqModifierDot" unicode="&#xf1d49;&#x331;" 
d="M655 704l-71 -352l-70 -352h-117l58 293h-312l23 117h313l58 294h118zM498 -77l-37 -188h-117l37 188h117z" />
    <glyph glyph-name="UkaliqPatternSegmentsBfg_UkaliqModifierDot" unicode="&#xf1d4a;&#x331;" 
d="M330 704q-58 -294 45 -294q104 0 162 294h118q-82 -411 -303 -411t-139 411h117zM498 -77l-37 -188h-117l37 188h117z" />
    <glyph glyph-name="UkaliqPatternSegmentsBcfg_UkaliqModifierDot" unicode="&#xf1d4b;&#x331;" 
d="M498 -77l-37 -188h-117l37 188h117zM330 704q-51 -260 149 -290l58 290h118l-71 -352l-70 -352h-117l59 296q-318 30 -243 408h117z" />
    <glyph glyph-name="UkaliqPatternSegmentsBeg_UkaliqModifierDot" unicode="&#xf1d4c;&#x331;" 
d="M655 704q-82 -411 -411 -411q4 0 2 -12l-56 -281h-118l57 281q25 129 138 129q212 0 270 294h118zM498 -77l-37 -188h-117l37 188h117z" />
    <glyph glyph-name="UkaliqPatternSegmentsBceg_UkaliqModifierDot" unicode="&#xf1d4d;&#x331;" 
d="M655 704l-71 -352l-70 -352h-117l57 289q-213 -30 -264 -289h-118q75 377 406 407l59 297h118zM498 -77l-37 -188h-117l37 188h117z" />
    <glyph glyph-name="UkaliqPatternSegmentsBefg_UkaliqModifierDot" unicode="&#xf1d4e;&#x331;" 
d="M498 -77l-37 -188h-117l37 188h117zM249 296l-59 -296h-118l71 352l70 352h117l-58 -290q213 30 265 290h118q-75 -378 -406 -408z" />
    <glyph glyph-name="UkaliqPatternSegmentsBcefg_UkaliqModifierDot" unicode="&#xf1d4f;&#x331;" 
d="M498 -77l-37 -188h-117l37 188h117zM655 704l-71 -352l-70 -352h-117l58 293h-207l-58 -293h-118l71 352l70 352h117l-58 -294h207l58 294h118z" />
    <glyph glyph-name="UkaliqPatternSegmentsDg_UkaliqModifierDot" unicode="&#xf1d50;&#x331;" 
d="M107 117h419l-24 -117h-418zM166 410h418l-23 -117h-418zM498 -77l-37 -188h-117l37 188h117z" />
    <glyph glyph-name="UkaliqPatternSegmentsCdg_UkaliqModifierDot" unicode="&#xf1d51;&#x331;" 
d="M166 410q430 0 389 -205t-471 -205l23 117q313 0 331 88q17 88 -295 88zM498 -77l-37 -188h-117l37 188h117z" />
    <glyph glyph-name="UkaliqPatternSegmentsDfg_UkaliqModifierDot" unicode="&#xf1d52;&#x331;" 
d="M330 704q-58 -294 254 -294l-23 -117q-430 0 -348 411h117zM107 117h419l-24 -117h-418zM498 -77l-37 -188h-117l37 188h117z" />
    <glyph glyph-name="UkaliqPatternSegmentsCdfg_UkaliqModifierDot" unicode="&#xf1d53;&#x331;" 
d="M498 -77l-37 -188h-117l37 188h117zM330 704q-58 -294 153 -294q113 0 92 -107q-61 -303 -491 -303l23 117q304 0 348 176q-323 3 -242 411h117z" />
    <glyph glyph-name="UkaliqPatternSegmentsDeg_UkaliqModifierDot" unicode="&#xf1d54;&#x331;" 
d="M561 293q-313 0 -330 -88q-18 -88 295 -88l-24 -117q-430 0 -389 205t471 205zM498 -77l-37 -188h-117l37 188h117z" />
    <glyph glyph-name="UkaliqPatternSegmentsCdeg_UkaliqModifierDot" unicode="&#xf1d55;&#x331;" 
d="M498 -77l-37 -188h-117l37 188h117zM231 205q-18 -88 86 -88q103 0 121 88q17 88 -86 88q-104 0 -121 -88zM113 205q41 205 262 205t180 -205t-262 -205t-180 205z" />
    <glyph glyph-name="UkaliqPatternSegmentsDefg_UkaliqModifierDot" unicode="&#xf1d56;&#x331;" 
d="M498 -77l-37 -188h-117l37 188h117zM254 293q1 -176 272 -176l-24 -117q-430 0 -359 352l70 352h117l-58 -294h312l-23 -117h-307z" />
    <glyph glyph-name="UkaliqPatternSegmentsCdefg_UkaliqModifierDot" unicode="&#xf1d57;&#x331;" 
d="M498 -77l-37 -188h-117l37 188h117zM250 292q-23 -175 67 -175q103 0 121 88q15 78 -188 87zM271 409q321 -15 284 -204q-41 -205 -262 -205t-150 352l70 352h117z" />
    <glyph glyph-name="UkaliqPatternSegmentsBdg_UkaliqModifierDot" unicode="&#xf1d58;&#x331;" 
d="M107 117h419l-24 -117h-418zM655 704q-82 -411 -512 -411l23 117q313 0 371 294h118zM498 -77l-37 -188h-117l37 188h117z" />
    <glyph glyph-name="UkaliqPatternSegmentsBcdg_UkaliqModifierDot" unicode="&#xf1d59;&#x331;" 
d="M655 704l-71 -352q-70 -352 -500 -352l23 117q271 0 343 176h-307l23 117h313l58 294h118zM498 -77l-37 -188h-117l37 188h117z" />
    <glyph glyph-name="UkaliqPatternSegmentsBdfg_UkaliqModifierDot" unicode="&#xf1d5a;&#x331;" 
d="M330 704q-58 -294 45 -294q104 0 162 294h118q-82 -411 -303 -411t-139 411h117zM107 117h419l-24 -117h-418zM498 -77l-37 -188h-117l37 188h117z" />
    <glyph glyph-name="UkaliqPatternSegmentsBcdfg_UkaliqModifierDot" unicode="&#xf1d5b;&#x331;" 
d="M498 -77l-37 -188h-117l37 188h117zM330 704q-51 -260 149 -290l58 290h118l-71 -352q-70 -352 -500 -352l23 117q273 0 344 179q-313 33 -238 408h117z" />
    <glyph glyph-name="UkaliqPatternSegmentsBdeg_UkaliqModifierDot" unicode="&#xf1d5c;&#x331;" 
d="M498 -77l-37 -188h-117l37 188h117zM248 293q-27 -176 278 -176l-24 -117q-430 0 -369 303q21 107 134 107q212 0 270 294h118q-82 -408 -407 -411z" />
    <glyph glyph-name="UkaliqPatternSegmentsBcdeg_UkaliqModifierDot" unicode="&#xf1d5d;&#x331;" 
d="M655 704l-71 -352q-70 -352 -291 -352t-180 205q38 189 365 204l59 295h118zM498 -77l-37 -188h-117l37 188h117zM453 292q-207 -9 -222 -87q-18 -88 86 -88q89 0 136 175z" />
    <glyph glyph-name="UkaliqPatternSegmentsBdefg_UkaliqModifierDot" unicode="&#xf1d5e;&#x331;" 
d="M498 -77l-37 -188h-117l37 188h117zM254 296q-1 -179 272 -179l-24 -117q-430 0 -359 352l70 352h117l-58 -290q213 30 265 290h118q-75 -376 -401 -408z" />
    <glyph glyph-name="UkaliqPatternSegmentsBcdefg_UkaliqModifierDot" unicode="&#xf1d5f;&#x331;" 
d="M498 -77l-37 -188h-117l37 188h117zM479 410l58 294h118l-71 -352q-70 -352 -291 -352t-150 352l70 352h117l-58 -294h207zM453 293h-203q-23 -176 67 -176q89 0 136 176z" />
    <glyph glyph-name="UkaliqPatternSegmentsAg_UkaliqModifierDot" unicode="&#xf1d60;&#x331;" 
d="M166 410h418l-23 -117h-418zM498 -77l-37 -188h-117l37 188h117zM225 704h418l-24 -118h-418z" />
    <glyph glyph-name="UkaliqPatternSegmentsAcg_UkaliqModifierDot" unicode="&#xf1d61;&#x331;" 
d="M166 410q430 0 348 -410h-117q58 293 -254 293zM498 -77l-37 -188h-117l37 188h117zM225 704h418l-24 -118h-418z" />
    <glyph glyph-name="UkaliqPatternSegmentsAfg_UkaliqModifierDot" unicode="&#xf1d62;&#x331;" 
d="M619 586q-312 0 -330 -88q-17 -88 295 -88l-23 -117q-430 0 -389 205q41 206 471 206zM498 -77l-37 -188h-117l37 188h117z" />
    <glyph glyph-name="UkaliqPatternSegmentsAcfg_UkaliqModifierDot" unicode="&#xf1d63;&#x331;" 
d="M498 -77l-37 -188h-117l37 188h117zM619 586q-312 0 -330 -88q-17 -88 194 -88q113 0 87 -129l-56 -281h-117l56 281q2 12 7 12q-329 0 -288 205q41 206 471 206z" />
    <glyph glyph-name="UkaliqPatternSegmentsAeg_UkaliqModifierDot" unicode="&#xf1d64;&#x331;" 
d="M561 293q-313 0 -371 -293h-118q82 410 512 410zM498 -77l-37 -188h-117l37 188h117zM225 704h418l-24 -118h-418z" />
    <glyph glyph-name="UkaliqPatternSegmentsAceg_UkaliqModifierDot" unicode="&#xf1d65;&#x331;" 
d="M72 0q82 410 303 410t139 -410h-117q58 293 -45 293q-104 0 -162 -293h-118zM498 -77l-37 -188h-117l37 188h117zM225 704h418l-24 -118h-418z" />
    <glyph glyph-name="UkaliqPatternSegmentsAefg_UkaliqModifierDot" unicode="&#xf1d66;&#x331;" 
d="M498 -77l-37 -188h-117l37 188h117zM248 293l-58 -293h-118l71 352q70 352 500 352l-24 -118q-271 0 -342 -176h307l-23 -117h-313z" />
    <glyph glyph-name="UkaliqPatternSegmentsAcefg_UkaliqModifierDot" unicode="&#xf1d67;&#x331;" 
d="M498 -77l-37 -188h-117l37 188h117zM247 289l-57 -289h-118l71 352q70 352 500 352l-24 -118q-273 0 -343 -179q313 -32 238 -407h-117q51 259 -150 289z" />
    <glyph glyph-name="UkaliqPatternSegmentsAbg_UkaliqModifierDot" unicode="&#xf1d68;&#x331;" 
d="M225 704q430 0 389 -206q-41 -205 -471 -205l23 117q313 0 330 88q18 88 -295 88zM498 -77l-37 -188h-117l37 188h117z" />
    <glyph glyph-name="UkaliqPatternSegmentsAbcg_UkaliqModifierDot" unicode="&#xf1d69;&#x331;" 
d="M225 704q430 0 359 -352l-70 -352h-117l58 293h-312l23 117h307q-1 176 -272 176zM498 -77l-37 -188h-117l37 188h117z" />
    <glyph glyph-name="UkaliqPatternSegmentsAbfg_UkaliqModifierDot" unicode="&#xf1d6a;&#x331;" 
d="M498 -77l-37 -188h-117l37 188h117zM289 498q-17 -88 86 -88q104 0 121 88q18 88 -86 88q-103 0 -121 -88zM172 498q41 206 262 206t180 -206q-41 -205 -262 -205t-180 205z" />
    <glyph glyph-name="UkaliqPatternSegmentsAbcfg_UkaliqModifierDot" unicode="&#xf1d6b;&#x331;" 
d="M498 -77l-37 -188h-117l37 188h117zM477 411q23 175 -67 175q-103 0 -121 -88q-15 -78 188 -87zM456 294q-321 15 -284 204q41 206 262 206t150 -352l-70 -352h-117z" />
    <glyph glyph-name="UkaliqPatternSegmentsAbeg_UkaliqModifierDot" unicode="&#xf1d6c;&#x331;" 
d="M225 704q430 0 389 -206q-41 -205 -370 -205q4 0 2 -12l-56 -281h-118l57 281q25 129 138 129q212 0 229 88q18 88 -295 88zM498 -77l-37 -188h-117l37 188h117z" />
    <glyph glyph-name="UkaliqPatternSegmentsAbceg_UkaliqModifierDot" unicode="&#xf1d6d;&#x331;" 
d="M225 704q430 0 359 -352l-70 -352h-117l57 289q-213 -30 -264 -289h-118q75 375 401 407q2 179 -272 179zM498 -77l-37 -188h-117l37 188h117z" />
    <glyph glyph-name="UkaliqPatternSegmentsAbefg_UkaliqModifierDot" unicode="&#xf1d6e;&#x331;" 
d="M498 -77l-37 -188h-117l37 188h117zM249 294l-59 -294h-118l71 352q70 352 291 352t180 -206q-37 -189 -365 -204zM274 411q207 9 222 87q18 88 -86 88q-89 0 -136 -175z" />
    <glyph glyph-name="UkaliqPatternSegmentsAbcefg_UkaliqModifierDot" unicode="&#xf1d6f;&#x331;" 
d="M498 -77l-37 -188h-117l37 188h117zM72 0l71 352q70 352 291 352t150 -352l-70 -352h-117l58 293h-207l-58 -293h-118zM273 410h204q23 176 -67 176t-137 -176z" />
    <glyph glyph-name="UkaliqPatternSegmentsAdg_UkaliqModifierDot" unicode="&#xf1d70;&#x331;" 
d="M107 117h419l-24 -117h-418zM166 410h418l-23 -117h-418zM498 -77l-37 -188h-117l37 188h117zM225 704h418l-24 -118h-418z" />
    <glyph glyph-name="UkaliqPatternSegmentsAcdg_UkaliqModifierDot" unicode="&#xf1d71;&#x331;" 
d="M166 410q430 0 389 -205t-471 -205l23 117q313 0 331 88q17 88 -295 88zM498 -77l-37 -188h-117l37 188h117zM225 704h418l-24 -118h-418z" />
    <glyph glyph-name="UkaliqPatternSegmentsAdfg_UkaliqModifierDot" unicode="&#xf1d72;&#x331;" 
d="M619 586q-312 0 -330 -88q-17 -88 295 -88l-23 -117q-430 0 -389 205q41 206 471 206zM107 117h419l-24 -117h-418zM498 -77l-37 -188h-117l37 188h117z" />
    <glyph glyph-name="UkaliqPatternSegmentsAcdfg_UkaliqModifierDot" unicode="&#xf1d73;&#x331;" 
d="M498 -77l-37 -188h-117l37 188h117zM619 586q-312 0 -330 -88q-17 -88 194 -88q113 0 92 -107q-61 -303 -491 -303l23 117q304 0 348 176q-323 2 -283 205q41 206 471 206z" />
    <glyph glyph-name="UkaliqPatternSegmentsAdeg_UkaliqModifierDot" unicode="&#xf1d74;&#x331;" 
d="M561 293q-313 0 -330 -88q-18 -88 295 -88l-24 -117q-430 0 -389 205t471 205zM498 -77l-37 -188h-117l37 188h117zM225 704h418l-24 -118h-418z" />
    <glyph glyph-name="UkaliqPatternSegmentsAcdeg_UkaliqModifierDot" unicode="&#xf1d75;&#x331;" 
d="M498 -77l-37 -188h-117l37 188h117zM225 704h418l-24 -118h-418zM231 205q-18 -88 86 -88q103 0 121 88q17 88 -86 88q-104 0 -121 -88zM113 205q41 205 262 205t180 -205t-262 -205t-180 205z" />
    <glyph glyph-name="UkaliqPatternSegmentsAdefg_UkaliqModifierDot" unicode="&#xf1d76;&#x331;" 
d="M498 -77l-37 -188h-117l37 188h117zM254 293q1 -176 272 -176l-24 -117q-430 0 -359 352q70 352 500 352l-24 -118q-271 0 -342 -176h307l-23 -117h-307z" />
    <glyph glyph-name="UkaliqPatternSegmentsAcdefg_UkaliqModifierDot" unicode="&#xf1d77;&#x331;" 
d="M498 -77l-37 -188h-117l37 188h117zM250 292q-23 -175 67 -175q103 0 121 88q15 78 -188 87zM277 408q316 -16 278 -203q-41 -205 -262 -205t-150 352q70 352 500 352l-24 -118q-271 0 -342 -178z" />
    <glyph glyph-name="UkaliqPatternSegmentsAbdg_UkaliqModifierDot" unicode="&#xf1d78;&#x331;" 
d="M107 117h419l-24 -117h-418zM225 704q430 0 389 -206q-41 -205 -471 -205l23 117q313 0 330 88q18 88 -295 88zM498 -77l-37 -188h-117l37 188h117z" />
    <glyph glyph-name="UkaliqPatternSegmentsAbcdg_UkaliqModifierDot" unicode="&#xf1d79;&#x331;" 
d="M225 704q430 0 359 -352q-70 -352 -500 -352l23 117q271 0 343 176h-307l23 117h307q-1 176 -272 176zM498 -77l-37 -188h-117l37 188h117z" />
    <glyph glyph-name="UkaliqPatternSegmentsAbdfg_UkaliqModifierDot" unicode="&#xf1d7a;&#x331;" 
d="M107 117h419l-24 -117h-418zM498 -77l-37 -188h-117l37 188h117zM289 498q-17 -88 86 -88q104 0 121 88q18 88 -86 88q-103 0 -121 -88zM172 498q41 206 262 206t180 -206q-41 -205 -262 -205t-180 205z" />
    <glyph glyph-name="UkaliqPatternSegmentsAbcdfg_UkaliqModifierDot" unicode="&#xf1d7b;&#x331;" 
d="M498 -77l-37 -188h-117l37 188h117zM477 411q23 175 -67 175q-103 0 -121 -88q-15 -78 188 -87zM450 295q-316 16 -278 203q41 206 262 206t150 -352q-70 -352 -500 -352l23 117q272 0 343 178z" />
    <glyph glyph-name="UkaliqPatternSegmentsAbdeg_UkaliqModifierDot" unicode="&#xf1d7c;&#x331;" 
d="M225 704q430 0 389 -206q-41 -204 -366 -205q-27 -176 278 -176l-24 -117q-430 0 -369 303q21 107 134 107q212 0 229 88q18 88 -295 88zM498 -77l-37 -188h-117l37 188h117z" />
    <glyph glyph-name="UkaliqPatternSegmentsAbcdeg_UkaliqModifierDot" unicode="&#xf1d7d;&#x331;" 
d="M225 704q430 0 359 -352q-70 -352 -291 -352t-180 205q37 187 360 203q1 178 -272 178zM498 -77l-37 -188h-117l37 188h117zM453 292q-207 -9 -222 -87q-18 -88 86 -88q89 0 136 175z" />
    <glyph glyph-name="UkaliqPatternSegmentsAbdefg_UkaliqModifierDot" unicode="&#xf1d7e;&#x331;" 
d="M498 -77l-37 -188h-117l37 188h117zM254 295q0 -178 272 -178l-24 -117q-430 0 -359 352q70 352 291 352t180 -206q-37 -187 -360 -203zM274 411q207 9 222 87q18 88 -86 88q-89 0 -136 -175z" />
    <glyph glyph-name="UkaliqPatternSegmentsAbcdefg_UkaliqModifierDot" unicode="&#xf1d7f;&#x331;" 
d="M498 -77l-37 -188h-117l37 188h117zM273 410h204q23 176 -67 176t-137 -176zM453 293h-203q-23 -176 67 -176q89 0 136 176zM143 352q70 352 291 352t150 -352q-70 -352 -291 -352t-150 352z" />
    <glyph glyph-name=".notdef" 
d="M107 117h419l-24 -117h-418zM498 -77l-37 -188h-117l37 188h117z" />
    <glyph glyph-name="NULL" horiz-adv-x="0" 
 />
    <glyph glyph-name="uni000D" unicode="&#xd;" horiz-adv-x="0" 
 />
    <glyph glyph-name="uni200D" unicode="&#x200d;" horiz-adv-x="0" 
 />
    <glyph glyph-name="uni200B" unicode="&#x200b;" horiz-adv-x="0" 
 />
    <glyph glyph-name="uni200C" unicode="&#x200c;" horiz-adv-x="0" 
 />
    <glyph glyph-name="uniFEFF" unicode="&#xfeff;" horiz-adv-x="0" 
 />
    <glyph glyph-name="space" unicode=" " 
 />
    <glyph glyph-name="uni00A0" unicode="&#xa0;" 
 />
    <glyph glyph-name="UkaliqModifierDot" unicode="&#x331;" 
d="M498 -77l-37 -188h-117l37 188h117z" />
    <glyph glyph-name="uni2002" unicode="&#x2002;" 
 />
    <glyph glyph-name="uni2007" unicode="&#x2007;" 
 />
    <glyph glyph-name="uni2B1B" unicode="&#x2b1b;" 
d="M0 946h578v-1242h-578v1242z" />
    <glyph glyph-name="UkaliqSpace" unicode="&#xee00;" 
 />
    <glyph glyph-name="UkaliqNumber" unicode="&#xee01;" 
d="M596 410l-82 -410h-117l82 410h117z" />
    <glyph glyph-name="UkaliqRightSingleQuotationMark" unicode="&#xee02;" 
d="M330 704l-82 -411h-117l82 411h117z" />
    <glyph glyph-name="UkaliqColon" unicode="&#xee03;" 
d="M596 410l-82 -410h-117l82 410h117zM330 704l-82 -411h-117l82 411h117z" />
    <glyph glyph-name="UkaliqFullStop" unicode="&#xee04;" 
d="M272 410l-82 -410h-118l82 410h118z" />
    <glyph glyph-name="UkaliqComma" unicode="&#xee05;" 
d="M596 410l-82 -410h-117l82 410h117zM272 410l-82 -410h-118l82 410h118z" />
    <glyph glyph-name="UkaliqRightParenthesis" unicode="&#xee06;" 
d="M330 704l-140 -704h-118l141 704h117z" />
    <glyph glyph-name="UkaliqExclamationMark" unicode="&#xee07;" 
d="M330 704l-140 -704h-118l141 704h117zM596 410l-82 -410h-117l82 410h117z" />
    <glyph glyph-name="UkaliqLeftSingleQuotationMark" unicode="&#xee08;" 
d="M655 704l-82 -411h-118l82 411h118z" />
    <glyph glyph-name="UkaliqLeftParenthesis" unicode="&#xee09;" 
d="M655 704l-141 -704h-117l140 704h118z" />
    <glyph glyph-name="UkaliqDoubleQuotationMark" unicode="&#xee0a;" 
d="M330 704l-82 -411h-117l82 411h117zM655 704l-82 -411h-118l82 411h118z" />
    <glyph glyph-name="UkaliqReversedQuestionMark" unicode="&#xee0b;" 
d="M655 704l-141 -704h-117l140 704h118zM330 704l-82 -411h-117l82 411h117z" />
    <glyph glyph-name="UkaliqSemicolon" unicode="&#xee0c;" 
d="M655 704l-82 -411h-118l82 411h118zM272 410l-82 -410h-118l82 410h118z" />
    <glyph glyph-name="UkaliqReversedExclamationMark" unicode="&#xee0d;" 
d="M655 704l-141 -704h-117l140 704h118zM272 410l-82 -410h-118l82 410h118z" />
    <glyph glyph-name="UkaliqQuestionMark" unicode="&#xee0e;" 
d="M330 704l-140 -704h-118l141 704h117zM655 704l-82 -411h-118l82 411h118z" />
    <glyph glyph-name="UkaliqEquals" unicode="&#xee0f;" 
d="M655 704l-141 -704h-117l140 704h118zM330 704l-140 -704h-118l141 704h117z" />
    <glyph glyph-name="UkaliqHyphen" unicode="&#xee10;" 
d="M107 117h419l-24 -117h-418z" />
    <glyph glyph-name="UkaliqLetterOzo" unicode="&#xee11;" 
d="M596 410q-82 -410 -512 -410l23 117q313 0 372 293h117z" />
    <glyph glyph-name="UkaliqGreaterThan" unicode="&#xee12;" 
d="M107 117h419l-24 -117h-418zM330 704l-82 -411h-117l82 411h117z" />
    <glyph glyph-name="UkaliqLetterAtlha" unicode="&#xee13;" 
d="M330 704l-82 -411h-117l82 411h117zM596 410q-82 -410 -512 -410l23 117q313 0 372 293h117z" />
    <glyph glyph-name="UkaliqLetterEdzre" unicode="&#xee14;" 
d="M272 410q-59 -293 254 -293l-24 -117q-430 0 -348 410h118z" />
    <glyph glyph-name="UkaliqOr" unicode="&#xee15;" 
d="M272 410q-59 -293 45 -293q103 0 162 293h117q-82 -410 -303 -410t-139 410h118z" />
    <glyph glyph-name="UkaliqLetterIdzji" unicode="&#xee16;" 
d="M330 704l-43 -215q-74 -372 239 -372l-24 -117q-430 0 -332 489l43 215h117z" />
    <glyph glyph-name="UkaliqLetterOdzo" unicode="&#xee17;" 
d="M330 704l-43 -215q-74 -372 30 -372q103 0 162 293h117q-82 -410 -303 -410t-123 489l43 215h117z" />
    <glyph glyph-name="UkaliqLessThan" unicode="&#xee18;" 
d="M107 117h419l-24 -117h-418zM655 704l-82 -411h-118l82 411h118z" />
    <glyph glyph-name="UkaliqLetterOso" unicode="&#xee19;" 
d="M655 704l-43 -215q-98 -489 -528 -489l23 117q313 0 387 372l43 215h118z" />
    <glyph glyph-name="UkaliqMultiplication" unicode="&#xee1a;" 
d="M107 117h419l-24 -117h-418zM330 704l-82 -411h-117l82 411h117zM655 704l-82 -411h-118l82 411h118z" />
    <glyph glyph-name="UkaliqLetterApfa" unicode="&#xee1b;" 
d="M330 704l-82 -411h-117l82 411h117zM655 704l-43 -215q-98 -489 -528 -489l23 117q313 0 387 372l43 215h118z" />
    <glyph glyph-name="UkaliqLetterEtsre" unicode="&#xee1c;" 
d="M272 410q-59 -293 254 -293l-24 -117q-430 0 -348 410h118zM655 704l-82 -411h-118l82 411h118z" />
    <glyph glyph-name="UkaliqLetterUkkhu" unicode="&#xee1d;" 
d="M655 704l-43 -215q-98 -489 -319 -489t-139 410h118q-59 -293 45 -293q103 0 177 372l43 215h118z" />
    <glyph glyph-name="UkaliqLetterItsji" unicode="&#xee1e;" 
d="M330 704l-43 -215q-74 -372 239 -372l-24 -117q-430 0 -332 489l43 215h117zM655 704l-82 -411h-118l82 411h118z" />
    <glyph glyph-name="UkaliqLetterOtso" unicode="&#xee1f;" 
d="M330 704l-43 -215q-74 -372 30 -372q103 0 177 372l43 215h118l-43 -215q-98 -489 -319 -489t-123 489l43 215h117z" />
    <glyph glyph-name="UkaliqRange" unicode="&#xee20;" 
d="M225 704h418l-24 -118h-418z" />
    <glyph glyph-name="UkaliqLetterEo" unicode="&#xee21;" 
d="M596 410l-82 -410h-117l82 410h117zM225 704h418l-24 -118h-418z" />
    <glyph glyph-name="UkaliqLetterUh" unicode="&#xee22;" 
d="M619 586q-312 0 -371 -293h-117q82 411 512 411z" />
    <glyph glyph-name="UkaliqLetterEu" unicode="&#xee23;" 
d="M596 410l-82 -410h-117l82 410h117zM619 586q-312 0 -371 -293h-117q82 411 512 411z" />
    <glyph glyph-name="UkaliqLetterOe" unicode="&#xee24;" 
d="M272 410l-82 -410h-118l82 410h118zM225 704h418l-24 -118h-418z" />
    <glyph glyph-name="UkaliqLetterOeh" unicode="&#xee25;" 
d="M596 410l-82 -410h-117l82 410h117zM272 410l-82 -410h-118l82 410h118zM225 704h418l-24 -118h-418z" />
    <glyph glyph-name="UkaliqLetterUi" unicode="&#xee26;" 
d="M619 586q-312 0 -386 -371l-43 -215h-118l43 215q98 489 528 489z" />
    <glyph glyph-name="UkaliqLetterAh" unicode="&#xee27;" 
d="M619 586q-312 0 -386 -371l-43 -215h-118l43 215q98 489 528 489zM596 410l-82 -410h-117l82 410h117z" />
    <glyph glyph-name="UkaliqLetterAe" unicode="&#xee28;" 
d="M225 704q430 0 348 -411h-118q59 293 -254 293z" />
    <glyph glyph-name="UkaliqLetterO" unicode="&#xee29;" 
d="M225 704q430 0 332 -489l-43 -215h-117l43 215q74 371 -239 371z" />
    <glyph glyph-name="UkaliqLetterIh" unicode="&#xee2a;" 
d="M131 293q82 411 303 411t139 -411h-118q59 293 -45 293q-103 0 -162 -293h-117z" />
    <glyph glyph-name="UkaliqLetterU" unicode="&#xee2b;" 
d="M131 293q82 411 303 411t123 -489l-43 -215h-117l43 215q74 371 -30 371q-103 0 -162 -293h-117z" />
    <glyph glyph-name="UkaliqLetterE" unicode="&#xee2c;" 
d="M225 704q430 0 348 -411h-118q59 293 -254 293zM272 410l-82 -410h-118l82 410h118z" />
    <glyph glyph-name="UkaliqLetterEh" unicode="&#xee2d;" 
d="M225 704q430 0 332 -489l-43 -215h-117l43 215q74 371 -239 371zM272 410l-82 -410h-118l82 410h118z" />
    <glyph glyph-name="UkaliqLetterI" unicode="&#xee2e;" 
d="M455 293q59 293 -45 293q-103 0 -177 -371l-43 -215h-118l43 215q98 489 319 489t139 -411h-118z" />
    <glyph glyph-name="UkaliqLetterOh" unicode="&#xee2f;" 
d="M72 0l43 215q98 489 319 489t123 -489l-43 -215h-117l43 215q74 371 -30 371q-103 0 -177 -371l-43 -215h-118z" />
    <glyph glyph-name="UkaliqPlus" unicode="&#xee30;" 
d="M107 117h419l-24 -117h-418zM225 704h418l-24 -118h-418z" />
    <glyph glyph-name="UkaliqCurrency" unicode="&#xee31;" 
d="M596 410q-82 -410 -512 -410l23 117q313 0 372 293h117zM225 704h418l-24 -118h-418z" />
    <glyph glyph-name="UkaliqAt" unicode="&#xee32;" 
d="M107 117h419l-24 -117h-418zM619 586q-312 0 -371 -293h-117q82 411 512 411z" />
    <glyph glyph-name="UkaliqLetterAlha" unicode="&#xee33;" 
d="M619 586q-312 0 -371 -293h-117q82 411 512 411zM596 410q-82 -410 -512 -410l23 117q313 0 372 293h117z" />
    <glyph glyph-name="UkaliqLetterElre" unicode="&#xee34;" 
d="M272 410q-59 -293 254 -293l-24 -117q-430 0 -348 410h118zM225 704h418l-24 -118h-418z" />
    <glyph glyph-name="UkaliqLetterUlgu" unicode="&#xee35;" 
d="M272 410q-59 -293 45 -293q103 0 162 293h117q-82 -410 -303 -410t-139 410h118zM225 704h418l-24 -118h-418z" />
    <glyph glyph-name="UkaliqLetterIlji" unicode="&#xee36;" 
d="M619 586q-312 0 -359 -234q-47 -235 266 -235l-24 -117q-430 0 -359 352q70 352 500 352z" />
    <glyph glyph-name="UkaliqLetterOlo" unicode="&#xee37;" 
d="M619 586q-312 0 -359 -234q-47 -235 57 -235q103 0 162 293h117q-82 -410 -303 -410t-150 352q70 352 500 352z" />
    <glyph glyph-name="UkaliqDegree" unicode="&#xee38;" 
d="M107 117h419l-24 -117h-418zM225 704q430 0 348 -411h-118q59 293 -254 293z" />
    <glyph glyph-name="UkaliqLetterHbat" unicode="&#xee39;" 
d="M225 704q430 0 359 -352q-70 -352 -500 -352l23 117q313 0 360 235q47 234 -266 234z" />
    <glyph glyph-name="UkaliqLetterAnqa" unicode="&#xee3a;" 
d="M107 117h419l-24 -117h-418zM131 293q82 411 303 411t139 -411h-118q59 293 -45 293q-103 0 -162 -293h-117z" />
    <glyph glyph-name="UkaliqLetterAma" unicode="&#xee3b;" 
d="M131 293q82 411 303 411t150 -352q-70 -352 -500 -352l23 117q313 0 360 235q47 234 -57 234q-103 0 -162 -293h-117z" />
    <glyph glyph-name="UkaliqLetterEnre" unicode="&#xee3c;" 
d="M225 704q430 0 348 -411h-118q59 293 -254 293zM272 410q-59 -293 254 -293l-24 -117q-430 0 -348 410h118z" />
    <glyph glyph-name="UkaliqLetterUngu" unicode="&#xee3d;" 
d="M225 704q430 0 359 -352q-70 -352 -291 -352t-139 410h118q-59 -293 45 -293q103 0 150 235q47 234 -266 234z" />
    <glyph glyph-name="UkaliqLetterInji" unicode="&#xee3e;" 
d="M455 293q59 293 -45 293q-103 0 -150 -234q-47 -235 266 -235l-24 -117q-430 0 -359 352q70 352 291 352t139 -411h-118z" />
    <glyph glyph-name="UkaliqLetterOno" unicode="&#xee3f;" 
d="M260 352q-47 -235 57 -235q103 0 150 235q47 234 -57 234q-103 0 -150 -234zM143 352q70 352 291 352t150 -352q-70 -352 -291 -352t-150 352z" />
    <glyph glyph-name="UkaliqDash" unicode="&#xee40;" 
d="M166 410h418l-23 -117h-418z" />
    <glyph glyph-name="UkaliqLetterA" unicode="&#xee41;" 
d="M166 410q430 0 348 -410h-117q58 293 -254 293z" />
    <glyph glyph-name="UkaliqMinus" unicode="&#xee42;" 
d="M330 704q-58 -294 254 -294l-23 -117q-430 0 -348 411h117z" />
    <glyph glyph-name="UkaliqLetterAwa" unicode="&#xee43;" 
d="M330 704q-58 -294 153 -294q113 0 87 -129l-56 -281h-117l56 281q2 12 7 12q-329 0 -247 411h117z" />
    <glyph glyph-name="UkaliqLetterErre" unicode="&#xee44;" 
d="M561 293q-313 0 -371 -293h-118q82 410 512 410z" />
    <glyph glyph-name="UkaliqAnd" unicode="&#xee45;" 
d="M72 0q82 410 303 410t139 -410h-117q58 293 -45 293q-104 0 -162 -293h-118z" />
    <glyph glyph-name="UkaliqLetterIzji" unicode="&#xee46;" 
d="M248 293l-58 -293h-118l71 352l70 352h117l-58 -294h312l-23 -117h-313z" />
    <glyph glyph-name="UkaliqLetterOro" unicode="&#xee47;" 
d="M247 289l-57 -289h-118l71 352l70 352h117l-59 -297q318 -30 243 -407h-117q51 259 -150 289z" />
    <glyph glyph-name="UkaliqNot" unicode="&#xee48;" 
d="M655 704q-82 -411 -512 -411l23 117q313 0 371 294h118z" />
    <glyph glyph-name="UkaliqDivision" unicode="&#xee49;" 
d="M655 704l-71 -352l-70 -352h-117l58 293h-312l23 117h313l58 294h118z" />
    <glyph glyph-name="UkaliqXor" unicode="&#xee4a;" 
d="M330 704q-58 -294 45 -294q104 0 162 294h118q-82 -411 -303 -411t-139 411h117z" />
    <glyph glyph-name="uniEE4B" unicode="&#xee4b;" 
d="M330 704q-51 -260 149 -290l58 290h118l-71 -352l-70 -352h-117l59 296q-318 30 -243 408h117z" />
    <glyph glyph-name="UkaliqLetterIji" unicode="&#xee4c;" 
d="M655 704q-82 -411 -411 -411q4 0 2 -12l-56 -281h-118l57 281q25 129 138 129q212 0 270 294h118z" />
    <glyph glyph-name="UkaliqLetterTkot" unicode="&#xee4d;" 
d="M655 704l-71 -352l-70 -352h-117l57 289q-213 -30 -264 -289h-118q75 377 406 407l59 297h118z" />
    <glyph glyph-name="UkaliqLetterIsji" unicode="&#xee4e;" 
d="M249 296l-59 -296h-118l71 352l70 352h117l-58 -290q213 30 265 290h118q-75 -378 -406 -408z" />
    <glyph glyph-name="UkaliqLetterOrro" unicode="&#xee4f;" 
d="M655 704l-71 -352l-70 -352h-117l58 293h-207l-58 -293h-118l71 352l70 352h117l-58 -294h207l58 294h118z" />
    <glyph glyph-name="UkaliqDigitZero" unicode="&#xee50;" 
d="M107 117h419l-24 -117h-418zM166 410h418l-23 -117h-418z" />
    <glyph glyph-name="UkaliqDigitOne" unicode="&#xee51;" 
d="M166 410q430 0 389 -205t-471 -205l23 117q313 0 331 88q17 88 -295 88z" />
    <glyph glyph-name="UkaliqDigitTwo" unicode="&#xee52;" 
d="M330 704q-58 -294 254 -294l-23 -117q-430 0 -348 411h117zM107 117h419l-24 -117h-418z" />
    <glyph glyph-name="UkaliqDigitThree" unicode="&#xee53;" 
d="M330 704q-58 -294 153 -294q113 0 92 -107q-61 -303 -491 -303l23 117q304 0 348 176q-323 3 -242 411h117z" />
    <glyph glyph-name="UkaliqDigitFour" unicode="&#xee54;" 
d="M561 293q-313 0 -330 -88q-18 -88 295 -88l-24 -117q-430 0 -389 205t471 205z" />
    <glyph glyph-name="UkaliqDigitFive" unicode="&#xee55;" 
d="M231 205q-18 -88 86 -88q103 0 121 88q17 88 -86 88q-104 0 -121 -88zM113 205q41 205 262 205t180 -205t-262 -205t-180 205z" />
    <glyph glyph-name="UkaliqDigitSix" unicode="&#xee56;" 
d="M254 293q1 -176 272 -176l-24 -117q-430 0 -359 352l70 352h117l-58 -294h312l-23 -117h-307z" />
    <glyph glyph-name="UkaliqDigitSeven" unicode="&#xee57;" 
d="M250 292q-23 -175 67 -175q103 0 121 88q15 78 -188 87zM271 409q321 -15 284 -204q-41 -205 -262 -205t-150 352l70 352h117z" />
    <glyph glyph-name="UkaliqDigitEight" unicode="&#xee58;" 
d="M107 117h419l-24 -117h-418zM655 704q-82 -411 -512 -411l23 117q313 0 371 294h118z" />
    <glyph glyph-name="UkaliqDigitNine" unicode="&#xee59;" 
d="M655 704l-71 -352q-70 -352 -500 -352l23 117q271 0 343 176h-307l23 117h313l58 294h118z" />
    <glyph glyph-name="UkaliqDigitTen" unicode="&#xee5a;" 
d="M330 704q-58 -294 45 -294q104 0 162 294h118q-82 -411 -303 -411t-139 411h117zM107 117h419l-24 -117h-418z" />
    <glyph glyph-name="UkaliqDigitEleven" unicode="&#xee5b;" 
d="M330 704q-51 -260 149 -290l58 290h118l-71 -352q-70 -352 -500 -352l23 117q273 0 344 179q-313 33 -238 408h117z" />
    <glyph glyph-name="UkaliqDigitTwelve" unicode="&#xee5c;" 
d="M248 293q-27 -176 278 -176l-24 -117q-430 0 -369 303q21 107 134 107q212 0 270 294h118q-82 -408 -407 -411z" />
    <glyph glyph-name="UkaliqDigitThirteen" unicode="&#xee5d;" 
d="M655 704l-71 -352q-70 -352 -291 -352t-180 205q38 189 365 204l59 295h118zM453 292q-207 -9 -222 -87q-18 -88 86 -88q89 0 136 175z" />
    <glyph glyph-name="UkaliqDigitFourteen" unicode="&#xee5e;" 
d="M254 296q-1 -179 272 -179l-24 -117q-430 0 -359 352l70 352h117l-58 -290q213 30 265 290h118q-75 -376 -401 -408z" />
    <glyph glyph-name="UkaliqDigitFifteen" unicode="&#xee5f;" 
d="M479 410l58 294h118l-71 -352q-70 -352 -291 -352t-150 352l70 352h117l-58 -294h207zM453 293h-203q-23 -176 67 -176q89 0 136 176z" />
    <glyph glyph-name="UkaliqLetterSchwa" unicode="&#xee60;" 
d="M166 410h418l-23 -117h-418zM225 704h418l-24 -118h-418z" />
    <glyph glyph-name="UkaliqLetterOhgo" unicode="&#xee61;" 
d="M166 410q430 0 348 -410h-117q58 293 -254 293zM225 704h418l-24 -118h-418z" />
    <glyph glyph-name="UkaliqLetterArha" unicode="&#xee62;" 
d="M619 586q-312 0 -330 -88q-17 -88 295 -88l-23 -117q-430 0 -389 205q41 206 471 206z" />
    <glyph glyph-name="UkaliqLetterAva" unicode="&#xee63;" 
d="M619 586q-312 0 -330 -88q-17 -88 194 -88q113 0 87 -129l-56 -281h-117l56 281q2 12 7 12q-329 0 -288 205q41 206 471 206z" />
    <glyph glyph-name="UkaliqLetterEzre" unicode="&#xee64;" 
d="M561 293q-313 0 -371 -293h-118q82 410 512 410zM225 704h418l-24 -118h-418z" />
    <glyph glyph-name="UkaliqLetterUghu" unicode="&#xee65;" 
d="M72 0q82 410 303 410t139 -410h-117q58 293 -45 293q-104 0 -162 -293h-118zM225 704h418l-24 -118h-418z" />
    <glyph glyph-name="UkaliqLetterIjji" unicode="&#xee66;" 
d="M248 293l-58 -293h-118l71 352q70 352 500 352l-24 -118q-271 0 -342 -176h307l-23 -117h-313z" />
    <glyph glyph-name="UkaliqLetterOdho" unicode="&#xee67;" 
d="M247 289l-57 -289h-118l71 352q70 352 500 352l-24 -118q-273 0 -343 -179q313 -32 238 -407h-117q51 259 -150 289z" />
    <glyph glyph-name="UkaliqLetterOhho" unicode="&#xee68;" 
d="M225 704q430 0 389 -206q-41 -205 -471 -205l23 117q313 0 330 88q18 88 -295 88z" />
    <glyph glyph-name="UkaliqLetterAha" unicode="&#xee69;" 
d="M225 704q430 0 359 -352l-70 -352h-117l58 293h-312l23 117h307q-1 176 -272 176z" />
    <glyph glyph-name="UkaliqLetterAqha" unicode="&#xee6a;" 
d="M289 498q-17 -88 86 -88q104 0 121 88q18 88 -86 88q-103 0 -121 -88zM172 498q41 206 262 206t180 -206q-41 -205 -262 -205t-180 205z" />
    <glyph glyph-name="UkaliqLetterAfa" unicode="&#xee6b;" 
d="M477 411q23 175 -67 175q-103 0 -121 -88q-15 -78 188 -87zM456 294q-321 15 -284 204q41 206 262 206t150 -352l-70 -352h-117z" />
    <glyph glyph-name="UkaliqLetterEsre" unicode="&#xee6c;" 
d="M225 704q430 0 389 -206q-41 -205 -370 -205q4 0 2 -12l-56 -281h-118l57 281q25 129 138 129q212 0 229 88q18 88 -295 88z" />
    <glyph glyph-name="UkaliqLetterUkhu" unicode="&#xee6d;" 
d="M225 704q430 0 359 -352l-70 -352h-117l57 289q-213 -30 -264 -289h-118q75 375 401 407q2 179 -272 179z" />
    <glyph glyph-name="UkaliqLetterIcji" unicode="&#xee6e;" 
d="M249 294l-59 -294h-118l71 352q70 352 291 352t180 -206q-37 -189 -365 -204zM274 411q207 9 222 87q18 88 -86 88q-89 0 -136 -175z" />
    <glyph glyph-name="UkaliqLetterOtho" unicode="&#xee6f;" 
d="M72 0l71 352q70 352 291 352t150 -352l-70 -352h-117l58 293h-207l-58 -293h-118zM273 410h204q23 176 -67 176t-137 -176z" />
    <glyph glyph-name="UkaliqIterationMark" unicode="&#xee70;" 
d="M107 117h419l-24 -117h-418zM166 410h418l-23 -117h-418zM225 704h418l-24 -118h-418z" />
    <glyph glyph-name="UkaliqPercent" unicode="&#xee71;" 
d="M166 410q430 0 389 -205t-471 -205l23 117q313 0 331 88q17 88 -295 88zM225 704h418l-24 -118h-418z" />
    <glyph glyph-name="UkaliqLetterAgqa" unicode="&#xee72;" 
d="M619 586q-312 0 -330 -88q-17 -88 295 -88l-23 -117q-430 0 -389 205q41 206 471 206zM107 117h419l-24 -117h-418z" />
    <glyph glyph-name="UkaliqLetterAba" unicode="&#xee73;" 
d="M619 586q-312 0 -330 -88q-17 -88 194 -88q113 0 92 -107q-61 -303 -491 -303l23 117q304 0 348 176q-323 2 -283 205q41 206 471 206z" />
    <glyph glyph-name="UkaliqLetterEdre" unicode="&#xee74;" 
d="M561 293q-313 0 -330 -88q-18 -88 295 -88l-24 -117q-430 0 -389 205t471 205zM225 704h418l-24 -118h-418z" />
    <glyph glyph-name="UkaliqLetterUgu" unicode="&#xee75;" 
d="M225 704h418l-24 -118h-418zM231 205q-18 -88 86 -88q103 0 121 88q17 88 -86 88q-104 0 -121 -88zM113 205q41 205 262 205t180 -205t-262 -205t-180 205z" />
    <glyph glyph-name="UkaliqLetterIgji" unicode="&#xee76;" 
d="M254 293q1 -176 272 -176l-24 -117q-430 0 -359 352q70 352 500 352l-24 -118q-271 0 -342 -176h307l-23 -117h-307z" />
    <glyph glyph-name="UkaliqLetterOdo" unicode="&#xee77;" 
d="M250 292q-23 -175 67 -175q103 0 121 88q15 78 -188 87zM277 408q316 -16 278 -203q-41 -205 -262 -205t-150 352q70 352 500 352l-24 -118q-271 0 -342 -178z" />
    <glyph glyph-name="UkaliqLetterOhhko" unicode="&#xee78;" 
d="M107 117h419l-24 -117h-418zM225 704q430 0 389 -206q-41 -205 -471 -205l23 117q313 0 330 88q18 88 -295 88z" />
    <glyph glyph-name="UkaliqLetterAhka" unicode="&#xee79;" 
d="M225 704q430 0 359 -352q-70 -352 -500 -352l23 117q271 0 343 176h-307l23 117h307q-1 176 -272 176z" />
    <glyph glyph-name="UkaliqLetterAqa" unicode="&#xee7a;" 
d="M107 117h419l-24 -117h-418zM289 498q-17 -88 86 -88q104 0 121 88q18 88 -86 88q-103 0 -121 -88zM172 498q41 206 262 206t180 -206q-41 -205 -262 -205t-180 205z" />
    <glyph glyph-name="UkaliqLetterApa" unicode="&#xee7b;" 
d="M477 411q23 175 -67 175q-103 0 -121 -88q-15 -78 188 -87zM450 295q-316 16 -278 203q41 206 262 206t150 -352q-70 -352 -500 -352l23 117q272 0 343 178z" />
    <glyph glyph-name="UkaliqLetterEtre" unicode="&#xee7c;" 
d="M225 704q430 0 389 -206q-41 -204 -366 -205q-27 -176 278 -176l-24 -117q-430 0 -369 303q21 107 134 107q212 0 229 88q18 88 -295 88z" />
    <glyph glyph-name="UkaliqLetterUku" unicode="&#xee7d;" 
d="M225 704q430 0 359 -352q-70 -352 -291 -352t-180 205q37 187 360 203q1 178 -272 178zM453 292q-207 -9 -222 -87q-18 -88 86 -88q89 0 136 175z" />
    <glyph glyph-name="UkaliqLetterIci" unicode="&#xee7e;" 
d="M254 295q0 -178 272 -178l-24 -117q-430 0 -359 352q70 352 291 352t180 -206q-37 -187 -360 -203zM274 411q207 9 222 87q18 88 -86 88q-89 0 -136 -175z" />
    <glyph glyph-name="UkaliqLetterOto" unicode="&#xee7f;" 
d="M273 410h204q23 176 -67 176t-137 -176zM453 293h-203q-23 -176 67 -176q89 0 136 176zM143 352q70 352 291 352t150 -352q-70 -352 -291 -352t-150 352z" />
    <glyph glyph-name="UkaliqDot" unicode="&#xee80;" 
d="M498 -77l-37 -188h-117l37 188h117z" />
    <glyph glyph-name="UkaliqNumberWithDot" unicode="&#xee81;" 
d="M596 410l-82 -410h-117l82 410h117zM498 -77l-37 -188h-117l37 188h117z" />
    <glyph glyph-name="UkaliqRightSingleQuotationMarkWithDot" unicode="&#xee82;" 
d="M330 704l-82 -411h-117l82 411h117zM498 -77l-37 -188h-117l37 188h117z" />
    <glyph glyph-name="UkaliqColonWithDot" unicode="&#xee83;" 
d="M596 410l-82 -410h-117l82 410h117zM330 704l-82 -411h-117l82 411h117zM498 -77l-37 -188h-117l37 188h117z" />
    <glyph glyph-name="UkaliqFullStopWithDot" unicode="&#xee84;" 
d="M272 410l-82 -410h-118l82 410h118zM498 -77l-37 -188h-117l37 188h117z" />
    <glyph glyph-name="UkaliqCommaWithDot" unicode="&#xee85;" 
d="M596 410l-82 -410h-117l82 410h117zM272 410l-82 -410h-118l82 410h118zM498 -77l-37 -188h-117l37 188h117z" />
    <glyph glyph-name="UkaliqRightParenthesisWithDot" unicode="&#xee86;" 
d="M330 704l-140 -704h-118l141 704h117zM498 -77l-37 -188h-117l37 188h117z" />
    <glyph glyph-name="UkaliqExclamationMarkWithDot" unicode="&#xee87;" 
d="M330 704l-140 -704h-118l141 704h117zM596 410l-82 -410h-117l82 410h117zM498 -77l-37 -188h-117l37 188h117z" />
    <glyph glyph-name="UkaliqLeftSingleQuotationMarkWithDot" unicode="&#xee88;" 
d="M655 704l-82 -411h-118l82 411h118zM498 -77l-37 -188h-117l37 188h117z" />
    <glyph glyph-name="UkaliqLeftParenthesisWithDot" unicode="&#xee89;" 
d="M655 704l-141 -704h-117l140 704h118zM498 -77l-37 -188h-117l37 188h117z" />
    <glyph glyph-name="UkaliqDoubleQuotationMarkWithDot" unicode="&#xee8a;" 
d="M330 704l-82 -411h-117l82 411h117zM655 704l-82 -411h-118l82 411h118zM498 -77l-37 -188h-117l37 188h117z" />
    <glyph glyph-name="UkaliqReversedQuestionMarkWithDot" unicode="&#xee8b;" 
d="M655 704l-141 -704h-117l140 704h118zM330 704l-82 -411h-117l82 411h117zM498 -77l-37 -188h-117l37 188h117z" />
    <glyph glyph-name="UkaliqSemicolonWithDot" unicode="&#xee8c;" 
d="M655 704l-82 -411h-118l82 411h118zM272 410l-82 -410h-118l82 410h118zM498 -77l-37 -188h-117l37 188h117z" />
    <glyph glyph-name="UkaliqReversedExclamationMarkWithDot" unicode="&#xee8d;" 
d="M655 704l-141 -704h-117l140 704h118zM272 410l-82 -410h-118l82 410h118zM498 -77l-37 -188h-117l37 188h117z" />
    <glyph glyph-name="UkaliqQuestionMarkWithDot" unicode="&#xee8e;" 
d="M330 704l-140 -704h-118l141 704h117zM655 704l-82 -411h-118l82 411h118zM498 -77l-37 -188h-117l37 188h117z" />
    <glyph glyph-name="UkaliqEqualsWithDot" unicode="&#xee8f;" 
d="M655 704l-141 -704h-117l140 704h118zM330 704l-140 -704h-118l141 704h117zM498 -77l-37 -188h-117l37 188h117z" />
    <glyph glyph-name="UkaliqHyphenWithDot" unicode="&#xee90;" 
d="M107 117h419l-24 -117h-418zM498 -77l-37 -188h-117l37 188h117z" />
    <glyph glyph-name="UkaliqLetterOzoWithDot" unicode="&#xee91;" 
d="M498 -77l-37 -188h-117l37 188h117zM596 410q-82 -410 -512 -410l23 117q313 0 372 293h117z" />
    <glyph glyph-name="UkaliqGreaterThanWithDot" unicode="&#xee92;" 
d="M107 117h419l-24 -117h-418zM330 704l-82 -411h-117l82 411h117zM498 -77l-37 -188h-117l37 188h117z" />
    <glyph glyph-name="UkaliqLetterAtlhaWithDot" unicode="&#xee93;" 
d="M330 704l-82 -411h-117l82 411h117zM498 -77l-37 -188h-117l37 188h117zM596 410q-82 -410 -512 -410l23 117q313 0 372 293h117z" />
    <glyph glyph-name="UkaliqLetterEdzreWithDot" unicode="&#xee94;" 
d="M272 410q-59 -293 254 -293l-24 -117q-430 0 -348 410h118zM498 -77l-37 -188h-117l37 188h117z" />
    <glyph glyph-name="UkaliqOrWithDot" unicode="&#xee95;" 
d="M272 410q-59 -293 45 -293q103 0 162 293h117q-82 -410 -303 -410t-139 410h118zM498 -77l-37 -188h-117l37 188h117z" />
    <glyph glyph-name="UkaliqLetterIdzjiWithDot" unicode="&#xee96;" 
d="M330 704l-43 -215q-74 -372 239 -372l-24 -117q-430 0 -332 489l43 215h117zM498 -77l-37 -188h-117l37 188h117z" />
    <glyph glyph-name="UkaliqLetterOdzoWithDot" unicode="&#xee97;" 
d="M330 704l-43 -215q-74 -372 30 -372q103 0 162 293h117q-82 -410 -303 -410t-123 489l43 215h117zM498 -77l-37 -188h-117l37 188h117z" />
    <glyph glyph-name="UkaliqLessThanWithDot" unicode="&#xee98;" 
d="M107 117h419l-24 -117h-418zM655 704l-82 -411h-118l82 411h118zM498 -77l-37 -188h-117l37 188h117z" />
    <glyph glyph-name="UkaliqLetterOsoWithDot" unicode="&#xee99;" 
d="M655 704l-43 -215q-98 -489 -528 -489l23 117q313 0 387 372l43 215h118zM498 -77l-37 -188h-117l37 188h117z" />
    <glyph glyph-name="UkaliqMultiplicationWithDot" unicode="&#xee9a;" 
d="M107 117h419l-24 -117h-418zM330 704l-82 -411h-117l82 411h117zM655 704l-82 -411h-118l82 411h118zM498 -77l-37 -188h-117l37 188h117z" />
    <glyph glyph-name="UkaliqLetterApfaWithDot" unicode="&#xee9b;" 
d="M330 704l-82 -411h-117l82 411h117zM655 704l-43 -215q-98 -489 -528 -489l23 117q313 0 387 372l43 215h118zM498 -77l-37 -188h-117l37 188h117z" />
    <glyph glyph-name="UkaliqLetterEtsreWithDot" unicode="&#xee9c;" 
d="M272 410q-59 -293 254 -293l-24 -117q-430 0 -348 410h118zM655 704l-82 -411h-118l82 411h118zM498 -77l-37 -188h-117l37 188h117z" />
    <glyph glyph-name="UkaliqLetterUkkhuWithDot" unicode="&#xee9d;" 
d="M655 704l-43 -215q-98 -489 -319 -489t-139 410h118q-59 -293 45 -293q103 0 177 372l43 215h118zM498 -77l-37 -188h-117l37 188h117z" />
    <glyph glyph-name="UkaliqLetterItsjiWithDot" unicode="&#xee9e;" 
d="M330 704l-43 -215q-74 -372 239 -372l-24 -117q-430 0 -332 489l43 215h117zM655 704l-82 -411h-118l82 411h118zM498 -77l-37 -188h-117l37 188h117z" />
    <glyph glyph-name="UkaliqLetterOtsoWithDot" unicode="&#xee9f;" 
d="M330 704l-43 -215q-74 -372 30 -372q103 0 177 372l43 215h118l-43 -215q-98 -489 -319 -489t-123 489l43 215h117zM498 -77l-37 -188h-117l37 188h117z" />
    <glyph glyph-name="UkaliqRangeWithDot" unicode="&#xeea0;" 
d="M498 -77l-37 -188h-117l37 188h117zM225 704h418l-24 -118h-418z" />
    <glyph glyph-name="UkaliqLetterEoWithDot" unicode="&#xeea1;" 
d="M596 410l-82 -410h-117l82 410h117zM498 -77l-37 -188h-117l37 188h117zM225 704h418l-24 -118h-418z" />
    <glyph glyph-name="UkaliqLetterUhWithDot" unicode="&#xeea2;" 
d="M619 586q-312 0 -371 -293h-117q82 411 512 411zM498 -77l-37 -188h-117l37 188h117z" />
    <glyph glyph-name="UkaliqLetterEuWithDot" unicode="&#xeea3;" 
d="M596 410l-82 -410h-117l82 410h117zM619 586q-312 0 -371 -293h-117q82 411 512 411zM498 -77l-37 -188h-117l37 188h117z" />
    <glyph glyph-name="UkaliqLetterOeWithDot" unicode="&#xeea4;" 
d="M272 410l-82 -410h-118l82 410h118zM498 -77l-37 -188h-117l37 188h117zM225 704h418l-24 -118h-418z" />
    <glyph glyph-name="UkaliqLetterOehWithDot" unicode="&#xeea5;" 
d="M596 410l-82 -410h-117l82 410h117zM272 410l-82 -410h-118l82 410h118zM498 -77l-37 -188h-117l37 188h117zM225 704h418l-24 -118h-418z" />
    <glyph glyph-name="UkaliqLetterUiWithDot" unicode="&#xeea6;" 
d="M619 586q-312 0 -386 -371l-43 -215h-118l43 215q98 489 528 489zM498 -77l-37 -188h-117l37 188h117z" />
    <glyph glyph-name="UkaliqLetterAhWithDot" unicode="&#xeea7;" 
d="M619 586q-312 0 -386 -371l-43 -215h-118l43 215q98 489 528 489zM596 410l-82 -410h-117l82 410h117zM498 -77l-37 -188h-117l37 188h117z" />
    <glyph glyph-name="UkaliqLetterAeWithDot" unicode="&#xeea8;" 
d="M225 704q430 0 348 -411h-118q59 293 -254 293zM498 -77l-37 -188h-117l37 188h117z" />
    <glyph glyph-name="UkaliqLetterOWithDot" unicode="&#xeea9;" 
d="M225 704q430 0 332 -489l-43 -215h-117l43 215q74 371 -239 371zM498 -77l-37 -188h-117l37 188h117z" />
    <glyph glyph-name="UkaliqLetterIhWithDot" unicode="&#xeeaa;" 
d="M131 293q82 411 303 411t139 -411h-118q59 293 -45 293q-103 0 -162 -293h-117zM498 -77l-37 -188h-117l37 188h117z" />
    <glyph glyph-name="UkaliqLetterUWithDot" unicode="&#xeeab;" 
d="M131 293q82 411 303 411t123 -489l-43 -215h-117l43 215q74 371 -30 371q-103 0 -162 -293h-117zM498 -77l-37 -188h-117l37 188h117z" />
    <glyph glyph-name="UkaliqLetterEWithDot" unicode="&#xeeac;" 
d="M225 704q430 0 348 -411h-118q59 293 -254 293zM272 410l-82 -410h-118l82 410h118zM498 -77l-37 -188h-117l37 188h117z" />
    <glyph glyph-name="UkaliqLetterEhWithDot" unicode="&#xeead;" 
d="M225 704q430 0 332 -489l-43 -215h-117l43 215q74 371 -239 371zM272 410l-82 -410h-118l82 410h118zM498 -77l-37 -188h-117l37 188h117z" />
    <glyph glyph-name="UkaliqLetterIWithDot" unicode="&#xeeae;" 
d="M455 293q59 293 -45 293q-103 0 -177 -371l-43 -215h-118l43 215q98 489 319 489t139 -411h-118zM498 -77l-37 -188h-117l37 188h117z" />
    <glyph glyph-name="UkaliqLetterOhWithDot" unicode="&#xeeaf;" 
d="M72 0l43 215q98 489 319 489t123 -489l-43 -215h-117l43 215q74 371 -30 371q-103 0 -177 -371l-43 -215h-118zM498 -77l-37 -188h-117l37 188h117z" />
    <glyph glyph-name="UkaliqPlusWithDot" unicode="&#xeeb0;" 
d="M107 117h419l-24 -117h-418zM498 -77l-37 -188h-117l37 188h117zM225 704h418l-24 -118h-418z" />
    <glyph glyph-name="UkaliqCurrencyWithDot" unicode="&#xeeb1;" 
d="M498 -77l-37 -188h-117l37 188h117zM596 410q-82 -410 -512 -410l23 117q313 0 372 293h117zM225 704h418l-24 -118h-418z" />
    <glyph glyph-name="UkaliqAtWithDot" unicode="&#xeeb2;" 
d="M107 117h419l-24 -117h-418zM619 586q-312 0 -371 -293h-117q82 411 512 411zM498 -77l-37 -188h-117l37 188h117z" />
    <glyph glyph-name="UkaliqLetterAlhaWithDot" unicode="&#xeeb3;" 
d="M619 586q-312 0 -371 -293h-117q82 411 512 411zM498 -77l-37 -188h-117l37 188h117zM596 410q-82 -410 -512 -410l23 117q313 0 372 293h117z" />
    <glyph glyph-name="UkaliqLetterElreWithDot" unicode="&#xeeb4;" 
d="M272 410q-59 -293 254 -293l-24 -117q-430 0 -348 410h118zM498 -77l-37 -188h-117l37 188h117zM225 704h418l-24 -118h-418z" />
    <glyph glyph-name="UkaliqLetterUlguWithDot" unicode="&#xeeb5;" 
d="M272 410q-59 -293 45 -293q103 0 162 293h117q-82 -410 -303 -410t-139 410h118zM498 -77l-37 -188h-117l37 188h117zM225 704h418l-24 -118h-418z" />
    <glyph glyph-name="UkaliqLetterIljiWithDot" unicode="&#xeeb6;" 
d="M619 586q-312 0 -359 -234q-47 -235 266 -235l-24 -117q-430 0 -359 352q70 352 500 352zM498 -77l-37 -188h-117l37 188h117z" />
    <glyph glyph-name="UkaliqLetterOloWithDot" unicode="&#xeeb7;" 
d="M619 586q-312 0 -359 -234q-47 -235 57 -235q103 0 162 293h117q-82 -410 -303 -410t-150 352q70 352 500 352zM498 -77l-37 -188h-117l37 188h117z" />
    <glyph glyph-name="UkaliqDegreeWithDot" unicode="&#xeeb8;" 
d="M107 117h419l-24 -117h-418zM225 704q430 0 348 -411h-118q59 293 -254 293zM498 -77l-37 -188h-117l37 188h117z" />
    <glyph glyph-name="UkaliqLetterHbatWithDot" unicode="&#xeeb9;" 
d="M225 704q430 0 359 -352q-70 -352 -500 -352l23 117q313 0 360 235q47 234 -266 234zM498 -77l-37 -188h-117l37 188h117z" />
    <glyph glyph-name="UkaliqLetterAnqaWithDot" unicode="&#xeeba;" 
d="M107 117h419l-24 -117h-418zM131 293q82 411 303 411t139 -411h-118q59 293 -45 293q-103 0 -162 -293h-117zM498 -77l-37 -188h-117l37 188h117z" />
    <glyph glyph-name="UkaliqLetterAmaWithDot" unicode="&#xeebb;" 
d="M131 293q82 411 303 411t150 -352q-70 -352 -500 -352l23 117q313 0 360 235q47 234 -57 234q-103 0 -162 -293h-117zM498 -77l-37 -188h-117l37 188h117z" />
    <glyph glyph-name="UkaliqLetterEnreWithDot" unicode="&#xeebc;" 
d="M225 704q430 0 348 -411h-118q59 293 -254 293zM272 410q-59 -293 254 -293l-24 -117q-430 0 -348 410h118zM498 -77l-37 -188h-117l37 188h117z" />
    <glyph glyph-name="UkaliqLetterUnguWithDot" unicode="&#xeebd;" 
d="M225 704q430 0 359 -352q-70 -352 -291 -352t-139 410h118q-59 -293 45 -293q103 0 150 235q47 234 -266 234zM498 -77l-37 -188h-117l37 188h117z" />
    <glyph glyph-name="UkaliqLetterInjiWithDot" unicode="&#xeebe;" 
d="M455 293q59 293 -45 293q-103 0 -150 -234q-47 -235 266 -235l-24 -117q-430 0 -359 352q70 352 291 352t139 -411h-118zM498 -77l-37 -188h-117l37 188h117z" />
    <glyph glyph-name="UkaliqLetterOnoWithDot" unicode="&#xeebf;" 
d="M498 -77l-37 -188h-117l37 188h117zM260 352q-47 -235 57 -235q103 0 150 235q47 234 -57 234q-103 0 -150 -234zM143 352q70 352 291 352t150 -352q-70 -352 -291 -352t-150 352z" />
    <glyph glyph-name="UkaliqDashWithDot" unicode="&#xeec0;" 
d="M166 410h418l-23 -117h-418zM498 -77l-37 -188h-117l37 188h117z" />
    <glyph glyph-name="UkaliqLetterAWithDot" unicode="&#xeec1;" 
d="M166 410q430 0 348 -410h-117q58 293 -254 293zM498 -77l-37 -188h-117l37 188h117z" />
    <glyph glyph-name="UkaliqMinusWithDot" unicode="&#xeec2;" 
d="M330 704q-58 -294 254 -294l-23 -117q-430 0 -348 411h117zM498 -77l-37 -188h-117l37 188h117z" />
    <glyph glyph-name="UkaliqLetterAwaWithDot" unicode="&#xeec3;" 
d="M498 -77l-37 -188h-117l37 188h117zM330 704q-58 -294 153 -294q113 0 87 -129l-56 -281h-117l56 281q2 12 7 12q-329 0 -247 411h117z" />
    <glyph glyph-name="UkaliqLetterErreWithDot" unicode="&#xeec4;" 
d="M561 293q-313 0 -371 -293h-118q82 410 512 410zM498 -77l-37 -188h-117l37 188h117z" />
    <glyph glyph-name="UkaliqAndWithDot" unicode="&#xeec5;" 
d="M72 0q82 410 303 410t139 -410h-117q58 293 -45 293q-104 0 -162 -293h-118zM498 -77l-37 -188h-117l37 188h117z" />
    <glyph glyph-name="UkaliqLetterIzjiWithDot" unicode="&#xeec6;" 
d="M498 -77l-37 -188h-117l37 188h117zM248 293l-58 -293h-118l71 352l70 352h117l-58 -294h312l-23 -117h-313z" />
    <glyph glyph-name="UkaliqLetterOroWithDot" unicode="&#xeec7;" 
d="M498 -77l-37 -188h-117l37 188h117zM247 289l-57 -289h-118l71 352l70 352h117l-59 -297q318 -30 243 -407h-117q51 259 -150 289z" />
    <glyph glyph-name="UkaliqNotWithDot" unicode="&#xeec8;" 
d="M655 704q-82 -411 -512 -411l23 117q313 0 371 294h118zM498 -77l-37 -188h-117l37 188h117z" />
    <glyph glyph-name="UkaliqDivisionWithDot" unicode="&#xeec9;" 
d="M655 704l-71 -352l-70 -352h-117l58 293h-312l23 117h313l58 294h118zM498 -77l-37 -188h-117l37 188h117z" />
    <glyph glyph-name="UkaliqXorWithDot" unicode="&#xeeca;" 
d="M330 704q-58 -294 45 -294q104 0 162 294h118q-82 -411 -303 -411t-139 411h117zM498 -77l-37 -188h-117l37 188h117z" />
    <glyph glyph-name="uniEECB" unicode="&#xeecb;" 
d="M498 -77l-37 -188h-117l37 188h117zM330 704q-51 -260 149 -290l58 290h118l-71 -352l-70 -352h-117l59 296q-318 30 -243 408h117z" />
    <glyph glyph-name="UkaliqLetterIjiWithDot" unicode="&#xeecc;" 
d="M655 704q-82 -411 -411 -411q4 0 2 -12l-56 -281h-118l57 281q25 129 138 129q212 0 270 294h118zM498 -77l-37 -188h-117l37 188h117z" />
    <glyph glyph-name="UkaliqLetterTkotWithDot" unicode="&#xeecd;" 
d="M655 704l-71 -352l-70 -352h-117l57 289q-213 -30 -264 -289h-118q75 377 406 407l59 297h118zM498 -77l-37 -188h-117l37 188h117z" />
    <glyph glyph-name="UkaliqLetterIsjiWithDot" unicode="&#xeece;" 
d="M498 -77l-37 -188h-117l37 188h117zM249 296l-59 -296h-118l71 352l70 352h117l-58 -290q213 30 265 290h118q-75 -378 -406 -408z" />
    <glyph glyph-name="UkaliqLetterOrroWithDot" unicode="&#xeecf;" 
d="M498 -77l-37 -188h-117l37 188h117zM655 704l-71 -352l-70 -352h-117l58 293h-207l-58 -293h-118l71 352l70 352h117l-58 -294h207l58 294h118z" />
    <glyph glyph-name="UkaliqBaseSixteen" unicode="&#xeed0;" 
d="M107 117h419l-24 -117h-418zM166 410h418l-23 -117h-418zM498 -77l-37 -188h-117l37 188h117z" />
    <glyph glyph-name="UkaliqBaseNegativeTwo" unicode="&#xeed1;" 
d="M166 410q430 0 389 -205t-471 -205l23 117q313 0 331 88q17 88 -295 88zM498 -77l-37 -188h-117l37 188h117z" />
    <glyph glyph-name="UkaliqBaseTwo" unicode="&#xeed2;" 
d="M330 704q-58 -294 254 -294l-23 -117q-430 0 -348 411h117zM107 117h419l-24 -117h-418zM498 -77l-37 -188h-117l37 188h117z" />
    <glyph glyph-name="UkaliqBaseThree" unicode="&#xeed3;" 
d="M498 -77l-37 -188h-117l37 188h117zM330 704q-58 -294 153 -294q113 0 92 -107q-61 -303 -491 -303l23 117q304 0 348 176q-323 3 -242 411h117z" />
    <glyph glyph-name="UkaliqBaseFour" unicode="&#xeed4;" 
d="M561 293q-313 0 -330 -88q-18 -88 295 -88l-24 -117q-430 0 -389 205t471 205zM498 -77l-37 -188h-117l37 188h117z" />
    <glyph glyph-name="UkaliqBaseFive" unicode="&#xeed5;" 
d="M498 -77l-37 -188h-117l37 188h117zM231 205q-18 -88 86 -88q103 0 121 88q17 88 -86 88q-104 0 -121 -88zM113 205q41 205 262 205t180 -205t-262 -205t-180 205z" />
    <glyph glyph-name="UkaliqBaseSix" unicode="&#xeed6;" 
d="M498 -77l-37 -188h-117l37 188h117zM254 293q1 -176 272 -176l-24 -117q-430 0 -359 352l70 352h117l-58 -294h312l-23 -117h-307z" />
    <glyph glyph-name="UkaliqBaseNegativeEight" unicode="&#xeed7;" 
d="M498 -77l-37 -188h-117l37 188h117zM250 292q-23 -175 67 -175q103 0 121 88q15 78 -188 87zM271 409q321 -15 284 -204q-41 -205 -262 -205t-150 352l70 352h117z" />
    <glyph glyph-name="UkaliqBaseEight" unicode="&#xeed8;" 
d="M107 117h419l-24 -117h-418zM655 704q-82 -411 -512 -411l23 117q313 0 371 294h118zM498 -77l-37 -188h-117l37 188h117z" />
    <glyph glyph-name="UkaliqBaseNegativeTen" unicode="&#xeed9;" 
d="M655 704l-71 -352q-70 -352 -500 -352l23 117q271 0 343 176h-307l23 117h313l58 294h118zM498 -77l-37 -188h-117l37 188h117z" />
    <glyph glyph-name="UkaliqBaseTen" unicode="&#xeeda;" 
d="M330 704q-58 -294 45 -294q104 0 162 294h118q-82 -411 -303 -411t-139 411h117zM107 117h419l-24 -117h-418zM498 -77l-37 -188h-117l37 188h117z" />
    <glyph glyph-name="UkaliqBaseNegativeThree" unicode="&#xeedb;" 
d="M498 -77l-37 -188h-117l37 188h117zM330 704q-51 -260 149 -290l58 290h118l-71 -352q-70 -352 -500 -352l23 117q273 0 344 179q-313 33 -238 408h117z" />
    <glyph glyph-name="UkaliqBaseNegativeFour" unicode="&#xeedc;" 
d="M498 -77l-37 -188h-117l37 188h117zM248 293q-27 -176 278 -176l-24 -117q-430 0 -369 303q21 107 134 107q212 0 270 294h118q-82 -408 -407 -411z" />
    <glyph glyph-name="UkaliqBaseNegativeFive" unicode="&#xeedd;" 
d="M655 704l-71 -352q-70 -352 -291 -352t-180 205q38 189 365 204l59 295h118zM498 -77l-37 -188h-117l37 188h117zM453 292q-207 -9 -222 -87q-18 -88 86 -88q89 0 136 175z" />
    <glyph glyph-name="UkaliqBaseNegativeSix" unicode="&#xeede;" 
d="M498 -77l-37 -188h-117l37 188h117zM254 296q-1 -179 272 -179l-24 -117q-430 0 -359 352l70 352h117l-58 -290q213 30 265 290h118q-75 -376 -401 -408z" />
    <glyph glyph-name="UkaliqBaseNegativeSixteen" unicode="&#xeedf;" 
d="M498 -77l-37 -188h-117l37 188h117zM479 410l58 294h118l-71 -352q-70 -352 -291 -352t-150 352l70 352h117l-58 -294h207zM453 293h-203q-23 -176 67 -176q89 0 136 176z" />
    <glyph glyph-name="UkaliqLetterSchwaWithDot" unicode="&#xeee0;" 
d="M166 410h418l-23 -117h-418zM498 -77l-37 -188h-117l37 188h117zM225 704h418l-24 -118h-418z" />
    <glyph glyph-name="UkaliqLetterOhgoWithDot" unicode="&#xeee1;" 
d="M166 410q430 0 348 -410h-117q58 293 -254 293zM498 -77l-37 -188h-117l37 188h117zM225 704h418l-24 -118h-418z" />
    <glyph glyph-name="UkaliqLetterArhaWithDot" unicode="&#xeee2;" 
d="M619 586q-312 0 -330 -88q-17 -88 295 -88l-23 -117q-430 0 -389 205q41 206 471 206zM498 -77l-37 -188h-117l37 188h117z" />
    <glyph glyph-name="UkaliqLetterAvaWithDot" unicode="&#xeee3;" 
d="M498 -77l-37 -188h-117l37 188h117zM619 586q-312 0 -330 -88q-17 -88 194 -88q113 0 87 -129l-56 -281h-117l56 281q2 12 7 12q-329 0 -288 205q41 206 471 206z" />
    <glyph glyph-name="UkaliqLetterEzreWithDot" unicode="&#xeee4;" 
d="M561 293q-313 0 -371 -293h-118q82 410 512 410zM498 -77l-37 -188h-117l37 188h117zM225 704h418l-24 -118h-418z" />
    <glyph glyph-name="UkaliqLetterUghuWithDot" unicode="&#xeee5;" 
d="M72 0q82 410 303 410t139 -410h-117q58 293 -45 293q-104 0 -162 -293h-118zM498 -77l-37 -188h-117l37 188h117zM225 704h418l-24 -118h-418z" />
    <glyph glyph-name="UkaliqLetterIjjiWithDot" unicode="&#xeee6;" 
d="M498 -77l-37 -188h-117l37 188h117zM248 293l-58 -293h-118l71 352q70 352 500 352l-24 -118q-271 0 -342 -176h307l-23 -117h-313z" />
    <glyph glyph-name="UkaliqLetterOdhoWithDot" unicode="&#xeee7;" 
d="M498 -77l-37 -188h-117l37 188h117zM247 289l-57 -289h-118l71 352q70 352 500 352l-24 -118q-273 0 -343 -179q313 -32 238 -407h-117q51 259 -150 289z" />
    <glyph glyph-name="UkaliqLetterOhhoWithDot" unicode="&#xeee8;" 
d="M225 704q430 0 389 -206q-41 -205 -471 -205l23 117q313 0 330 88q18 88 -295 88zM498 -77l-37 -188h-117l37 188h117z" />
    <glyph glyph-name="UkaliqLetterAhaWithDot" unicode="&#xeee9;" 
d="M225 704q430 0 359 -352l-70 -352h-117l58 293h-312l23 117h307q-1 176 -272 176zM498 -77l-37 -188h-117l37 188h117z" />
    <glyph glyph-name="UkaliqLetterAqhaWithDot" unicode="&#xeeea;" 
d="M498 -77l-37 -188h-117l37 188h117zM289 498q-17 -88 86 -88q104 0 121 88q18 88 -86 88q-103 0 -121 -88zM172 498q41 206 262 206t180 -206q-41 -205 -262 -205t-180 205z" />
    <glyph glyph-name="UkaliqLetterAfaWithDot" unicode="&#xeeeb;" 
d="M498 -77l-37 -188h-117l37 188h117zM477 411q23 175 -67 175q-103 0 -121 -88q-15 -78 188 -87zM456 294q-321 15 -284 204q41 206 262 206t150 -352l-70 -352h-117z" />
    <glyph glyph-name="UkaliqLetterEsreWithDot" unicode="&#xeeec;" 
d="M225 704q430 0 389 -206q-41 -205 -370 -205q4 0 2 -12l-56 -281h-118l57 281q25 129 138 129q212 0 229 88q18 88 -295 88zM498 -77l-37 -188h-117l37 188h117z" />
    <glyph glyph-name="UkaliqLetterUkhuWithDot" unicode="&#xeeed;" 
d="M225 704q430 0 359 -352l-70 -352h-117l57 289q-213 -30 -264 -289h-118q75 375 401 407q2 179 -272 179zM498 -77l-37 -188h-117l37 188h117z" />
    <glyph glyph-name="UkaliqLetterIcjiWithDot" unicode="&#xeeee;" 
d="M498 -77l-37 -188h-117l37 188h117zM249 294l-59 -294h-118l71 352q70 352 291 352t180 -206q-37 -189 -365 -204zM274 411q207 9 222 87q18 88 -86 88q-89 0 -136 -175z" />
    <glyph glyph-name="UkaliqLetterOthoWithDot" unicode="&#xeeef;" 
d="M498 -77l-37 -188h-117l37 188h117zM72 0l71 352q70 352 291 352t150 -352l-70 -352h-117l58 293h-207l-58 -293h-118zM273 410h204q23 176 -67 176t-137 -176z" />
    <glyph glyph-name="UkaliqIterationMarkWithDot" unicode="&#xeef0;" 
d="M107 117h419l-24 -117h-418zM166 410h418l-23 -117h-418zM498 -77l-37 -188h-117l37 188h117zM225 704h418l-24 -118h-418z" />
    <glyph glyph-name="UkaliqPercentWithDot" unicode="&#xeef1;" 
d="M166 410q430 0 389 -205t-471 -205l23 117q313 0 331 88q17 88 -295 88zM498 -77l-37 -188h-117l37 188h117zM225 704h418l-24 -118h-418z" />
    <glyph glyph-name="UkaliqLetterAgqaWithDot" unicode="&#xeef2;" 
d="M619 586q-312 0 -330 -88q-17 -88 295 -88l-23 -117q-430 0 -389 205q41 206 471 206zM107 117h419l-24 -117h-418zM498 -77l-37 -188h-117l37 188h117z" />
    <glyph glyph-name="UkaliqLetterAbaWithDot" unicode="&#xeef3;" 
d="M498 -77l-37 -188h-117l37 188h117zM619 586q-312 0 -330 -88q-17 -88 194 -88q113 0 92 -107q-61 -303 -491 -303l23 117q304 0 348 176q-323 2 -283 205q41 206 471 206z" />
    <glyph glyph-name="UkaliqLetterEdreWithDot" unicode="&#xeef4;" 
d="M561 293q-313 0 -330 -88q-18 -88 295 -88l-24 -117q-430 0 -389 205t471 205zM498 -77l-37 -188h-117l37 188h117zM225 704h418l-24 -118h-418z" />
    <glyph glyph-name="UkaliqLetterUguWithDot" unicode="&#xeef5;" 
d="M498 -77l-37 -188h-117l37 188h117zM225 704h418l-24 -118h-418zM231 205q-18 -88 86 -88q103 0 121 88q17 88 -86 88q-104 0 -121 -88zM113 205q41 205 262 205t180 -205t-262 -205t-180 205z" />
    <glyph glyph-name="UkaliqLetterIgjiWithDot" unicode="&#xeef6;" 
d="M498 -77l-37 -188h-117l37 188h117zM254 293q1 -176 272 -176l-24 -117q-430 0 -359 352q70 352 500 352l-24 -118q-271 0 -342 -176h307l-23 -117h-307z" />
    </font>
</defs>
</svg>
