<?xml version="1.0" standalone="no"?>
<!DOCTYPE svg PUBLIC "-//W3C//DTD SVG 1.1//EN" "http://www.w3.org/Graphics/SVG/1.1/DTD/svg11.dtd" >
<svg xmlns="http://www.w3.org/2000/svg" xmlns:xlink="http://www.w3.org/1999/xlink" version="1.1">
<metadata>
Created by FontForge 20170812 at Mon Jan 23 00:30:09 2023
 By ht,,,
Copyright (C) 2022-2023 Henrik Theiling, License CC-BY-NC4.0
</metadata>
<defs>
<font id="UkaliqPenBlackOblique" horiz-adv-x="578" >
  <font-face 
    font-family="Ukaliq Pen"
    font-weight="850"
    font-style="oblique"
    font-stretch="normal"
    units-per-em="1024"
    panose-1="2 0 10 3 0 0 0 0 0 0"
    ascent="727"
    descent="-297"
    bbox="0 -296 672 946"
    underline-thickness="78"
    underline-position="-171"
    unicode-range="U+000D-F1DFF"
  />
<missing-glyph 
d="M115 166h433l-34 -166h-432zM515 -77l-37 -188h-166l37 188h166z" />
    <glyph glyph-name="UkaliqSpace_UkaliqModifierDot" unicode="&#xee00;&#x331;" 
d="M515 -77l-37 -188h-166l37 188h166z" />
    <glyph glyph-name="UkaliqNumber_UkaliqModifierDot" unicode="&#xee01;&#x331;" 
d="M618 435l-87 -435h-166l87 435h166zM515 -77l-37 -188h-166l37 188h166z" />
    <glyph glyph-name="UkaliqRightSingleQuotationMark_UkaliqModifierDot" unicode="&#xee02;&#x331;" 
d="M372 704l-87 -435h-166l87 435h166zM515 -77l-37 -188h-166l37 188h166z" />
    <glyph glyph-name="UkaliqColon_UkaliqModifierDot" unicode="&#xee03;&#x331;" 
d="M618 435l-87 -435h-166l87 435h166zM372 704l-87 -435h-166l87 435h166zM515 -77l-37 -188h-166l37 188h166z" />
    <glyph glyph-name="UkaliqFullStop_UkaliqModifierDot" unicode="&#xee04;&#x331;" 
d="M318 435l-87 -435h-166l87 435h166zM515 -77l-37 -188h-166l37 188h166z" />
    <glyph glyph-name="UkaliqComma_UkaliqModifierDot" unicode="&#xee05;&#x331;" 
d="M618 435l-87 -435h-166l87 435h166zM318 435l-87 -435h-166l87 435h166zM515 -77l-37 -188h-166l37 188h166z" />
    <glyph glyph-name="UkaliqRightParenthesis_UkaliqModifierDot" unicode="&#xee06;&#x331;" 
d="M372 704l-141 -704h-166l141 704h166zM515 -77l-37 -188h-166l37 188h166z" />
    <glyph glyph-name="UkaliqExclamationMark_UkaliqModifierDot" unicode="&#xee07;&#x331;" 
d="M372 704l-141 -704h-166l141 704h166zM618 435l-87 -435h-166l87 435h166zM515 -77l-37 -188h-166l37 188h166z" />
    <glyph glyph-name="UkaliqLeftSingleQuotationMark_UkaliqModifierDot" unicode="&#xee08;&#x331;" 
d="M672 704l-87 -435h-166l87 435h166zM515 -77l-37 -188h-166l37 188h166z" />
    <glyph glyph-name="UkaliqLeftParenthesis_UkaliqModifierDot" unicode="&#xee09;&#x331;" 
d="M672 704l-141 -704h-166l141 704h166zM515 -77l-37 -188h-166l37 188h166z" />
    <glyph glyph-name="UkaliqDoubleQuotationMark_UkaliqModifierDot" unicode="&#xee0a;&#x331;" 
d="M372 704l-87 -435h-166l87 435h166zM672 704l-87 -435h-166l87 435h166zM515 -77l-37 -188h-166l37 188h166z" />
    <glyph glyph-name="UkaliqReversedQuestionMark_UkaliqModifierDot" unicode="&#xee0b;&#x331;" 
d="M672 704l-141 -704h-166l141 704h166zM372 704l-87 -435h-166l87 435h166zM515 -77l-37 -188h-166l37 188h166z" />
    <glyph glyph-name="UkaliqSemicolon_UkaliqModifierDot" unicode="&#xee0c;&#x331;" 
d="M672 704l-87 -435h-166l87 435h166zM318 435l-87 -435h-166l87 435h166zM515 -77l-37 -188h-166l37 188h166z" />
    <glyph glyph-name="UkaliqReversedExclamationMark_UkaliqModifierDot" unicode="&#xee0d;&#x331;" 
d="M672 704l-141 -704h-166l141 704h166zM318 435l-87 -435h-166l87 435h166zM515 -77l-37 -188h-166l37 188h166z" />
    <glyph glyph-name="UkaliqQuestionMark_UkaliqModifierDot" unicode="&#xee0e;&#x331;" 
d="M372 704l-141 -704h-166l141 704h166zM672 704l-87 -435h-166l87 435h166zM515 -77l-37 -188h-166l37 188h166z" />
    <glyph glyph-name="UkaliqEquals_UkaliqModifierDot" unicode="&#xee0f;&#x331;" 
d="M672 704l-141 -704h-166l141 704h166zM372 704l-141 -704h-166l141 704h166zM515 -77l-37 -188h-166l37 188h166z" />
    <glyph glyph-name="UkaliqHyphen_UkaliqModifierDot" unicode="&#xee10;&#x331;" 
d="M115 166h433l-34 -166h-432zM515 -77l-37 -188h-166l37 188h166z" />
    <glyph glyph-name="UkaliqLetterOzo_UkaliqModifierDot" unicode="&#xee11;&#x331;" 
d="M515 -77l-37 -188h-166l37 188h166zM618 435q-87 -435 -536 -435l33 166q283 0 337 269h166z" />
    <glyph glyph-name="UkaliqGreaterThan_UkaliqModifierDot" unicode="&#xee12;&#x331;" 
d="M115 166h433l-34 -166h-432zM372 704l-87 -435h-166l87 435h166zM515 -77l-37 -188h-166l37 188h166z" />
    <glyph glyph-name="UkaliqLetterAtlha_UkaliqModifierDot" unicode="&#xee13;&#x331;" 
d="M372 704l-87 -435h-166l87 435h166zM515 -77l-37 -188h-166l37 188h166zM618 435q-87 -435 -536 -435l33 166q283 0 337 269h166z" />
    <glyph glyph-name="UkaliqLetterEdzre_UkaliqModifierDot" unicode="&#xee14;&#x331;" 
d="M318 435q-54 -269 230 -269l-34 -166q-449 0 -362 435h166zM515 -77l-37 -188h-166l37 188h166z" />
    <glyph glyph-name="UkaliqOr_UkaliqModifierDot" unicode="&#xee15;&#x331;" 
d="M318 435q-54 -269 13 -269t121 269h166q-87 -435 -320 -435t-146 435h166zM515 -77l-37 -188h-166l37 188h166z" />
    <glyph glyph-name="UkaliqLetterIdzji_UkaliqModifierDot" unicode="&#xee16;&#x331;" 
d="M372 704l-42 -207q-66 -331 218 -331l-34 -166q-449 0 -350 497l42 207h166zM515 -77l-37 -188h-166l37 188h166z" />
    <glyph glyph-name="UkaliqLetterOdzo_UkaliqModifierDot" unicode="&#xee17;&#x331;" 
d="M372 704l-42 -207q-66 -331 1 -331t121 269h166q-87 -435 -320 -435t-134 497l42 207h166zM515 -77l-37 -188h-166l37 188h166z" />
    <glyph glyph-name="UkaliqLessThan_UkaliqModifierDot" unicode="&#xee18;&#x331;" 
d="M115 166h433l-34 -166h-432zM672 704l-87 -435h-166l87 435h166zM515 -77l-37 -188h-166l37 188h166z" />
    <glyph glyph-name="UkaliqLetterOso_UkaliqModifierDot" unicode="&#xee19;&#x331;" 
d="M672 704l-42 -207q-99 -497 -548 -497l33 166q283 0 349 331l42 207h166zM515 -77l-37 -188h-166l37 188h166z" />
    <glyph glyph-name="UkaliqMultiplication_UkaliqModifierDot" unicode="&#xee1a;&#x331;" 
d="M115 166h433l-34 -166h-432zM372 704l-87 -435h-166l87 435h166zM672 704l-87 -435h-166l87 435h166zM515 -77l-37 -188h-166l37 188h166z" />
    <glyph glyph-name="UkaliqLetterApfa_UkaliqModifierDot" unicode="&#xee1b;&#x331;" 
d="M372 704l-87 -435h-166l87 435h166zM672 704l-42 -207q-99 -497 -548 -497l33 166q283 0 349 331l42 207h166zM515 -77l-37 -188h-166l37 188h166z" />
    <glyph glyph-name="UkaliqLetterEtsre_UkaliqModifierDot" unicode="&#xee1c;&#x331;" 
d="M318 435q-54 -269 230 -269l-34 -166q-449 0 -362 435h166zM672 704l-87 -435h-166l87 435h166zM515 -77l-37 -188h-166l37 188h166z" />
    <glyph glyph-name="UkaliqLetterUkkhu_UkaliqModifierDot" unicode="&#xee1d;&#x331;" 
d="M672 704l-42 -207q-99 -497 -332 -497t-146 435h166q-54 -269 13 -269t133 331l42 207h166zM515 -77l-37 -188h-166l37 188h166z" />
    <glyph glyph-name="UkaliqLetterItsji_UkaliqModifierDot" unicode="&#xee1e;&#x331;" 
d="M372 704l-42 -207q-66 -331 218 -331l-34 -166q-449 0 -350 497l42 207h166zM672 704l-87 -435h-166l87 435h166zM515 -77l-37 -188h-166l37 188h166z" />
    <glyph glyph-name="UkaliqLetterOtso_UkaliqModifierDot" unicode="&#xee1f;&#x331;" 
d="M372 704l-42 -207q-66 -331 1 -331t133 331l42 207h166l-42 -207q-99 -497 -332 -497t-134 497l42 207h166zM515 -77l-37 -188h-166l37 188h166z" />
    <glyph glyph-name="UkaliqRange_UkaliqModifierDot" unicode="&#xee20;&#x331;" 
d="M515 -77l-37 -188h-166l37 188h166zM222 704h433l-33 -167h-433z" />
    <glyph glyph-name="UkaliqLetterEo_UkaliqModifierDot" unicode="&#xee21;&#x331;" 
d="M618 435l-87 -435h-166l87 435h166zM515 -77l-37 -188h-166l37 188h166zM222 704h433l-33 -167h-433z" />
    <glyph glyph-name="UkaliqLetterUh_UkaliqModifierDot" unicode="&#xee22;&#x331;" 
d="M622 537q-283 0 -337 -268h-166q87 435 536 435zM515 -77l-37 -188h-166l37 188h166z" />
    <glyph glyph-name="UkaliqLetterEu_UkaliqModifierDot" unicode="&#xee23;&#x331;" 
d="M618 435l-87 -435h-166l87 435h166zM622 537q-283 0 -337 -268h-166q87 435 536 435zM515 -77l-37 -188h-166l37 188h166z" />
    <glyph glyph-name="UkaliqLetterOe_UkaliqModifierDot" unicode="&#xee24;&#x331;" 
d="M318 435l-87 -435h-166l87 435h166zM515 -77l-37 -188h-166l37 188h166zM222 704h433l-33 -167h-433z" />
    <glyph glyph-name="UkaliqLetterOeh_UkaliqModifierDot" unicode="&#xee25;&#x331;" 
d="M618 435l-87 -435h-166l87 435h166zM318 435l-87 -435h-166l87 435h166zM515 -77l-37 -188h-166l37 188h166zM222 704h433l-33 -167h-433z" />
    <glyph glyph-name="UkaliqLetterUi_UkaliqModifierDot" unicode="&#xee26;&#x331;" 
d="M622 537q-283 0 -350 -330l-41 -207h-166l41 207q100 497 549 497zM515 -77l-37 -188h-166l37 188h166z" />
    <glyph glyph-name="UkaliqLetterAh_UkaliqModifierDot" unicode="&#xee27;&#x331;" 
d="M622 537q-283 0 -350 -330l-41 -207h-166l41 207q100 497 549 497zM618 435l-87 -435h-166l87 435h166zM515 -77l-37 -188h-166l37 188h166z" />
    <glyph glyph-name="UkaliqLetterAe_UkaliqModifierDot" unicode="&#xee28;&#x331;" 
d="M222 704q450 0 363 -435h-166q53 268 -230 268zM515 -77l-37 -188h-166l37 188h166z" />
    <glyph glyph-name="UkaliqLetterO_UkaliqModifierDot" unicode="&#xee29;&#x331;" 
d="M222 704q450 0 350 -497l-41 -207h-166l41 207q66 330 -217 330zM515 -77l-37 -188h-166l37 188h166z" />
    <glyph glyph-name="UkaliqLetterIh_UkaliqModifierDot" unicode="&#xee2a;&#x331;" 
d="M119 269q87 435 320 435t146 -435h-166q53 268 -14 268q-66 0 -120 -268h-166zM515 -77l-37 -188h-166l37 188h166z" />
    <glyph glyph-name="UkaliqLetterU_UkaliqModifierDot" unicode="&#xee2b;&#x331;" 
d="M119 269q87 435 320 435t133 -497l-41 -207h-166l41 207q66 330 -1 330q-66 0 -120 -268h-166zM515 -77l-37 -188h-166l37 188h166z" />
    <glyph glyph-name="UkaliqLetterE_UkaliqModifierDot" unicode="&#xee2c;&#x331;" 
d="M222 704q450 0 363 -435h-166q53 268 -230 268zM318 435l-87 -435h-166l87 435h166zM515 -77l-37 -188h-166l37 188h166z" />
    <glyph glyph-name="UkaliqLetterEh_UkaliqModifierDot" unicode="&#xee2d;&#x331;" 
d="M222 704q450 0 350 -497l-41 -207h-166l41 207q66 330 -217 330zM318 435l-87 -435h-166l87 435h166zM515 -77l-37 -188h-166l37 188h166z" />
    <glyph glyph-name="UkaliqLetterI_UkaliqModifierDot" unicode="&#xee2e;&#x331;" 
d="M419 269q53 268 -14 268q-66 0 -133 -330l-41 -207h-166l41 207q100 497 333 497t146 -435h-166zM515 -77l-37 -188h-166l37 188h166z" />
    <glyph glyph-name="UkaliqLetterOh_UkaliqModifierDot" unicode="&#xee2f;&#x331;" 
d="M65 0l41 207q100 497 333 497t133 -497l-41 -207h-166l41 207q66 330 -1 330q-66 0 -133 -330l-41 -207h-166zM515 -77l-37 -188h-166l37 188h166z" />
    <glyph glyph-name="UkaliqPlus_UkaliqModifierDot" unicode="&#xee30;&#x331;" 
d="M115 166h433l-34 -166h-432zM515 -77l-37 -188h-166l37 188h166zM222 704h433l-33 -167h-433z" />
    <glyph glyph-name="UkaliqCurrency_UkaliqModifierDot" unicode="&#xee31;&#x331;" 
d="M515 -77l-37 -188h-166l37 188h166zM618 435q-87 -435 -536 -435l33 166q283 0 337 269h166zM222 704h433l-33 -167h-433z" />
    <glyph glyph-name="UkaliqAt_UkaliqModifierDot" unicode="&#xee32;&#x331;" 
d="M115 166h433l-34 -166h-432zM622 537q-283 0 -337 -268h-166q87 435 536 435zM515 -77l-37 -188h-166l37 188h166z" />
    <glyph glyph-name="UkaliqLetterAlha_UkaliqModifierDot" unicode="&#xee33;&#x331;" 
d="M622 537q-283 0 -337 -268h-166q87 435 536 435zM515 -77l-37 -188h-166l37 188h166zM618 435q-87 -435 -536 -435l33 166q283 0 337 269h166z" />
    <glyph glyph-name="UkaliqLetterElre_UkaliqModifierDot" unicode="&#xee34;&#x331;" 
d="M318 435q-54 -269 230 -269l-34 -166q-449 0 -362 435h166zM515 -77l-37 -188h-166l37 188h166zM222 704h433l-33 -167h-433z" />
    <glyph glyph-name="UkaliqLetterUlgu_UkaliqModifierDot" unicode="&#xee35;&#x331;" 
d="M318 435q-54 -269 13 -269t121 269h166q-87 -435 -320 -435t-146 435h166zM515 -77l-37 -188h-166l37 188h166zM222 704h433l-33 -167h-433z" />
    <glyph glyph-name="UkaliqLetterIlji_UkaliqModifierDot" unicode="&#xee36;&#x331;" 
d="M622 537q-283 0 -321 -185q-37 -186 247 -186l-34 -166q-449 0 -379 352q71 352 520 352zM515 -77l-37 -188h-166l37 188h166z" />
    <glyph glyph-name="UkaliqLetterOlo_UkaliqModifierDot" unicode="&#xee37;&#x331;" 
d="M622 537q-283 0 -321 -185q-37 -186 30 -186t121 269h166q-87 -435 -320 -435t-163 352q71 352 520 352zM515 -77l-37 -188h-166l37 188h166z" />
    <glyph glyph-name="UkaliqDegree_UkaliqModifierDot" unicode="&#xee38;&#x331;" 
d="M115 166h433l-34 -166h-432zM222 704q450 0 363 -435h-166q53 268 -230 268zM515 -77l-37 -188h-166l37 188h166z" />
    <glyph glyph-name="UkaliqLetterHbat_UkaliqModifierDot" unicode="&#xee39;&#x331;" 
d="M222 704q450 0 379 -352q-70 -352 -519 -352l33 166q283 0 320 186q37 185 -246 185zM515 -77l-37 -188h-166l37 188h166z" />
    <glyph glyph-name="UkaliqLetterAnqa_UkaliqModifierDot" unicode="&#xee3a;&#x331;" 
d="M115 166h433l-34 -166h-432zM119 269q87 435 320 435t146 -435h-166q53 268 -14 268q-66 0 -120 -268h-166zM515 -77l-37 -188h-166l37 188h166z" />
    <glyph glyph-name="UkaliqLetterAma_UkaliqModifierDot" unicode="&#xee3b;&#x331;" 
d="M119 269q87 435 320 435t162 -352q-70 -352 -519 -352l33 166q283 0 320 186q37 185 -30 185q-66 0 -120 -268h-166zM515 -77l-37 -188h-166l37 188h166z" />
    <glyph glyph-name="UkaliqLetterEnre_UkaliqModifierDot" unicode="&#xee3c;&#x331;" 
d="M222 704q450 0 363 -435h-166q53 268 -230 268zM318 435q-54 -269 230 -269l-34 -166q-449 0 -362 435h166zM515 -77l-37 -188h-166l37 188h166z" />
    <glyph glyph-name="UkaliqLetterUngu_UkaliqModifierDot" unicode="&#xee3d;&#x331;" 
d="M222 704q450 0 379 -352q-70 -352 -303 -352t-146 435h166q-54 -269 13 -269t104 186q37 185 -246 185zM515 -77l-37 -188h-166l37 188h166z" />
    <glyph glyph-name="UkaliqLetterInji_UkaliqModifierDot" unicode="&#xee3e;&#x331;" 
d="M419 269q53 268 -14 268q-66 0 -104 -185q-37 -186 247 -186l-34 -166q-449 0 -379 352q71 352 304 352t146 -435h-166zM515 -77l-37 -188h-166l37 188h166z" />
    <glyph glyph-name="UkaliqLetterOno_UkaliqModifierDot" unicode="&#xee3f;&#x331;" 
d="M515 -77l-37 -188h-166l37 188h166zM301 352q-37 -186 30 -186t104 186q37 185 -30 185q-66 0 -104 -185zM135 352q71 352 304 352t162 -352q-70 -352 -303 -352t-163 352z" />
    <glyph glyph-name="UkaliqDash_UkaliqModifierDot" unicode="&#xee40;&#x331;" 
d="M169 435h432l-33 -166h-433zM515 -77l-37 -188h-166l37 188h166z" />
    <glyph glyph-name="UkaliqLetterA_UkaliqModifierDot" unicode="&#xee41;&#x331;" 
d="M169 435q449 0 362 -435h-166q54 269 -230 269zM515 -77l-37 -188h-166l37 188h166z" />
    <glyph glyph-name="UkaliqMinus_UkaliqModifierDot" unicode="&#xee42;&#x331;" 
d="M372 704q-54 -269 229 -269l-33 -166q-449 0 -362 435h166zM515 -77l-37 -188h-166l37 188h166z" />
    <glyph glyph-name="UkaliqLetterAwa_UkaliqModifierDot" unicode="&#xee43;&#x331;" 
d="M515 -77l-37 -188h-166l37 188h166zM372 704q-54 -269 113 -269q133 0 102 -154l-56 -281h-166l54 270q-295 21 -213 434h166z" />
    <glyph glyph-name="UkaliqLetterErre_UkaliqModifierDot" unicode="&#xee44;&#x331;" 
d="M568 269q-283 0 -337 -269h-166q87 435 536 435zM515 -77l-37 -188h-166l37 188h166z" />
    <glyph glyph-name="UkaliqAnd_UkaliqModifierDot" unicode="&#xee45;&#x331;" 
d="M65 0q87 435 320 435t146 -435h-166q54 269 -13 269t-121 -269h-166zM515 -77l-37 -188h-166l37 188h166z" />
    <glyph glyph-name="UkaliqLetterIzji_UkaliqModifierDot" unicode="&#xee46;&#x331;" 
d="M515 -77l-37 -188h-166l37 188h166zM284 269l-53 -269h-166l70 352l71 352h166l-54 -269h283l-33 -166h-284z" />
    <glyph glyph-name="UkaliqLetterOro_UkaliqModifierDot" unicode="&#xee47;&#x331;" 
d="M515 -77l-37 -188h-166l37 188h166zM282 257l-51 -257h-166l70 352l71 352h166l-55 -275q291 -44 214 -429h-166q42 212 -83 257z" />
    <glyph glyph-name="UkaliqNot_UkaliqModifierDot" unicode="&#xee48;&#x331;" 
d="M672 704q-87 -435 -537 -435l34 166q283 0 337 269h166zM515 -77l-37 -188h-166l37 188h166z" />
    <glyph glyph-name="UkaliqDivision_UkaliqModifierDot" unicode="&#xee49;&#x331;" 
d="M672 704l-71 -352l-70 -352h-166l53 269h-283l34 166h283l54 269h166zM515 -77l-37 -188h-166l37 188h166z" />
    <glyph glyph-name="UkaliqXor_UkaliqModifierDot" unicode="&#xee4a;&#x331;" 
d="M372 704q-54 -269 13 -269t121 269h166q-87 -435 -320 -435t-146 435h166zM515 -77l-37 -188h-166l37 188h166z" />
    <glyph glyph-name="uniEE4B_UkaliqModifierDot" unicode="&#xee4b;&#x331;" 
d="M515 -77l-37 -188h-166l37 188h166zM372 704q-42 -211 82 -257l52 257h166l-71 -352l-70 -352h-166l55 275q-291 45 -214 429h166z" />
    <glyph glyph-name="UkaliqLetterIji_UkaliqModifierDot" unicode="&#xee4c;&#x331;" 
d="M515 -77l-37 -188h-166l37 188h166zM287 280v1v-1zM285 270l-54 -270h-166l56 281q31 154 164 154q167 0 221 269h166q-82 -413 -387 -434z" />
    <glyph glyph-name="UkaliqLetterTkot_UkaliqModifierDot" unicode="&#xee4d;&#x331;" 
d="M672 704l-71 -352l-70 -352h-166l51 256q-143 -45 -185 -256h-166q77 385 386 429l55 275h166zM515 -77l-37 -188h-166l37 188h166z" />
    <glyph glyph-name="UkaliqLetterIsji_UkaliqModifierDot" unicode="&#xee4e;&#x331;" 
d="M515 -77l-37 -188h-166l37 188h166zM286 275l-55 -275h-166l70 352l71 352h166l-52 -257q143 45 186 257h166q-77 -385 -386 -429z" />
    <glyph glyph-name="UkaliqLetterOrro_UkaliqModifierDot" unicode="&#xee4f;&#x331;" 
d="M515 -77l-37 -188h-166l37 188h166zM672 704l-71 -352l-70 -352h-166l53 269h-134l-53 -269h-166l70 352l71 352h166l-54 -269h134l54 269h166z" />
    <glyph glyph-name="UkaliqDigitZero_UkaliqModifierDot" unicode="&#xee50;&#x331;" 
d="M115 166h433l-34 -166h-432zM169 435h432l-33 -166h-433zM515 -77l-37 -188h-166l37 188h166z" />
    <glyph glyph-name="UkaliqDigitOne_UkaliqModifierDot" unicode="&#xee51;&#x331;" 
d="M169 435q449 0 406 -218q-44 -217 -493 -217l33 166q283 0 293 51q11 52 -273 52zM515 -77l-37 -188h-166l37 188h166z" />
    <glyph glyph-name="UkaliqDigitTwo_UkaliqModifierDot" unicode="&#xee52;&#x331;" 
d="M372 704q-54 -269 229 -269l-33 -166q-449 0 -362 435h166zM115 166h433l-34 -166h-432zM515 -77l-37 -188h-166l37 188h166z" />
    <glyph glyph-name="UkaliqDigitThree_UkaliqModifierDot" unicode="&#xee53;&#x331;" 
d="M515 -77l-37 -188h-166l37 188h166zM372 704q-54 -269 113 -269q133 0 107 -128q-61 -307 -510 -307l33 166q244 0 298 105q-289 25 -207 433h166z" />
    <glyph glyph-name="UkaliqDigitFour_UkaliqModifierDot" unicode="&#xee54;&#x331;" 
d="M568 269q-283 0 -293 -52q-11 -51 273 -51l-34 -166q-449 0 -406 217q44 218 493 218zM515 -77l-37 -188h-166l37 188h166z" />
    <glyph glyph-name="UkaliqDigitFive_UkaliqModifierDot" unicode="&#xee55;&#x331;" 
d="M515 -77l-37 -188h-166l37 188h166zM275 217q-11 -51 56 -51t77 51q11 52 -56 52t-77 -52zM108 217q44 218 277 218t190 -218q-44 -217 -277 -217t-190 217z" />
    <glyph glyph-name="UkaliqDigitSix_UkaliqModifierDot" unicode="&#xee56;&#x331;" 
d="M515 -77l-37 -188h-166l37 188h166zM303 269q34 -103 245 -103l-34 -166q-449 0 -379 352l71 352h166l-54 -269h283l-33 -166h-265z" />
    <glyph glyph-name="UkaliqDigitSeven_UkaliqModifierDot" unicode="&#xee57;&#x331;" 
d="M515 -77l-37 -188h-166l37 188h166zM289 266q-7 -100 42 -100q67 0 77 51q9 40 -119 49zM317 432q296 -22 258 -215q-44 -217 -277 -217t-163 352l71 352h166z" />
    <glyph glyph-name="UkaliqDigitEight_UkaliqModifierDot" unicode="&#xee58;&#x331;" 
d="M115 166h433l-34 -166h-432zM672 704q-87 -435 -537 -435l34 166q283 0 337 269h166zM515 -77l-37 -188h-166l37 188h166z" />
    <glyph glyph-name="UkaliqDigitNine_UkaliqModifierDot" unicode="&#xee59;&#x331;" 
d="M672 704l-71 -352q-70 -352 -519 -352l33 166q211 0 285 103h-265l34 166h283l54 269h166zM515 -77l-37 -188h-166l37 188h166z" />
    <glyph glyph-name="UkaliqDigitTen_UkaliqModifierDot" unicode="&#xee5a;&#x331;" 
d="M372 704q-54 -269 13 -269t121 269h166q-87 -435 -320 -435t-146 435h166zM115 166h433l-34 -166h-432zM515 -77l-37 -188h-166l37 188h166z" />
    <glyph glyph-name="UkaliqDigitEleven_UkaliqModifierDot" unicode="&#xee5b;&#x331;" 
d="M515 -77l-37 -188h-166l37 188h166zM372 704q-42 -211 82 -257l52 257h166l-71 -352q-70 -352 -519 -352l33 166q219 0 291 111q-275 52 -200 427h166z" />
    <glyph glyph-name="UkaliqDigitTwelve_UkaliqModifierDot" unicode="&#xee5c;&#x331;" 
d="M515 -77l-37 -188h-166l37 188h166zM292 305v2v-2zM290 270q13 -104 258 -104l-34 -166q-449 0 -388 307q26 128 159 128q167 0 221 269h166q-82 -410 -382 -434z" />
    <glyph glyph-name="UkaliqDigitThirteen_UkaliqModifierDot" unicode="&#xee5d;&#x331;" 
d="M672 704l-71 -352q-70 -352 -303 -352t-190 217q39 193 343 215l55 272h166zM515 -77l-37 -188h-166l37 188h166zM413 266q-131 -9 -138 -49q-11 -51 56 -51q49 0 82 100z" />
    <glyph glyph-name="UkaliqDigitFourteen_UkaliqModifierDot" unicode="&#xee5e;&#x331;" 
d="M515 -77l-37 -188h-166l37 188h166zM301 277q28 -111 247 -111l-34 -166q-449 0 -379 352l71 352h166l-52 -257q143 45 186 257h166q-75 -376 -371 -427z" />
    <glyph glyph-name="UkaliqDigitFifteen_UkaliqModifierDot" unicode="&#xee5f;&#x331;" 
d="M515 -77l-37 -188h-166l37 188h166zM452 435l54 269h166l-71 -352q-70 -352 -303 -352t-163 352l71 352h166l-54 -269h134zM414 269h-125q-8 -103 42 -103t83 103z" />
    <glyph glyph-name="UkaliqLetterSchwa_UkaliqModifierDot" unicode="&#xee60;&#x331;" 
d="M169 435h432l-33 -166h-433zM515 -77l-37 -188h-166l37 188h166zM222 704h433l-33 -167h-433z" />
    <glyph glyph-name="UkaliqLetterOhgo_UkaliqModifierDot" unicode="&#xee61;&#x331;" 
d="M169 435q449 0 362 -435h-166q54 269 -230 269zM515 -77l-37 -188h-166l37 188h166zM222 704h433l-33 -167h-433z" />
    <glyph glyph-name="UkaliqLetterArha_UkaliqModifierDot" unicode="&#xee62;&#x331;" 
d="M622 537q-283 0 -294 -51q-10 -51 273 -51l-33 -166q-449 0 -406 217q44 218 493 218zM515 -77l-37 -188h-166l37 188h166z" />
    <glyph glyph-name="UkaliqLetterAva_UkaliqModifierDot" unicode="&#xee63;&#x331;" 
d="M515 -77l-37 -188h-166l37 188h166zM622 537q-283 0 -294 -51q-10 -51 157 -51q133 0 102 -154l-56 -281h-166l54 270q-298 11 -257 216q44 218 493 218z" />
    <glyph glyph-name="UkaliqLetterEzre_UkaliqModifierDot" unicode="&#xee64;&#x331;" 
d="M568 269q-283 0 -337 -269h-166q87 435 536 435zM515 -77l-37 -188h-166l37 188h166zM222 704h433l-33 -167h-433z" />
    <glyph glyph-name="UkaliqLetterUghu_UkaliqModifierDot" unicode="&#xee65;&#x331;" 
d="M65 0q87 435 320 435t146 -435h-166q54 269 -13 269t-121 -269h-166zM515 -77l-37 -188h-166l37 188h166zM222 704h433l-33 -167h-433z" />
    <glyph glyph-name="UkaliqLetterIjji_UkaliqModifierDot" unicode="&#xee66;&#x331;" 
d="M515 -77l-37 -188h-166l37 188h166zM284 269l-53 -269h-166l70 352q71 352 520 352l-33 -167q-210 0 -285 -102h264l-33 -166h-284z" />
    <glyph glyph-name="UkaliqLetterOdho_UkaliqModifierDot" unicode="&#xee67;&#x331;" 
d="M515 -77l-37 -188h-166l37 188h166zM282 257l-51 -257h-166l70 352q71 352 520 352l-33 -167q-218 0 -291 -110q275 -51 200 -427h-166q42 212 -83 257z" />
    <glyph glyph-name="UkaliqLetterOhho_UkaliqModifierDot" unicode="&#xee68;&#x331;" 
d="M222 704q450 0 406 -218q-43 -217 -493 -217l34 166q283 0 293 51t-273 51zM515 -77l-37 -188h-166l37 188h166z" />
    <glyph glyph-name="UkaliqLetterAha_UkaliqModifierDot" unicode="&#xee69;&#x331;" 
d="M222 704q450 0 379 -352l-70 -352h-166l53 269h-283l34 166h264q-34 102 -244 102zM515 -77l-37 -188h-166l37 188h166z" />
    <glyph glyph-name="UkaliqLetterAqha_UkaliqModifierDot" unicode="&#xee6a;&#x331;" 
d="M515 -77l-37 -188h-166l37 188h166zM328 486q-10 -51 57 -51t77 51t-57 51q-66 0 -77 -51zM162 486q44 218 277 218t189 -218q-43 -217 -276 -217t-190 217z" />
    <glyph glyph-name="UkaliqLetterAfa_UkaliqModifierDot" unicode="&#xee6b;&#x331;" 
d="M515 -77l-37 -188h-166l37 188h166zM447 438q7 99 -42 99q-66 0 -77 -51q-8 -39 119 -48zM419 272q-295 22 -257 214q44 218 277 218t162 -352l-70 -352h-166z" />
    <glyph glyph-name="UkaliqLetterEsre_UkaliqModifierDot" unicode="&#xee6c;&#x331;" 
d="M222 704q450 0 406 -218q-41 -206 -343 -216l-54 -270h-166l56 281q31 154 164 154q167 0 177 51t-273 51zM515 -77l-37 -188h-166l37 188h166zM287 280v1v-1z" />
    <glyph glyph-name="UkaliqLetterUkhu_UkaliqModifierDot" unicode="&#xee6d;&#x331;" 
d="M222 704q450 0 379 -352l-70 -352h-166l51 256q-143 -45 -185 -256h-166q75 375 370 427q-28 110 -246 110zM515 -77l-37 -188h-166l37 188h166z" />
    <glyph glyph-name="UkaliqLetterIcji_UkaliqModifierDot" unicode="&#xee6e;&#x331;" 
d="M515 -77l-37 -188h-166l37 188h166zM285 272l-54 -272h-166l70 352q71 352 304 352t189 -218q-38 -192 -343 -214zM323 438q131 9 139 48q10 51 -57 51q-49 0 -82 -99z" />
    <glyph glyph-name="UkaliqLetterOtho_UkaliqModifierDot" unicode="&#xee6f;&#x331;" 
d="M515 -77l-37 -188h-166l37 188h166zM65 0l70 352q71 352 304 352t162 -352l-70 -352h-166l53 269h-134l-53 -269h-166zM322 435h125q8 102 -42 102q-49 0 -83 -102z" />
    <glyph glyph-name="UkaliqIterationMark_UkaliqModifierDot" unicode="&#xee70;&#x331;" 
d="M115 166h433l-34 -166h-432zM169 435h432l-33 -166h-433zM515 -77l-37 -188h-166l37 188h166zM222 704h433l-33 -167h-433z" />
    <glyph glyph-name="UkaliqPercent_UkaliqModifierDot" unicode="&#xee71;&#x331;" 
d="M169 435q449 0 406 -218q-44 -217 -493 -217l33 166q283 0 293 51q11 52 -273 52zM515 -77l-37 -188h-166l37 188h166zM222 704h433l-33 -167h-433z" />
    <glyph glyph-name="UkaliqLetterAgqa_UkaliqModifierDot" unicode="&#xee72;&#x331;" 
d="M622 537q-283 0 -294 -51q-10 -51 273 -51l-33 -166q-449 0 -406 217q44 218 493 218zM115 166h433l-34 -166h-432zM515 -77l-37 -188h-166l37 188h166z" />
    <glyph glyph-name="UkaliqLetterAba_UkaliqModifierDot" unicode="&#xee73;&#x331;" 
d="M515 -77l-37 -188h-166l37 188h166zM622 537q-283 0 -294 -51q-10 -51 157 -51q133 0 107 -128q-61 -307 -510 -307l33 166q243 0 298 104q-291 12 -251 216q44 218 493 218z" />
    <glyph glyph-name="UkaliqLetterEdre_UkaliqModifierDot" unicode="&#xee74;&#x331;" 
d="M568 269q-283 0 -293 -52q-11 -51 273 -51l-34 -166q-449 0 -406 217q44 218 493 218zM515 -77l-37 -188h-166l37 188h166zM222 704h433l-33 -167h-433z" />
    <glyph glyph-name="UkaliqLetterUgu_UkaliqModifierDot" unicode="&#xee75;&#x331;" 
d="M515 -77l-37 -188h-166l37 188h166zM222 704h433l-33 -167h-433zM275 217q-11 -51 56 -51t77 51q11 52 -56 52t-77 -52zM108 217q44 218 277 218t190 -218q-44 -217 -277 -217t-190 217z" />
    <glyph glyph-name="UkaliqLetterIgji_UkaliqModifierDot" unicode="&#xee76;&#x331;" 
d="M515 -77l-37 -188h-166l37 188h166zM303 269q34 -103 245 -103l-34 -166q-449 0 -379 352q71 352 520 352l-33 -167q-210 0 -285 -102h264l-33 -166h-265z" />
    <glyph glyph-name="UkaliqLetterOdo_UkaliqModifierDot" unicode="&#xee77;&#x331;" 
d="M515 -77l-37 -188h-166l37 188h166zM289 266q-7 -100 42 -100q67 0 77 51q9 40 -119 49zM334 431q278 -26 241 -214q-44 -217 -277 -217t-163 352q71 352 520 352l-33 -167q-214 0 -288 -106z" />
    <glyph glyph-name="UkaliqLetterOhhko_UkaliqModifierDot" unicode="&#xee78;&#x331;" 
d="M115 166h433l-34 -166h-432zM222 704q450 0 406 -218q-43 -217 -493 -217l34 166q283 0 293 51t-273 51zM515 -77l-37 -188h-166l37 188h166z" />
    <glyph glyph-name="UkaliqLetterAhka_UkaliqModifierDot" unicode="&#xee79;&#x331;" 
d="M222 704q450 0 379 -352q-70 -352 -519 -352l33 166q211 0 285 103h-265l34 166h264q-34 102 -244 102zM515 -77l-37 -188h-166l37 188h166z" />
    <glyph glyph-name="UkaliqLetterAqa_UkaliqModifierDot" unicode="&#xee7a;&#x331;" 
d="M115 166h433l-34 -166h-432zM515 -77l-37 -188h-166l37 188h166zM328 486q-10 -51 57 -51t77 51t-57 51q-66 0 -77 -51zM162 486q44 218 277 218t189 -218q-43 -217 -276 -217t-190 217z" />
    <glyph glyph-name="UkaliqLetterApa_UkaliqModifierDot" unicode="&#xee7b;&#x331;" 
d="M515 -77l-37 -188h-166l37 188h166zM447 438q7 99 -42 99q-66 0 -77 -51q-8 -39 119 -48zM403 273q-278 26 -241 213q44 218 277 218t162 -352q-70 -352 -519 -352l33 166q215 0 288 107z" />
    <glyph glyph-name="UkaliqLetterEtre_UkaliqModifierDot" unicode="&#xee7c;&#x331;" 
d="M222 704q450 0 406 -218q-40 -204 -338 -216q14 -104 258 -104l-34 -166q-449 0 -388 307q26 128 159 128q167 0 177 51t-273 51zM515 -77l-37 -188h-166l37 188h166zM292 305v2v-2z" />
    <glyph glyph-name="UkaliqLetterUku_UkaliqModifierDot" unicode="&#xee7d;&#x331;" 
d="M222 704q450 0 379 -352q-70 -352 -303 -352t-190 217q38 187 326 214q-31 106 -245 106zM515 -77l-37 -188h-166l37 188h166zM413 266q-131 -9 -138 -49q-11 -51 56 -51q49 0 82 100z" />
    <glyph glyph-name="UkaliqLetterIci_UkaliqModifierDot" unicode="&#xee7e;&#x331;" 
d="M515 -77l-37 -188h-166l37 188h166zM302 273q31 -107 246 -107l-34 -166q-449 0 -379 352q71 352 304 352t189 -218q-37 -187 -326 -213zM323 438q131 9 139 48q10 51 -57 51q-49 0 -82 -99z" />
    <glyph glyph-name="UkaliqLetterOto_UkaliqModifierDot" unicode="&#xee7f;&#x331;" 
d="M515 -77l-37 -188h-166l37 188h166zM322 435h125q8 102 -42 102q-49 0 -83 -102zM414 269h-125q-8 -103 42 -103t83 103zM135 352q71 352 304 352t162 -352q-70 -352 -303 -352t-163 352z" />
    <glyph glyph-name="UkaliqPatternBlank_UkaliqModifierDot" unicode="&#xf1d00;&#x331;" 
d="M515 -77l-37 -188h-166l37 188h166z" />
    <glyph glyph-name="UkaliqPatternSegmentsC_UkaliqModifierDot" unicode="&#xf1d01;&#x331;" 
d="M618 435l-87 -435h-166l87 435h166zM515 -77l-37 -188h-166l37 188h166z" />
    <glyph glyph-name="UkaliqPatternSegmentsF_UkaliqModifierDot" unicode="&#xf1d02;&#x331;" 
d="M372 704l-87 -435h-166l87 435h166zM515 -77l-37 -188h-166l37 188h166z" />
    <glyph glyph-name="UkaliqPatternSegmentsCf_UkaliqModifierDot" unicode="&#xf1d03;&#x331;" 
d="M618 435l-87 -435h-166l87 435h166zM372 704l-87 -435h-166l87 435h166zM515 -77l-37 -188h-166l37 188h166z" />
    <glyph glyph-name="UkaliqPatternSegmentsE_UkaliqModifierDot" unicode="&#xf1d04;&#x331;" 
d="M318 435l-87 -435h-166l87 435h166zM515 -77l-37 -188h-166l37 188h166z" />
    <glyph glyph-name="UkaliqPatternSegmentsCe_UkaliqModifierDot" unicode="&#xf1d05;&#x331;" 
d="M618 435l-87 -435h-166l87 435h166zM318 435l-87 -435h-166l87 435h166zM515 -77l-37 -188h-166l37 188h166z" />
    <glyph glyph-name="UkaliqPatternSegmentsEf_UkaliqModifierDot" unicode="&#xf1d06;&#x331;" 
d="M372 704l-141 -704h-166l141 704h166zM515 -77l-37 -188h-166l37 188h166z" />
    <glyph glyph-name="UkaliqPatternSegmentsCef_UkaliqModifierDot" unicode="&#xf1d07;&#x331;" 
d="M372 704l-141 -704h-166l141 704h166zM618 435l-87 -435h-166l87 435h166zM515 -77l-37 -188h-166l37 188h166z" />
    <glyph glyph-name="UkaliqPatternSegmentsB_UkaliqModifierDot" unicode="&#xf1d08;&#x331;" 
d="M672 704l-87 -435h-166l87 435h166zM515 -77l-37 -188h-166l37 188h166z" />
    <glyph glyph-name="UkaliqPatternSegmentsBc_UkaliqModifierDot" unicode="&#xf1d09;&#x331;" 
d="M672 704l-141 -704h-166l141 704h166zM515 -77l-37 -188h-166l37 188h166z" />
    <glyph glyph-name="UkaliqPatternSegmentsBf_UkaliqModifierDot" unicode="&#xf1d0a;&#x331;" 
d="M372 704l-87 -435h-166l87 435h166zM672 704l-87 -435h-166l87 435h166zM515 -77l-37 -188h-166l37 188h166z" />
    <glyph glyph-name="UkaliqPatternSegmentsBcf_UkaliqModifierDot" unicode="&#xf1d0b;&#x331;" 
d="M672 704l-141 -704h-166l141 704h166zM372 704l-87 -435h-166l87 435h166zM515 -77l-37 -188h-166l37 188h166z" />
    <glyph glyph-name="UkaliqPatternSegmentsBe_UkaliqModifierDot" unicode="&#xf1d0c;&#x331;" 
d="M672 704l-87 -435h-166l87 435h166zM318 435l-87 -435h-166l87 435h166zM515 -77l-37 -188h-166l37 188h166z" />
    <glyph glyph-name="UkaliqPatternSegmentsBce_UkaliqModifierDot" unicode="&#xf1d0d;&#x331;" 
d="M672 704l-141 -704h-166l141 704h166zM318 435l-87 -435h-166l87 435h166zM515 -77l-37 -188h-166l37 188h166z" />
    <glyph glyph-name="UkaliqPatternSegmentsBef_UkaliqModifierDot" unicode="&#xf1d0e;&#x331;" 
d="M372 704l-141 -704h-166l141 704h166zM672 704l-87 -435h-166l87 435h166zM515 -77l-37 -188h-166l37 188h166z" />
    <glyph glyph-name="UkaliqPatternSegmentsBcef_UkaliqModifierDot" unicode="&#xf1d0f;&#x331;" 
d="M672 704l-141 -704h-166l141 704h166zM372 704l-141 -704h-166l141 704h166zM515 -77l-37 -188h-166l37 188h166z" />
    <glyph glyph-name="UkaliqPatternSegmentsD_UkaliqModifierDot" unicode="&#xf1d10;&#x331;" 
d="M115 166h433l-34 -166h-432zM515 -77l-37 -188h-166l37 188h166z" />
    <glyph glyph-name="UkaliqPatternSegmentsCd_UkaliqModifierDot" unicode="&#xf1d11;&#x331;" 
d="M515 -77l-37 -188h-166l37 188h166zM618 435q-87 -435 -536 -435l33 166q283 0 337 269h166z" />
    <glyph glyph-name="UkaliqPatternSegmentsDf_UkaliqModifierDot" unicode="&#xf1d12;&#x331;" 
d="M115 166h433l-34 -166h-432zM372 704l-87 -435h-166l87 435h166zM515 -77l-37 -188h-166l37 188h166z" />
    <glyph glyph-name="UkaliqPatternSegmentsCdf_UkaliqModifierDot" unicode="&#xf1d13;&#x331;" 
d="M372 704l-87 -435h-166l87 435h166zM515 -77l-37 -188h-166l37 188h166zM618 435q-87 -435 -536 -435l33 166q283 0 337 269h166z" />
    <glyph glyph-name="UkaliqPatternSegmentsDe_UkaliqModifierDot" unicode="&#xf1d14;&#x331;" 
d="M318 435q-54 -269 230 -269l-34 -166q-449 0 -362 435h166zM515 -77l-37 -188h-166l37 188h166z" />
    <glyph glyph-name="UkaliqPatternSegmentsCde_UkaliqModifierDot" unicode="&#xf1d15;&#x331;" 
d="M318 435q-54 -269 13 -269t121 269h166q-87 -435 -320 -435t-146 435h166zM515 -77l-37 -188h-166l37 188h166z" />
    <glyph glyph-name="UkaliqPatternSegmentsDef_UkaliqModifierDot" unicode="&#xf1d16;&#x331;" 
d="M372 704l-42 -207q-66 -331 218 -331l-34 -166q-449 0 -350 497l42 207h166zM515 -77l-37 -188h-166l37 188h166z" />
    <glyph glyph-name="UkaliqPatternSegmentsCdef_UkaliqModifierDot" unicode="&#xf1d17;&#x331;" 
d="M372 704l-42 -207q-66 -331 1 -331t121 269h166q-87 -435 -320 -435t-134 497l42 207h166zM515 -77l-37 -188h-166l37 188h166z" />
    <glyph glyph-name="UkaliqPatternSegmentsBd_UkaliqModifierDot" unicode="&#xf1d18;&#x331;" 
d="M115 166h433l-34 -166h-432zM672 704l-87 -435h-166l87 435h166zM515 -77l-37 -188h-166l37 188h166z" />
    <glyph glyph-name="UkaliqPatternSegmentsBcd_UkaliqModifierDot" unicode="&#xf1d19;&#x331;" 
d="M672 704l-42 -207q-99 -497 -548 -497l33 166q283 0 349 331l42 207h166zM515 -77l-37 -188h-166l37 188h166z" />
    <glyph glyph-name="UkaliqPatternSegmentsBdf_UkaliqModifierDot" unicode="&#xf1d1a;&#x331;" 
d="M115 166h433l-34 -166h-432zM372 704l-87 -435h-166l87 435h166zM672 704l-87 -435h-166l87 435h166zM515 -77l-37 -188h-166l37 188h166z" />
    <glyph glyph-name="UkaliqPatternSegmentsBcdf_UkaliqModifierDot" unicode="&#xf1d1b;&#x331;" 
d="M372 704l-87 -435h-166l87 435h166zM672 704l-42 -207q-99 -497 -548 -497l33 166q283 0 349 331l42 207h166zM515 -77l-37 -188h-166l37 188h166z" />
    <glyph glyph-name="UkaliqPatternSegmentsBde_UkaliqModifierDot" unicode="&#xf1d1c;&#x331;" 
d="M318 435q-54 -269 230 -269l-34 -166q-449 0 -362 435h166zM672 704l-87 -435h-166l87 435h166zM515 -77l-37 -188h-166l37 188h166z" />
    <glyph glyph-name="UkaliqPatternSegmentsBcde_UkaliqModifierDot" unicode="&#xf1d1d;&#x331;" 
d="M672 704l-42 -207q-99 -497 -332 -497t-146 435h166q-54 -269 13 -269t133 331l42 207h166zM515 -77l-37 -188h-166l37 188h166z" />
    <glyph glyph-name="UkaliqPatternSegmentsBdef_UkaliqModifierDot" unicode="&#xf1d1e;&#x331;" 
d="M372 704l-42 -207q-66 -331 218 -331l-34 -166q-449 0 -350 497l42 207h166zM672 704l-87 -435h-166l87 435h166zM515 -77l-37 -188h-166l37 188h166z" />
    <glyph glyph-name="UkaliqPatternSegmentsBcdef_UkaliqModifierDot" unicode="&#xf1d1f;&#x331;" 
d="M372 704l-42 -207q-66 -331 1 -331t133 331l42 207h166l-42 -207q-99 -497 -332 -497t-134 497l42 207h166zM515 -77l-37 -188h-166l37 188h166z" />
    <glyph glyph-name="UkaliqPatternSegmentsA_UkaliqModifierDot" unicode="&#xf1d20;&#x331;" 
d="M515 -77l-37 -188h-166l37 188h166zM222 704h433l-33 -167h-433z" />
    <glyph glyph-name="UkaliqPatternSegmentsAc_UkaliqModifierDot" unicode="&#xf1d21;&#x331;" 
d="M618 435l-87 -435h-166l87 435h166zM515 -77l-37 -188h-166l37 188h166zM222 704h433l-33 -167h-433z" />
    <glyph glyph-name="UkaliqPatternSegmentsAf_UkaliqModifierDot" unicode="&#xf1d22;&#x331;" 
d="M622 537q-283 0 -337 -268h-166q87 435 536 435zM515 -77l-37 -188h-166l37 188h166z" />
    <glyph glyph-name="UkaliqPatternSegmentsAcf_UkaliqModifierDot" unicode="&#xf1d23;&#x331;" 
d="M618 435l-87 -435h-166l87 435h166zM622 537q-283 0 -337 -268h-166q87 435 536 435zM515 -77l-37 -188h-166l37 188h166z" />
    <glyph glyph-name="UkaliqPatternSegmentsAe_UkaliqModifierDot" unicode="&#xf1d24;&#x331;" 
d="M318 435l-87 -435h-166l87 435h166zM515 -77l-37 -188h-166l37 188h166zM222 704h433l-33 -167h-433z" />
    <glyph glyph-name="UkaliqPatternSegmentsAce_UkaliqModifierDot" unicode="&#xf1d25;&#x331;" 
d="M618 435l-87 -435h-166l87 435h166zM318 435l-87 -435h-166l87 435h166zM515 -77l-37 -188h-166l37 188h166zM222 704h433l-33 -167h-433z" />
    <glyph glyph-name="UkaliqPatternSegmentsAef_UkaliqModifierDot" unicode="&#xf1d26;&#x331;" 
d="M622 537q-283 0 -350 -330l-41 -207h-166l41 207q100 497 549 497zM515 -77l-37 -188h-166l37 188h166z" />
    <glyph glyph-name="UkaliqPatternSegmentsAcef_UkaliqModifierDot" unicode="&#xf1d27;&#x331;" 
d="M622 537q-283 0 -350 -330l-41 -207h-166l41 207q100 497 549 497zM618 435l-87 -435h-166l87 435h166zM515 -77l-37 -188h-166l37 188h166z" />
    <glyph glyph-name="UkaliqPatternSegmentsAb_UkaliqModifierDot" unicode="&#xf1d28;&#x331;" 
d="M222 704q450 0 363 -435h-166q53 268 -230 268zM515 -77l-37 -188h-166l37 188h166z" />
    <glyph glyph-name="UkaliqPatternSegmentsAbc_UkaliqModifierDot" unicode="&#xf1d29;&#x331;" 
d="M222 704q450 0 350 -497l-41 -207h-166l41 207q66 330 -217 330zM515 -77l-37 -188h-166l37 188h166z" />
    <glyph glyph-name="UkaliqPatternSegmentsAbf_UkaliqModifierDot" unicode="&#xf1d2a;&#x331;" 
d="M119 269q87 435 320 435t146 -435h-166q53 268 -14 268q-66 0 -120 -268h-166zM515 -77l-37 -188h-166l37 188h166z" />
    <glyph glyph-name="UkaliqPatternSegmentsAbcf_UkaliqModifierDot" unicode="&#xf1d2b;&#x331;" 
d="M119 269q87 435 320 435t133 -497l-41 -207h-166l41 207q66 330 -1 330q-66 0 -120 -268h-166zM515 -77l-37 -188h-166l37 188h166z" />
    <glyph glyph-name="UkaliqPatternSegmentsAbe_UkaliqModifierDot" unicode="&#xf1d2c;&#x331;" 
d="M222 704q450 0 363 -435h-166q53 268 -230 268zM318 435l-87 -435h-166l87 435h166zM515 -77l-37 -188h-166l37 188h166z" />
    <glyph glyph-name="UkaliqPatternSegmentsAbce_UkaliqModifierDot" unicode="&#xf1d2d;&#x331;" 
d="M222 704q450 0 350 -497l-41 -207h-166l41 207q66 330 -217 330zM318 435l-87 -435h-166l87 435h166zM515 -77l-37 -188h-166l37 188h166z" />
    <glyph glyph-name="UkaliqPatternSegmentsAbef_UkaliqModifierDot" unicode="&#xf1d2e;&#x331;" 
d="M419 269q53 268 -14 268q-66 0 -133 -330l-41 -207h-166l41 207q100 497 333 497t146 -435h-166zM515 -77l-37 -188h-166l37 188h166z" />
    <glyph glyph-name="UkaliqPatternSegmentsAbcef_UkaliqModifierDot" unicode="&#xf1d2f;&#x331;" 
d="M65 0l41 207q100 497 333 497t133 -497l-41 -207h-166l41 207q66 330 -1 330q-66 0 -133 -330l-41 -207h-166zM515 -77l-37 -188h-166l37 188h166z" />
    <glyph glyph-name="UkaliqPatternSegmentsAd_UkaliqModifierDot" unicode="&#xf1d30;&#x331;" 
d="M115 166h433l-34 -166h-432zM515 -77l-37 -188h-166l37 188h166zM222 704h433l-33 -167h-433z" />
    <glyph glyph-name="UkaliqPatternSegmentsAcd_UkaliqModifierDot" unicode="&#xf1d31;&#x331;" 
d="M515 -77l-37 -188h-166l37 188h166zM618 435q-87 -435 -536 -435l33 166q283 0 337 269h166zM222 704h433l-33 -167h-433z" />
    <glyph glyph-name="UkaliqPatternSegmentsAdf_UkaliqModifierDot" unicode="&#xf1d32;&#x331;" 
d="M115 166h433l-34 -166h-432zM622 537q-283 0 -337 -268h-166q87 435 536 435zM515 -77l-37 -188h-166l37 188h166z" />
    <glyph glyph-name="UkaliqPatternSegmentsAcdf_UkaliqModifierDot" unicode="&#xf1d33;&#x331;" 
d="M622 537q-283 0 -337 -268h-166q87 435 536 435zM515 -77l-37 -188h-166l37 188h166zM618 435q-87 -435 -536 -435l33 166q283 0 337 269h166z" />
    <glyph glyph-name="UkaliqPatternSegmentsAde_UkaliqModifierDot" unicode="&#xf1d34;&#x331;" 
d="M318 435q-54 -269 230 -269l-34 -166q-449 0 -362 435h166zM515 -77l-37 -188h-166l37 188h166zM222 704h433l-33 -167h-433z" />
    <glyph glyph-name="UkaliqPatternSegmentsAcde_UkaliqModifierDot" unicode="&#xf1d35;&#x331;" 
d="M318 435q-54 -269 13 -269t121 269h166q-87 -435 -320 -435t-146 435h166zM515 -77l-37 -188h-166l37 188h166zM222 704h433l-33 -167h-433z" />
    <glyph glyph-name="UkaliqPatternSegmentsAdef_UkaliqModifierDot" unicode="&#xf1d36;&#x331;" 
d="M622 537q-283 0 -321 -185q-37 -186 247 -186l-34 -166q-449 0 -379 352q71 352 520 352zM515 -77l-37 -188h-166l37 188h166z" />
    <glyph glyph-name="UkaliqPatternSegmentsAcdef_UkaliqModifierDot" unicode="&#xf1d37;&#x331;" 
d="M622 537q-283 0 -321 -185q-37 -186 30 -186t121 269h166q-87 -435 -320 -435t-163 352q71 352 520 352zM515 -77l-37 -188h-166l37 188h166z" />
    <glyph glyph-name="UkaliqPatternSegmentsAbd_UkaliqModifierDot" unicode="&#xf1d38;&#x331;" 
d="M115 166h433l-34 -166h-432zM222 704q450 0 363 -435h-166q53 268 -230 268zM515 -77l-37 -188h-166l37 188h166z" />
    <glyph glyph-name="UkaliqPatternSegmentsAbcd_UkaliqModifierDot" unicode="&#xf1d39;&#x331;" 
d="M222 704q450 0 379 -352q-70 -352 -519 -352l33 166q283 0 320 186q37 185 -246 185zM515 -77l-37 -188h-166l37 188h166z" />
    <glyph glyph-name="UkaliqPatternSegmentsAbdf_UkaliqModifierDot" unicode="&#xf1d3a;&#x331;" 
d="M115 166h433l-34 -166h-432zM119 269q87 435 320 435t146 -435h-166q53 268 -14 268q-66 0 -120 -268h-166zM515 -77l-37 -188h-166l37 188h166z" />
    <glyph glyph-name="UkaliqPatternSegmentsAbcdf_UkaliqModifierDot" unicode="&#xf1d3b;&#x331;" 
d="M119 269q87 435 320 435t162 -352q-70 -352 -519 -352l33 166q283 0 320 186q37 185 -30 185q-66 0 -120 -268h-166zM515 -77l-37 -188h-166l37 188h166z" />
    <glyph glyph-name="UkaliqPatternSegmentsAbde_UkaliqModifierDot" unicode="&#xf1d3c;&#x331;" 
d="M222 704q450 0 363 -435h-166q53 268 -230 268zM318 435q-54 -269 230 -269l-34 -166q-449 0 -362 435h166zM515 -77l-37 -188h-166l37 188h166z" />
    <glyph glyph-name="UkaliqPatternSegmentsAbcde_UkaliqModifierDot" unicode="&#xf1d3d;&#x331;" 
d="M222 704q450 0 379 -352q-70 -352 -303 -352t-146 435h166q-54 -269 13 -269t104 186q37 185 -246 185zM515 -77l-37 -188h-166l37 188h166z" />
    <glyph glyph-name="UkaliqPatternSegmentsAbdef_UkaliqModifierDot" unicode="&#xf1d3e;&#x331;" 
d="M419 269q53 268 -14 268q-66 0 -104 -185q-37 -186 247 -186l-34 -166q-449 0 -379 352q71 352 304 352t146 -435h-166zM515 -77l-37 -188h-166l37 188h166z" />
    <glyph glyph-name="UkaliqPatternSegmentsAbcdef_UkaliqModifierDot" unicode="&#xf1d3f;&#x331;" 
d="M515 -77l-37 -188h-166l37 188h166zM301 352q-37 -186 30 -186t104 186q37 185 -30 185q-66 0 -104 -185zM135 352q71 352 304 352t162 -352q-70 -352 -303 -352t-163 352z" />
    <glyph glyph-name="UkaliqPatternSegmentsG_UkaliqModifierDot" unicode="&#xf1d40;&#x331;" 
d="M169 435h432l-33 -166h-433zM515 -77l-37 -188h-166l37 188h166z" />
    <glyph glyph-name="UkaliqPatternSegmentsCg_UkaliqModifierDot" unicode="&#xf1d41;&#x331;" 
d="M169 435q449 0 362 -435h-166q54 269 -230 269zM515 -77l-37 -188h-166l37 188h166z" />
    <glyph glyph-name="UkaliqPatternSegmentsFg_UkaliqModifierDot" unicode="&#xf1d42;&#x331;" 
d="M372 704q-54 -269 229 -269l-33 -166q-449 0 -362 435h166zM515 -77l-37 -188h-166l37 188h166z" />
    <glyph glyph-name="UkaliqPatternSegmentsCfg_UkaliqModifierDot" unicode="&#xf1d43;&#x331;" 
d="M515 -77l-37 -188h-166l37 188h166zM372 704q-54 -269 113 -269q133 0 102 -154l-56 -281h-166l54 270q-295 21 -213 434h166z" />
    <glyph glyph-name="UkaliqPatternSegmentsEg_UkaliqModifierDot" unicode="&#xf1d44;&#x331;" 
d="M568 269q-283 0 -337 -269h-166q87 435 536 435zM515 -77l-37 -188h-166l37 188h166z" />
    <glyph glyph-name="UkaliqPatternSegmentsCeg_UkaliqModifierDot" unicode="&#xf1d45;&#x331;" 
d="M65 0q87 435 320 435t146 -435h-166q54 269 -13 269t-121 -269h-166zM515 -77l-37 -188h-166l37 188h166z" />
    <glyph glyph-name="UkaliqPatternSegmentsEfg_UkaliqModifierDot" unicode="&#xf1d46;&#x331;" 
d="M515 -77l-37 -188h-166l37 188h166zM284 269l-53 -269h-166l70 352l71 352h166l-54 -269h283l-33 -166h-284z" />
    <glyph glyph-name="UkaliqPatternSegmentsCefg_UkaliqModifierDot" unicode="&#xf1d47;&#x331;" 
d="M515 -77l-37 -188h-166l37 188h166zM282 257l-51 -257h-166l70 352l71 352h166l-55 -275q291 -44 214 -429h-166q42 212 -83 257z" />
    <glyph glyph-name="UkaliqPatternSegmentsBg_UkaliqModifierDot" unicode="&#xf1d48;&#x331;" 
d="M672 704q-87 -435 -537 -435l34 166q283 0 337 269h166zM515 -77l-37 -188h-166l37 188h166z" />
    <glyph glyph-name="UkaliqPatternSegmentsBcg_UkaliqModifierDot" unicode="&#xf1d49;&#x331;" 
d="M672 704l-71 -352l-70 -352h-166l53 269h-283l34 166h283l54 269h166zM515 -77l-37 -188h-166l37 188h166z" />
    <glyph glyph-name="UkaliqPatternSegmentsBfg_UkaliqModifierDot" unicode="&#xf1d4a;&#x331;" 
d="M372 704q-54 -269 13 -269t121 269h166q-87 -435 -320 -435t-146 435h166zM515 -77l-37 -188h-166l37 188h166z" />
    <glyph glyph-name="UkaliqPatternSegmentsBcfg_UkaliqModifierDot" unicode="&#xf1d4b;&#x331;" 
d="M515 -77l-37 -188h-166l37 188h166zM372 704q-42 -211 82 -257l52 257h166l-71 -352l-70 -352h-166l55 275q-291 45 -214 429h166z" />
    <glyph glyph-name="UkaliqPatternSegmentsBeg_UkaliqModifierDot" unicode="&#xf1d4c;&#x331;" 
d="M515 -77l-37 -188h-166l37 188h166zM287 280v1v-1zM285 270l-54 -270h-166l56 281q31 154 164 154q167 0 221 269h166q-82 -413 -387 -434z" />
    <glyph glyph-name="UkaliqPatternSegmentsBceg_UkaliqModifierDot" unicode="&#xf1d4d;&#x331;" 
d="M672 704l-71 -352l-70 -352h-166l51 256q-143 -45 -185 -256h-166q77 385 386 429l55 275h166zM515 -77l-37 -188h-166l37 188h166z" />
    <glyph glyph-name="UkaliqPatternSegmentsBefg_UkaliqModifierDot" unicode="&#xf1d4e;&#x331;" 
d="M515 -77l-37 -188h-166l37 188h166zM286 275l-55 -275h-166l70 352l71 352h166l-52 -257q143 45 186 257h166q-77 -385 -386 -429z" />
    <glyph glyph-name="UkaliqPatternSegmentsBcefg_UkaliqModifierDot" unicode="&#xf1d4f;&#x331;" 
d="M515 -77l-37 -188h-166l37 188h166zM672 704l-71 -352l-70 -352h-166l53 269h-134l-53 -269h-166l70 352l71 352h166l-54 -269h134l54 269h166z" />
    <glyph glyph-name="UkaliqPatternSegmentsDg_UkaliqModifierDot" unicode="&#xf1d50;&#x331;" 
d="M115 166h433l-34 -166h-432zM169 435h432l-33 -166h-433zM515 -77l-37 -188h-166l37 188h166z" />
    <glyph glyph-name="UkaliqPatternSegmentsCdg_UkaliqModifierDot" unicode="&#xf1d51;&#x331;" 
d="M169 435q449 0 406 -218q-44 -217 -493 -217l33 166q283 0 293 51q11 52 -273 52zM515 -77l-37 -188h-166l37 188h166z" />
    <glyph glyph-name="UkaliqPatternSegmentsDfg_UkaliqModifierDot" unicode="&#xf1d52;&#x331;" 
d="M372 704q-54 -269 229 -269l-33 -166q-449 0 -362 435h166zM115 166h433l-34 -166h-432zM515 -77l-37 -188h-166l37 188h166z" />
    <glyph glyph-name="UkaliqPatternSegmentsCdfg_UkaliqModifierDot" unicode="&#xf1d53;&#x331;" 
d="M515 -77l-37 -188h-166l37 188h166zM372 704q-54 -269 113 -269q133 0 107 -128q-61 -307 -510 -307l33 166q244 0 298 105q-289 25 -207 433h166z" />
    <glyph glyph-name="UkaliqPatternSegmentsDeg_UkaliqModifierDot" unicode="&#xf1d54;&#x331;" 
d="M568 269q-283 0 -293 -52q-11 -51 273 -51l-34 -166q-449 0 -406 217q44 218 493 218zM515 -77l-37 -188h-166l37 188h166z" />
    <glyph glyph-name="UkaliqPatternSegmentsCdeg_UkaliqModifierDot" unicode="&#xf1d55;&#x331;" 
d="M515 -77l-37 -188h-166l37 188h166zM275 217q-11 -51 56 -51t77 51q11 52 -56 52t-77 -52zM108 217q44 218 277 218t190 -218q-44 -217 -277 -217t-190 217z" />
    <glyph glyph-name="UkaliqPatternSegmentsDefg_UkaliqModifierDot" unicode="&#xf1d56;&#x331;" 
d="M515 -77l-37 -188h-166l37 188h166zM303 269q34 -103 245 -103l-34 -166q-449 0 -379 352l71 352h166l-54 -269h283l-33 -166h-265z" />
    <glyph glyph-name="UkaliqPatternSegmentsCdefg_UkaliqModifierDot" unicode="&#xf1d57;&#x331;" 
d="M515 -77l-37 -188h-166l37 188h166zM289 266q-7 -100 42 -100q67 0 77 51q9 40 -119 49zM317 432q296 -22 258 -215q-44 -217 -277 -217t-163 352l71 352h166z" />
    <glyph glyph-name="UkaliqPatternSegmentsBdg_UkaliqModifierDot" unicode="&#xf1d58;&#x331;" 
d="M115 166h433l-34 -166h-432zM672 704q-87 -435 -537 -435l34 166q283 0 337 269h166zM515 -77l-37 -188h-166l37 188h166z" />
    <glyph glyph-name="UkaliqPatternSegmentsBcdg_UkaliqModifierDot" unicode="&#xf1d59;&#x331;" 
d="M672 704l-71 -352q-70 -352 -519 -352l33 166q211 0 285 103h-265l34 166h283l54 269h166zM515 -77l-37 -188h-166l37 188h166z" />
    <glyph glyph-name="UkaliqPatternSegmentsBdfg_UkaliqModifierDot" unicode="&#xf1d5a;&#x331;" 
d="M372 704q-54 -269 13 -269t121 269h166q-87 -435 -320 -435t-146 435h166zM115 166h433l-34 -166h-432zM515 -77l-37 -188h-166l37 188h166z" />
    <glyph glyph-name="UkaliqPatternSegmentsBcdfg_UkaliqModifierDot" unicode="&#xf1d5b;&#x331;" 
d="M515 -77l-37 -188h-166l37 188h166zM372 704q-42 -211 82 -257l52 257h166l-71 -352q-70 -352 -519 -352l33 166q219 0 291 111q-275 52 -200 427h166z" />
    <glyph glyph-name="UkaliqPatternSegmentsBdeg_UkaliqModifierDot" unicode="&#xf1d5c;&#x331;" 
d="M515 -77l-37 -188h-166l37 188h166zM292 305v2v-2zM290 270q13 -104 258 -104l-34 -166q-449 0 -388 307q26 128 159 128q167 0 221 269h166q-82 -410 -382 -434z" />
    <glyph glyph-name="UkaliqPatternSegmentsBcdeg_UkaliqModifierDot" unicode="&#xf1d5d;&#x331;" 
d="M672 704l-71 -352q-70 -352 -303 -352t-190 217q39 193 343 215l55 272h166zM515 -77l-37 -188h-166l37 188h166zM413 266q-131 -9 -138 -49q-11 -51 56 -51q49 0 82 100z" />
    <glyph glyph-name="UkaliqPatternSegmentsBdefg_UkaliqModifierDot" unicode="&#xf1d5e;&#x331;" 
d="M515 -77l-37 -188h-166l37 188h166zM301 277q28 -111 247 -111l-34 -166q-449 0 -379 352l71 352h166l-52 -257q143 45 186 257h166q-75 -376 -371 -427z" />
    <glyph glyph-name="UkaliqPatternSegmentsBcdefg_UkaliqModifierDot" unicode="&#xf1d5f;&#x331;" 
d="M515 -77l-37 -188h-166l37 188h166zM452 435l54 269h166l-71 -352q-70 -352 -303 -352t-163 352l71 352h166l-54 -269h134zM414 269h-125q-8 -103 42 -103t83 103z" />
    <glyph glyph-name="UkaliqPatternSegmentsAg_UkaliqModifierDot" unicode="&#xf1d60;&#x331;" 
d="M169 435h432l-33 -166h-433zM515 -77l-37 -188h-166l37 188h166zM222 704h433l-33 -167h-433z" />
    <glyph glyph-name="UkaliqPatternSegmentsAcg_UkaliqModifierDot" unicode="&#xf1d61;&#x331;" 
d="M169 435q449 0 362 -435h-166q54 269 -230 269zM515 -77l-37 -188h-166l37 188h166zM222 704h433l-33 -167h-433z" />
    <glyph glyph-name="UkaliqPatternSegmentsAfg_UkaliqModifierDot" unicode="&#xf1d62;&#x331;" 
d="M622 537q-283 0 -294 -51q-10 -51 273 -51l-33 -166q-449 0 -406 217q44 218 493 218zM515 -77l-37 -188h-166l37 188h166z" />
    <glyph glyph-name="UkaliqPatternSegmentsAcfg_UkaliqModifierDot" unicode="&#xf1d63;&#x331;" 
d="M515 -77l-37 -188h-166l37 188h166zM622 537q-283 0 -294 -51q-10 -51 157 -51q133 0 102 -154l-56 -281h-166l54 270q-298 11 -257 216q44 218 493 218z" />
    <glyph glyph-name="UkaliqPatternSegmentsAeg_UkaliqModifierDot" unicode="&#xf1d64;&#x331;" 
d="M568 269q-283 0 -337 -269h-166q87 435 536 435zM515 -77l-37 -188h-166l37 188h166zM222 704h433l-33 -167h-433z" />
    <glyph glyph-name="UkaliqPatternSegmentsAceg_UkaliqModifierDot" unicode="&#xf1d65;&#x331;" 
d="M65 0q87 435 320 435t146 -435h-166q54 269 -13 269t-121 -269h-166zM515 -77l-37 -188h-166l37 188h166zM222 704h433l-33 -167h-433z" />
    <glyph glyph-name="UkaliqPatternSegmentsAefg_UkaliqModifierDot" unicode="&#xf1d66;&#x331;" 
d="M515 -77l-37 -188h-166l37 188h166zM284 269l-53 -269h-166l70 352q71 352 520 352l-33 -167q-210 0 -285 -102h264l-33 -166h-284z" />
    <glyph glyph-name="UkaliqPatternSegmentsAcefg_UkaliqModifierDot" unicode="&#xf1d67;&#x331;" 
d="M515 -77l-37 -188h-166l37 188h166zM282 257l-51 -257h-166l70 352q71 352 520 352l-33 -167q-218 0 -291 -110q275 -51 200 -427h-166q42 212 -83 257z" />
    <glyph glyph-name="UkaliqPatternSegmentsAbg_UkaliqModifierDot" unicode="&#xf1d68;&#x331;" 
d="M222 704q450 0 406 -218q-43 -217 -493 -217l34 166q283 0 293 51t-273 51zM515 -77l-37 -188h-166l37 188h166z" />
    <glyph glyph-name="UkaliqPatternSegmentsAbcg_UkaliqModifierDot" unicode="&#xf1d69;&#x331;" 
d="M222 704q450 0 379 -352l-70 -352h-166l53 269h-283l34 166h264q-34 102 -244 102zM515 -77l-37 -188h-166l37 188h166z" />
    <glyph glyph-name="UkaliqPatternSegmentsAbfg_UkaliqModifierDot" unicode="&#xf1d6a;&#x331;" 
d="M515 -77l-37 -188h-166l37 188h166zM328 486q-10 -51 57 -51t77 51t-57 51q-66 0 -77 -51zM162 486q44 218 277 218t189 -218q-43 -217 -276 -217t-190 217z" />
    <glyph glyph-name="UkaliqPatternSegmentsAbcfg_UkaliqModifierDot" unicode="&#xf1d6b;&#x331;" 
d="M515 -77l-37 -188h-166l37 188h166zM447 438q7 99 -42 99q-66 0 -77 -51q-8 -39 119 -48zM419 272q-295 22 -257 214q44 218 277 218t162 -352l-70 -352h-166z" />
    <glyph glyph-name="UkaliqPatternSegmentsAbeg_UkaliqModifierDot" unicode="&#xf1d6c;&#x331;" 
d="M222 704q450 0 406 -218q-41 -206 -343 -216l-54 -270h-166l56 281q31 154 164 154q167 0 177 51t-273 51zM515 -77l-37 -188h-166l37 188h166zM287 280v1v-1z" />
    <glyph glyph-name="UkaliqPatternSegmentsAbceg_UkaliqModifierDot" unicode="&#xf1d6d;&#x331;" 
d="M222 704q450 0 379 -352l-70 -352h-166l51 256q-143 -45 -185 -256h-166q75 375 370 427q-28 110 -246 110zM515 -77l-37 -188h-166l37 188h166z" />
    <glyph glyph-name="UkaliqPatternSegmentsAbefg_UkaliqModifierDot" unicode="&#xf1d6e;&#x331;" 
d="M515 -77l-37 -188h-166l37 188h166zM285 272l-54 -272h-166l70 352q71 352 304 352t189 -218q-38 -192 -343 -214zM323 438q131 9 139 48q10 51 -57 51q-49 0 -82 -99z" />
    <glyph glyph-name="UkaliqPatternSegmentsAbcefg_UkaliqModifierDot" unicode="&#xf1d6f;&#x331;" 
d="M515 -77l-37 -188h-166l37 188h166zM65 0l70 352q71 352 304 352t162 -352l-70 -352h-166l53 269h-134l-53 -269h-166zM322 435h125q8 102 -42 102q-49 0 -83 -102z" />
    <glyph glyph-name="UkaliqPatternSegmentsAdg_UkaliqModifierDot" unicode="&#xf1d70;&#x331;" 
d="M115 166h433l-34 -166h-432zM169 435h432l-33 -166h-433zM515 -77l-37 -188h-166l37 188h166zM222 704h433l-33 -167h-433z" />
    <glyph glyph-name="UkaliqPatternSegmentsAcdg_UkaliqModifierDot" unicode="&#xf1d71;&#x331;" 
d="M169 435q449 0 406 -218q-44 -217 -493 -217l33 166q283 0 293 51q11 52 -273 52zM515 -77l-37 -188h-166l37 188h166zM222 704h433l-33 -167h-433z" />
    <glyph glyph-name="UkaliqPatternSegmentsAdfg_UkaliqModifierDot" unicode="&#xf1d72;&#x331;" 
d="M622 537q-283 0 -294 -51q-10 -51 273 -51l-33 -166q-449 0 -406 217q44 218 493 218zM115 166h433l-34 -166h-432zM515 -77l-37 -188h-166l37 188h166z" />
    <glyph glyph-name="UkaliqPatternSegmentsAcdfg_UkaliqModifierDot" unicode="&#xf1d73;&#x331;" 
d="M515 -77l-37 -188h-166l37 188h166zM622 537q-283 0 -294 -51q-10 -51 157 -51q133 0 107 -128q-61 -307 -510 -307l33 166q243 0 298 104q-291 12 -251 216q44 218 493 218z" />
    <glyph glyph-name="UkaliqPatternSegmentsAdeg_UkaliqModifierDot" unicode="&#xf1d74;&#x331;" 
d="M568 269q-283 0 -293 -52q-11 -51 273 -51l-34 -166q-449 0 -406 217q44 218 493 218zM515 -77l-37 -188h-166l37 188h166zM222 704h433l-33 -167h-433z" />
    <glyph glyph-name="UkaliqPatternSegmentsAcdeg_UkaliqModifierDot" unicode="&#xf1d75;&#x331;" 
d="M515 -77l-37 -188h-166l37 188h166zM222 704h433l-33 -167h-433zM275 217q-11 -51 56 -51t77 51q11 52 -56 52t-77 -52zM108 217q44 218 277 218t190 -218q-44 -217 -277 -217t-190 217z" />
    <glyph glyph-name="UkaliqPatternSegmentsAdefg_UkaliqModifierDot" unicode="&#xf1d76;&#x331;" 
d="M515 -77l-37 -188h-166l37 188h166zM303 269q34 -103 245 -103l-34 -166q-449 0 -379 352q71 352 520 352l-33 -167q-210 0 -285 -102h264l-33 -166h-265z" />
    <glyph glyph-name="UkaliqPatternSegmentsAcdefg_UkaliqModifierDot" unicode="&#xf1d77;&#x331;" 
d="M515 -77l-37 -188h-166l37 188h166zM289 266q-7 -100 42 -100q67 0 77 51q9 40 -119 49zM334 431q278 -26 241 -214q-44 -217 -277 -217t-163 352q71 352 520 352l-33 -167q-214 0 -288 -106z" />
    <glyph glyph-name="UkaliqPatternSegmentsAbdg_UkaliqModifierDot" unicode="&#xf1d78;&#x331;" 
d="M115 166h433l-34 -166h-432zM222 704q450 0 406 -218q-43 -217 -493 -217l34 166q283 0 293 51t-273 51zM515 -77l-37 -188h-166l37 188h166z" />
    <glyph glyph-name="UkaliqPatternSegmentsAbcdg_UkaliqModifierDot" unicode="&#xf1d79;&#x331;" 
d="M222 704q450 0 379 -352q-70 -352 -519 -352l33 166q211 0 285 103h-265l34 166h264q-34 102 -244 102zM515 -77l-37 -188h-166l37 188h166z" />
    <glyph glyph-name="UkaliqPatternSegmentsAbdfg_UkaliqModifierDot" unicode="&#xf1d7a;&#x331;" 
d="M115 166h433l-34 -166h-432zM515 -77l-37 -188h-166l37 188h166zM328 486q-10 -51 57 -51t77 51t-57 51q-66 0 -77 -51zM162 486q44 218 277 218t189 -218q-43 -217 -276 -217t-190 217z" />
    <glyph glyph-name="UkaliqPatternSegmentsAbcdfg_UkaliqModifierDot" unicode="&#xf1d7b;&#x331;" 
d="M515 -77l-37 -188h-166l37 188h166zM447 438q7 99 -42 99q-66 0 -77 -51q-8 -39 119 -48zM403 273q-278 26 -241 213q44 218 277 218t162 -352q-70 -352 -519 -352l33 166q215 0 288 107z" />
    <glyph glyph-name="UkaliqPatternSegmentsAbdeg_UkaliqModifierDot" unicode="&#xf1d7c;&#x331;" 
d="M222 704q450 0 406 -218q-40 -204 -338 -216q14 -104 258 -104l-34 -166q-449 0 -388 307q26 128 159 128q167 0 177 51t-273 51zM515 -77l-37 -188h-166l37 188h166zM292 305v2v-2z" />
    <glyph glyph-name="UkaliqPatternSegmentsAbcdeg_UkaliqModifierDot" unicode="&#xf1d7d;&#x331;" 
d="M222 704q450 0 379 -352q-70 -352 -303 -352t-190 217q38 187 326 214q-31 106 -245 106zM515 -77l-37 -188h-166l37 188h166zM413 266q-131 -9 -138 -49q-11 -51 56 -51q49 0 82 100z" />
    <glyph glyph-name="UkaliqPatternSegmentsAbdefg_UkaliqModifierDot" unicode="&#xf1d7e;&#x331;" 
d="M515 -77l-37 -188h-166l37 188h166zM302 273q31 -107 246 -107l-34 -166q-449 0 -379 352q71 352 304 352t189 -218q-37 -187 -326 -213zM323 438q131 9 139 48q10 51 -57 51q-49 0 -82 -99z" />
    <glyph glyph-name="UkaliqPatternSegmentsAbcdefg_UkaliqModifierDot" unicode="&#xf1d7f;&#x331;" 
d="M515 -77l-37 -188h-166l37 188h166zM322 435h125q8 102 -42 102q-49 0 -83 -102zM414 269h-125q-8 -103 42 -103t83 103zM135 352q71 352 304 352t162 -352q-70 -352 -303 -352t-163 352z" />
    <glyph glyph-name=".notdef" 
d="M115 166h433l-34 -166h-432zM515 -77l-37 -188h-166l37 188h166z" />
    <glyph glyph-name="NULL" horiz-adv-x="0" 
 />
    <glyph glyph-name="uni000D" unicode="&#xd;" horiz-adv-x="0" 
 />
    <glyph glyph-name="uni200D" unicode="&#x200d;" horiz-adv-x="0" 
 />
    <glyph glyph-name="uni200B" unicode="&#x200b;" horiz-adv-x="0" 
 />
    <glyph glyph-name="uni200C" unicode="&#x200c;" horiz-adv-x="0" 
 />
    <glyph glyph-name="uniFEFF" unicode="&#xfeff;" horiz-adv-x="0" 
 />
    <glyph glyph-name="space" unicode=" " 
 />
    <glyph glyph-name="uni00A0" unicode="&#xa0;" 
 />
    <glyph glyph-name="UkaliqModifierDot" unicode="&#x331;" 
d="M515 -77l-37 -188h-166l37 188h166z" />
    <glyph glyph-name="uni2002" unicode="&#x2002;" 
 />
    <glyph glyph-name="uni2007" unicode="&#x2007;" 
 />
    <glyph glyph-name="uni2B1B" unicode="&#x2b1b;" 
d="M0 946h578v-1242h-578v1242z" />
    <glyph glyph-name="UkaliqSpace" unicode="&#xee00;" 
 />
    <glyph glyph-name="UkaliqNumber" unicode="&#xee01;" 
d="M618 435l-87 -435h-166l87 435h166z" />
    <glyph glyph-name="UkaliqRightSingleQuotationMark" unicode="&#xee02;" 
d="M372 704l-87 -435h-166l87 435h166z" />
    <glyph glyph-name="UkaliqColon" unicode="&#xee03;" 
d="M618 435l-87 -435h-166l87 435h166zM372 704l-87 -435h-166l87 435h166z" />
    <glyph glyph-name="UkaliqFullStop" unicode="&#xee04;" 
d="M318 435l-87 -435h-166l87 435h166z" />
    <glyph glyph-name="UkaliqComma" unicode="&#xee05;" 
d="M618 435l-87 -435h-166l87 435h166zM318 435l-87 -435h-166l87 435h166z" />
    <glyph glyph-name="UkaliqRightParenthesis" unicode="&#xee06;" 
d="M372 704l-141 -704h-166l141 704h166z" />
    <glyph glyph-name="UkaliqExclamationMark" unicode="&#xee07;" 
d="M372 704l-141 -704h-166l141 704h166zM618 435l-87 -435h-166l87 435h166z" />
    <glyph glyph-name="UkaliqLeftSingleQuotationMark" unicode="&#xee08;" 
d="M672 704l-87 -435h-166l87 435h166z" />
    <glyph glyph-name="UkaliqLeftParenthesis" unicode="&#xee09;" 
d="M672 704l-141 -704h-166l141 704h166z" />
    <glyph glyph-name="UkaliqDoubleQuotationMark" unicode="&#xee0a;" 
d="M372 704l-87 -435h-166l87 435h166zM672 704l-87 -435h-166l87 435h166z" />
    <glyph glyph-name="UkaliqReversedQuestionMark" unicode="&#xee0b;" 
d="M672 704l-141 -704h-166l141 704h166zM372 704l-87 -435h-166l87 435h166z" />
    <glyph glyph-name="UkaliqSemicolon" unicode="&#xee0c;" 
d="M672 704l-87 -435h-166l87 435h166zM318 435l-87 -435h-166l87 435h166z" />
    <glyph glyph-name="UkaliqReversedExclamationMark" unicode="&#xee0d;" 
d="M672 704l-141 -704h-166l141 704h166zM318 435l-87 -435h-166l87 435h166z" />
    <glyph glyph-name="UkaliqQuestionMark" unicode="&#xee0e;" 
d="M372 704l-141 -704h-166l141 704h166zM672 704l-87 -435h-166l87 435h166z" />
    <glyph glyph-name="UkaliqEquals" unicode="&#xee0f;" 
d="M672 704l-141 -704h-166l141 704h166zM372 704l-141 -704h-166l141 704h166z" />
    <glyph glyph-name="UkaliqHyphen" unicode="&#xee10;" 
d="M115 166h433l-34 -166h-432z" />
    <glyph glyph-name="UkaliqLetterOzo" unicode="&#xee11;" 
d="M618 435q-87 -435 -536 -435l33 166q283 0 337 269h166z" />
    <glyph glyph-name="UkaliqGreaterThan" unicode="&#xee12;" 
d="M115 166h433l-34 -166h-432zM372 704l-87 -435h-166l87 435h166z" />
    <glyph glyph-name="UkaliqLetterAtlha" unicode="&#xee13;" 
d="M372 704l-87 -435h-166l87 435h166zM618 435q-87 -435 -536 -435l33 166q283 0 337 269h166z" />
    <glyph glyph-name="UkaliqLetterEdzre" unicode="&#xee14;" 
d="M318 435q-54 -269 230 -269l-34 -166q-449 0 -362 435h166z" />
    <glyph glyph-name="UkaliqOr" unicode="&#xee15;" 
d="M318 435q-54 -269 13 -269t121 269h166q-87 -435 -320 -435t-146 435h166z" />
    <glyph glyph-name="UkaliqLetterIdzji" unicode="&#xee16;" 
d="M372 704l-42 -207q-66 -331 218 -331l-34 -166q-449 0 -350 497l42 207h166z" />
    <glyph glyph-name="UkaliqLetterOdzo" unicode="&#xee17;" 
d="M372 704l-42 -207q-66 -331 1 -331t121 269h166q-87 -435 -320 -435t-134 497l42 207h166z" />
    <glyph glyph-name="UkaliqLessThan" unicode="&#xee18;" 
d="M115 166h433l-34 -166h-432zM672 704l-87 -435h-166l87 435h166z" />
    <glyph glyph-name="UkaliqLetterOso" unicode="&#xee19;" 
d="M672 704l-42 -207q-99 -497 -548 -497l33 166q283 0 349 331l42 207h166z" />
    <glyph glyph-name="UkaliqMultiplication" unicode="&#xee1a;" 
d="M115 166h433l-34 -166h-432zM372 704l-87 -435h-166l87 435h166zM672 704l-87 -435h-166l87 435h166z" />
    <glyph glyph-name="UkaliqLetterApfa" unicode="&#xee1b;" 
d="M372 704l-87 -435h-166l87 435h166zM672 704l-42 -207q-99 -497 -548 -497l33 166q283 0 349 331l42 207h166z" />
    <glyph glyph-name="UkaliqLetterEtsre" unicode="&#xee1c;" 
d="M318 435q-54 -269 230 -269l-34 -166q-449 0 -362 435h166zM672 704l-87 -435h-166l87 435h166z" />
    <glyph glyph-name="UkaliqLetterUkkhu" unicode="&#xee1d;" 
d="M672 704l-42 -207q-99 -497 -332 -497t-146 435h166q-54 -269 13 -269t133 331l42 207h166z" />
    <glyph glyph-name="UkaliqLetterItsji" unicode="&#xee1e;" 
d="M372 704l-42 -207q-66 -331 218 -331l-34 -166q-449 0 -350 497l42 207h166zM672 704l-87 -435h-166l87 435h166z" />
    <glyph glyph-name="UkaliqLetterOtso" unicode="&#xee1f;" 
d="M372 704l-42 -207q-66 -331 1 -331t133 331l42 207h166l-42 -207q-99 -497 -332 -497t-134 497l42 207h166z" />
    <glyph glyph-name="UkaliqRange" unicode="&#xee20;" 
d="M222 704h433l-33 -167h-433z" />
    <glyph glyph-name="UkaliqLetterEo" unicode="&#xee21;" 
d="M618 435l-87 -435h-166l87 435h166zM222 704h433l-33 -167h-433z" />
    <glyph glyph-name="UkaliqLetterUh" unicode="&#xee22;" 
d="M622 537q-283 0 -337 -268h-166q87 435 536 435z" />
    <glyph glyph-name="UkaliqLetterEu" unicode="&#xee23;" 
d="M618 435l-87 -435h-166l87 435h166zM622 537q-283 0 -337 -268h-166q87 435 536 435z" />
    <glyph glyph-name="UkaliqLetterOe" unicode="&#xee24;" 
d="M318 435l-87 -435h-166l87 435h166zM222 704h433l-33 -167h-433z" />
    <glyph glyph-name="UkaliqLetterOeh" unicode="&#xee25;" 
d="M618 435l-87 -435h-166l87 435h166zM318 435l-87 -435h-166l87 435h166zM222 704h433l-33 -167h-433z" />
    <glyph glyph-name="UkaliqLetterUi" unicode="&#xee26;" 
d="M622 537q-283 0 -350 -330l-41 -207h-166l41 207q100 497 549 497z" />
    <glyph glyph-name="UkaliqLetterAh" unicode="&#xee27;" 
d="M622 537q-283 0 -350 -330l-41 -207h-166l41 207q100 497 549 497zM618 435l-87 -435h-166l87 435h166z" />
    <glyph glyph-name="UkaliqLetterAe" unicode="&#xee28;" 
d="M222 704q450 0 363 -435h-166q53 268 -230 268z" />
    <glyph glyph-name="UkaliqLetterO" unicode="&#xee29;" 
d="M222 704q450 0 350 -497l-41 -207h-166l41 207q66 330 -217 330z" />
    <glyph glyph-name="UkaliqLetterIh" unicode="&#xee2a;" 
d="M119 269q87 435 320 435t146 -435h-166q53 268 -14 268q-66 0 -120 -268h-166z" />
    <glyph glyph-name="UkaliqLetterU" unicode="&#xee2b;" 
d="M119 269q87 435 320 435t133 -497l-41 -207h-166l41 207q66 330 -1 330q-66 0 -120 -268h-166z" />
    <glyph glyph-name="UkaliqLetterE" unicode="&#xee2c;" 
d="M222 704q450 0 363 -435h-166q53 268 -230 268zM318 435l-87 -435h-166l87 435h166z" />
    <glyph glyph-name="UkaliqLetterEh" unicode="&#xee2d;" 
d="M222 704q450 0 350 -497l-41 -207h-166l41 207q66 330 -217 330zM318 435l-87 -435h-166l87 435h166z" />
    <glyph glyph-name="UkaliqLetterI" unicode="&#xee2e;" 
d="M419 269q53 268 -14 268q-66 0 -133 -330l-41 -207h-166l41 207q100 497 333 497t146 -435h-166z" />
    <glyph glyph-name="UkaliqLetterOh" unicode="&#xee2f;" 
d="M65 0l41 207q100 497 333 497t133 -497l-41 -207h-166l41 207q66 330 -1 330q-66 0 -133 -330l-41 -207h-166z" />
    <glyph glyph-name="UkaliqPlus" unicode="&#xee30;" 
d="M115 166h433l-34 -166h-432zM222 704h433l-33 -167h-433z" />
    <glyph glyph-name="UkaliqCurrency" unicode="&#xee31;" 
d="M618 435q-87 -435 -536 -435l33 166q283 0 337 269h166zM222 704h433l-33 -167h-433z" />
    <glyph glyph-name="UkaliqAt" unicode="&#xee32;" 
d="M115 166h433l-34 -166h-432zM622 537q-283 0 -337 -268h-166q87 435 536 435z" />
    <glyph glyph-name="UkaliqLetterAlha" unicode="&#xee33;" 
d="M622 537q-283 0 -337 -268h-166q87 435 536 435zM618 435q-87 -435 -536 -435l33 166q283 0 337 269h166z" />
    <glyph glyph-name="UkaliqLetterElre" unicode="&#xee34;" 
d="M318 435q-54 -269 230 -269l-34 -166q-449 0 -362 435h166zM222 704h433l-33 -167h-433z" />
    <glyph glyph-name="UkaliqLetterUlgu" unicode="&#xee35;" 
d="M318 435q-54 -269 13 -269t121 269h166q-87 -435 -320 -435t-146 435h166zM222 704h433l-33 -167h-433z" />
    <glyph glyph-name="UkaliqLetterIlji" unicode="&#xee36;" 
d="M622 537q-283 0 -321 -185q-37 -186 247 -186l-34 -166q-449 0 -379 352q71 352 520 352z" />
    <glyph glyph-name="UkaliqLetterOlo" unicode="&#xee37;" 
d="M622 537q-283 0 -321 -185q-37 -186 30 -186t121 269h166q-87 -435 -320 -435t-163 352q71 352 520 352z" />
    <glyph glyph-name="UkaliqDegree" unicode="&#xee38;" 
d="M115 166h433l-34 -166h-432zM222 704q450 0 363 -435h-166q53 268 -230 268z" />
    <glyph glyph-name="UkaliqLetterHbat" unicode="&#xee39;" 
d="M222 704q450 0 379 -352q-70 -352 -519 -352l33 166q283 0 320 186q37 185 -246 185z" />
    <glyph glyph-name="UkaliqLetterAnqa" unicode="&#xee3a;" 
d="M115 166h433l-34 -166h-432zM119 269q87 435 320 435t146 -435h-166q53 268 -14 268q-66 0 -120 -268h-166z" />
    <glyph glyph-name="UkaliqLetterAma" unicode="&#xee3b;" 
d="M119 269q87 435 320 435t162 -352q-70 -352 -519 -352l33 166q283 0 320 186q37 185 -30 185q-66 0 -120 -268h-166z" />
    <glyph glyph-name="UkaliqLetterEnre" unicode="&#xee3c;" 
d="M222 704q450 0 363 -435h-166q53 268 -230 268zM318 435q-54 -269 230 -269l-34 -166q-449 0 -362 435h166z" />
    <glyph glyph-name="UkaliqLetterUngu" unicode="&#xee3d;" 
d="M222 704q450 0 379 -352q-70 -352 -303 -352t-146 435h166q-54 -269 13 -269t104 186q37 185 -246 185z" />
    <glyph glyph-name="UkaliqLetterInji" unicode="&#xee3e;" 
d="M419 269q53 268 -14 268q-66 0 -104 -185q-37 -186 247 -186l-34 -166q-449 0 -379 352q71 352 304 352t146 -435h-166z" />
    <glyph glyph-name="UkaliqLetterOno" unicode="&#xee3f;" 
d="M301 352q-37 -186 30 -186t104 186q37 185 -30 185q-66 0 -104 -185zM135 352q71 352 304 352t162 -352q-70 -352 -303 -352t-163 352z" />
    <glyph glyph-name="UkaliqDash" unicode="&#xee40;" 
d="M169 435h432l-33 -166h-433z" />
    <glyph glyph-name="UkaliqLetterA" unicode="&#xee41;" 
d="M169 435q449 0 362 -435h-166q54 269 -230 269z" />
    <glyph glyph-name="UkaliqMinus" unicode="&#xee42;" 
d="M372 704q-54 -269 229 -269l-33 -166q-449 0 -362 435h166z" />
    <glyph glyph-name="UkaliqLetterAwa" unicode="&#xee43;" 
d="M372 704q-54 -269 113 -269q133 0 102 -154l-56 -281h-166l54 270q-295 21 -213 434h166z" />
    <glyph glyph-name="UkaliqLetterErre" unicode="&#xee44;" 
d="M568 269q-283 0 -337 -269h-166q87 435 536 435z" />
    <glyph glyph-name="UkaliqAnd" unicode="&#xee45;" 
d="M65 0q87 435 320 435t146 -435h-166q54 269 -13 269t-121 -269h-166z" />
    <glyph glyph-name="UkaliqLetterIzji" unicode="&#xee46;" 
d="M284 269l-53 -269h-166l70 352l71 352h166l-54 -269h283l-33 -166h-284z" />
    <glyph glyph-name="UkaliqLetterOro" unicode="&#xee47;" 
d="M282 257l-51 -257h-166l70 352l71 352h166l-55 -275q291 -44 214 -429h-166q42 212 -83 257z" />
    <glyph glyph-name="UkaliqNot" unicode="&#xee48;" 
d="M672 704q-87 -435 -537 -435l34 166q283 0 337 269h166z" />
    <glyph glyph-name="UkaliqDivision" unicode="&#xee49;" 
d="M672 704l-71 -352l-70 -352h-166l53 269h-283l34 166h283l54 269h166z" />
    <glyph glyph-name="UkaliqXor" unicode="&#xee4a;" 
d="M372 704q-54 -269 13 -269t121 269h166q-87 -435 -320 -435t-146 435h166z" />
    <glyph glyph-name="uniEE4B" unicode="&#xee4b;" 
d="M372 704q-42 -211 82 -257l52 257h166l-71 -352l-70 -352h-166l55 275q-291 45 -214 429h166z" />
    <glyph glyph-name="UkaliqLetterIji" unicode="&#xee4c;" 
d="M287 280v1v-1zM285 270l-54 -270h-166l56 281q31 154 164 154q167 0 221 269h166q-82 -413 -387 -434z" />
    <glyph glyph-name="UkaliqLetterTkot" unicode="&#xee4d;" 
d="M672 704l-71 -352l-70 -352h-166l51 256q-143 -45 -185 -256h-166q77 385 386 429l55 275h166z" />
    <glyph glyph-name="UkaliqLetterIsji" unicode="&#xee4e;" 
d="M286 275l-55 -275h-166l70 352l71 352h166l-52 -257q143 45 186 257h166q-77 -385 -386 -429z" />
    <glyph glyph-name="UkaliqLetterOrro" unicode="&#xee4f;" 
d="M672 704l-71 -352l-70 -352h-166l53 269h-134l-53 -269h-166l70 352l71 352h166l-54 -269h134l54 269h166z" />
    <glyph glyph-name="UkaliqDigitZero" unicode="&#xee50;" 
d="M115 166h433l-34 -166h-432zM169 435h432l-33 -166h-433z" />
    <glyph glyph-name="UkaliqDigitOne" unicode="&#xee51;" 
d="M169 435q449 0 406 -218q-44 -217 -493 -217l33 166q283 0 293 51q11 52 -273 52z" />
    <glyph glyph-name="UkaliqDigitTwo" unicode="&#xee52;" 
d="M372 704q-54 -269 229 -269l-33 -166q-449 0 -362 435h166zM115 166h433l-34 -166h-432z" />
    <glyph glyph-name="UkaliqDigitThree" unicode="&#xee53;" 
d="M372 704q-54 -269 113 -269q133 0 107 -128q-61 -307 -510 -307l33 166q244 0 298 105q-289 25 -207 433h166z" />
    <glyph glyph-name="UkaliqDigitFour" unicode="&#xee54;" 
d="M568 269q-283 0 -293 -52q-11 -51 273 -51l-34 -166q-449 0 -406 217q44 218 493 218z" />
    <glyph glyph-name="UkaliqDigitFive" unicode="&#xee55;" 
d="M275 217q-11 -51 56 -51t77 51q11 52 -56 52t-77 -52zM108 217q44 218 277 218t190 -218q-44 -217 -277 -217t-190 217z" />
    <glyph glyph-name="UkaliqDigitSix" unicode="&#xee56;" 
d="M303 269q34 -103 245 -103l-34 -166q-449 0 -379 352l71 352h166l-54 -269h283l-33 -166h-265z" />
    <glyph glyph-name="UkaliqDigitSeven" unicode="&#xee57;" 
d="M289 266q-7 -100 42 -100q67 0 77 51q9 40 -119 49zM317 432q296 -22 258 -215q-44 -217 -277 -217t-163 352l71 352h166z" />
    <glyph glyph-name="UkaliqDigitEight" unicode="&#xee58;" 
d="M115 166h433l-34 -166h-432zM672 704q-87 -435 -537 -435l34 166q283 0 337 269h166z" />
    <glyph glyph-name="UkaliqDigitNine" unicode="&#xee59;" 
d="M672 704l-71 -352q-70 -352 -519 -352l33 166q211 0 285 103h-265l34 166h283l54 269h166z" />
    <glyph glyph-name="UkaliqDigitTen" unicode="&#xee5a;" 
d="M372 704q-54 -269 13 -269t121 269h166q-87 -435 -320 -435t-146 435h166zM115 166h433l-34 -166h-432z" />
    <glyph glyph-name="UkaliqDigitEleven" unicode="&#xee5b;" 
d="M372 704q-42 -211 82 -257l52 257h166l-71 -352q-70 -352 -519 -352l33 166q219 0 291 111q-275 52 -200 427h166z" />
    <glyph glyph-name="UkaliqDigitTwelve" unicode="&#xee5c;" 
d="M292 305v2v-2zM290 270q13 -104 258 -104l-34 -166q-449 0 -388 307q26 128 159 128q167 0 221 269h166q-82 -410 -382 -434z" />
    <glyph glyph-name="UkaliqDigitThirteen" unicode="&#xee5d;" 
d="M672 704l-71 -352q-70 -352 -303 -352t-190 217q39 193 343 215l55 272h166zM413 266q-131 -9 -138 -49q-11 -51 56 -51q49 0 82 100z" />
    <glyph glyph-name="UkaliqDigitFourteen" unicode="&#xee5e;" 
d="M301 277q28 -111 247 -111l-34 -166q-449 0 -379 352l71 352h166l-52 -257q143 45 186 257h166q-75 -376 -371 -427z" />
    <glyph glyph-name="UkaliqDigitFifteen" unicode="&#xee5f;" 
d="M452 435l54 269h166l-71 -352q-70 -352 -303 -352t-163 352l71 352h166l-54 -269h134zM414 269h-125q-8 -103 42 -103t83 103z" />
    <glyph glyph-name="UkaliqLetterSchwa" unicode="&#xee60;" 
d="M169 435h432l-33 -166h-433zM222 704h433l-33 -167h-433z" />
    <glyph glyph-name="UkaliqLetterOhgo" unicode="&#xee61;" 
d="M169 435q449 0 362 -435h-166q54 269 -230 269zM222 704h433l-33 -167h-433z" />
    <glyph glyph-name="UkaliqLetterArha" unicode="&#xee62;" 
d="M622 537q-283 0 -294 -51q-10 -51 273 -51l-33 -166q-449 0 -406 217q44 218 493 218z" />
    <glyph glyph-name="UkaliqLetterAva" unicode="&#xee63;" 
d="M622 537q-283 0 -294 -51q-10 -51 157 -51q133 0 102 -154l-56 -281h-166l54 270q-298 11 -257 216q44 218 493 218z" />
    <glyph glyph-name="UkaliqLetterEzre" unicode="&#xee64;" 
d="M568 269q-283 0 -337 -269h-166q87 435 536 435zM222 704h433l-33 -167h-433z" />
    <glyph glyph-name="UkaliqLetterUghu" unicode="&#xee65;" 
d="M65 0q87 435 320 435t146 -435h-166q54 269 -13 269t-121 -269h-166zM222 704h433l-33 -167h-433z" />
    <glyph glyph-name="UkaliqLetterIjji" unicode="&#xee66;" 
d="M284 269l-53 -269h-166l70 352q71 352 520 352l-33 -167q-210 0 -285 -102h264l-33 -166h-284z" />
    <glyph glyph-name="UkaliqLetterOdho" unicode="&#xee67;" 
d="M282 257l-51 -257h-166l70 352q71 352 520 352l-33 -167q-218 0 -291 -110q275 -51 200 -427h-166q42 212 -83 257z" />
    <glyph glyph-name="UkaliqLetterOhho" unicode="&#xee68;" 
d="M222 704q450 0 406 -218q-43 -217 -493 -217l34 166q283 0 293 51t-273 51z" />
    <glyph glyph-name="UkaliqLetterAha" unicode="&#xee69;" 
d="M222 704q450 0 379 -352l-70 -352h-166l53 269h-283l34 166h264q-34 102 -244 102z" />
    <glyph glyph-name="UkaliqLetterAqha" unicode="&#xee6a;" 
d="M328 486q-10 -51 57 -51t77 51t-57 51q-66 0 -77 -51zM162 486q44 218 277 218t189 -218q-43 -217 -276 -217t-190 217z" />
    <glyph glyph-name="UkaliqLetterAfa" unicode="&#xee6b;" 
d="M447 438q7 99 -42 99q-66 0 -77 -51q-8 -39 119 -48zM419 272q-295 22 -257 214q44 218 277 218t162 -352l-70 -352h-166z" />
    <glyph glyph-name="UkaliqLetterEsre" unicode="&#xee6c;" 
d="M222 704q450 0 406 -218q-41 -206 -343 -216l-54 -270h-166l56 281q31 154 164 154q167 0 177 51t-273 51zM287 280v1v-1z" />
    <glyph glyph-name="UkaliqLetterUkhu" unicode="&#xee6d;" 
d="M222 704q450 0 379 -352l-70 -352h-166l51 256q-143 -45 -185 -256h-166q75 375 370 427q-28 110 -246 110z" />
    <glyph glyph-name="UkaliqLetterIcji" unicode="&#xee6e;" 
d="M285 272l-54 -272h-166l70 352q71 352 304 352t189 -218q-38 -192 -343 -214zM323 438q131 9 139 48q10 51 -57 51q-49 0 -82 -99z" />
    <glyph glyph-name="UkaliqLetterOtho" unicode="&#xee6f;" 
d="M65 0l70 352q71 352 304 352t162 -352l-70 -352h-166l53 269h-134l-53 -269h-166zM322 435h125q8 102 -42 102q-49 0 -83 -102z" />
    <glyph glyph-name="UkaliqIterationMark" unicode="&#xee70;" 
d="M115 166h433l-34 -166h-432zM169 435h432l-33 -166h-433zM222 704h433l-33 -167h-433z" />
    <glyph glyph-name="UkaliqPercent" unicode="&#xee71;" 
d="M169 435q449 0 406 -218q-44 -217 -493 -217l33 166q283 0 293 51q11 52 -273 52zM222 704h433l-33 -167h-433z" />
    <glyph glyph-name="UkaliqLetterAgqa" unicode="&#xee72;" 
d="M622 537q-283 0 -294 -51q-10 -51 273 -51l-33 -166q-449 0 -406 217q44 218 493 218zM115 166h433l-34 -166h-432z" />
    <glyph glyph-name="UkaliqLetterAba" unicode="&#xee73;" 
d="M622 537q-283 0 -294 -51q-10 -51 157 -51q133 0 107 -128q-61 -307 -510 -307l33 166q243 0 298 104q-291 12 -251 216q44 218 493 218z" />
    <glyph glyph-name="UkaliqLetterEdre" unicode="&#xee74;" 
d="M568 269q-283 0 -293 -52q-11 -51 273 -51l-34 -166q-449 0 -406 217q44 218 493 218zM222 704h433l-33 -167h-433z" />
    <glyph glyph-name="UkaliqLetterUgu" unicode="&#xee75;" 
d="M222 704h433l-33 -167h-433zM275 217q-11 -51 56 -51t77 51q11 52 -56 52t-77 -52zM108 217q44 218 277 218t190 -218q-44 -217 -277 -217t-190 217z" />
    <glyph glyph-name="UkaliqLetterIgji" unicode="&#xee76;" 
d="M303 269q34 -103 245 -103l-34 -166q-449 0 -379 352q71 352 520 352l-33 -167q-210 0 -285 -102h264l-33 -166h-265z" />
    <glyph glyph-name="UkaliqLetterOdo" unicode="&#xee77;" 
d="M289 266q-7 -100 42 -100q67 0 77 51q9 40 -119 49zM334 431q278 -26 241 -214q-44 -217 -277 -217t-163 352q71 352 520 352l-33 -167q-214 0 -288 -106z" />
    <glyph glyph-name="UkaliqLetterOhhko" unicode="&#xee78;" 
d="M115 166h433l-34 -166h-432zM222 704q450 0 406 -218q-43 -217 -493 -217l34 166q283 0 293 51t-273 51z" />
    <glyph glyph-name="UkaliqLetterAhka" unicode="&#xee79;" 
d="M222 704q450 0 379 -352q-70 -352 -519 -352l33 166q211 0 285 103h-265l34 166h264q-34 102 -244 102z" />
    <glyph glyph-name="UkaliqLetterAqa" unicode="&#xee7a;" 
d="M115 166h433l-34 -166h-432zM328 486q-10 -51 57 -51t77 51t-57 51q-66 0 -77 -51zM162 486q44 218 277 218t189 -218q-43 -217 -276 -217t-190 217z" />
    <glyph glyph-name="UkaliqLetterApa" unicode="&#xee7b;" 
d="M447 438q7 99 -42 99q-66 0 -77 -51q-8 -39 119 -48zM403 273q-278 26 -241 213q44 218 277 218t162 -352q-70 -352 -519 -352l33 166q215 0 288 107z" />
    <glyph glyph-name="UkaliqLetterEtre" unicode="&#xee7c;" 
d="M222 704q450 0 406 -218q-40 -204 -338 -216q14 -104 258 -104l-34 -166q-449 0 -388 307q26 128 159 128q167 0 177 51t-273 51zM292 305v2v-2z" />
    <glyph glyph-name="UkaliqLetterUku" unicode="&#xee7d;" 
d="M222 704q450 0 379 -352q-70 -352 -303 -352t-190 217q38 187 326 214q-31 106 -245 106zM413 266q-131 -9 -138 -49q-11 -51 56 -51q49 0 82 100z" />
    <glyph glyph-name="UkaliqLetterIci" unicode="&#xee7e;" 
d="M302 273q31 -107 246 -107l-34 -166q-449 0 -379 352q71 352 304 352t189 -218q-37 -187 -326 -213zM323 438q131 9 139 48q10 51 -57 51q-49 0 -82 -99z" />
    <glyph glyph-name="UkaliqLetterOto" unicode="&#xee7f;" 
d="M322 435h125q8 102 -42 102q-49 0 -83 -102zM414 269h-125q-8 -103 42 -103t83 103zM135 352q71 352 304 352t162 -352q-70 -352 -303 -352t-163 352z" />
    <glyph glyph-name="UkaliqDot" unicode="&#xee80;" 
d="M515 -77l-37 -188h-166l37 188h166z" />
    <glyph glyph-name="UkaliqNumberWithDot" unicode="&#xee81;" 
d="M618 435l-87 -435h-166l87 435h166zM515 -77l-37 -188h-166l37 188h166z" />
    <glyph glyph-name="UkaliqRightSingleQuotationMarkWithDot" unicode="&#xee82;" 
d="M372 704l-87 -435h-166l87 435h166zM515 -77l-37 -188h-166l37 188h166z" />
    <glyph glyph-name="UkaliqColonWithDot" unicode="&#xee83;" 
d="M618 435l-87 -435h-166l87 435h166zM372 704l-87 -435h-166l87 435h166zM515 -77l-37 -188h-166l37 188h166z" />
    <glyph glyph-name="UkaliqFullStopWithDot" unicode="&#xee84;" 
d="M318 435l-87 -435h-166l87 435h166zM515 -77l-37 -188h-166l37 188h166z" />
    <glyph glyph-name="UkaliqCommaWithDot" unicode="&#xee85;" 
d="M618 435l-87 -435h-166l87 435h166zM318 435l-87 -435h-166l87 435h166zM515 -77l-37 -188h-166l37 188h166z" />
    <glyph glyph-name="UkaliqRightParenthesisWithDot" unicode="&#xee86;" 
d="M372 704l-141 -704h-166l141 704h166zM515 -77l-37 -188h-166l37 188h166z" />
    <glyph glyph-name="UkaliqExclamationMarkWithDot" unicode="&#xee87;" 
d="M372 704l-141 -704h-166l141 704h166zM618 435l-87 -435h-166l87 435h166zM515 -77l-37 -188h-166l37 188h166z" />
    <glyph glyph-name="UkaliqLeftSingleQuotationMarkWithDot" unicode="&#xee88;" 
d="M672 704l-87 -435h-166l87 435h166zM515 -77l-37 -188h-166l37 188h166z" />
    <glyph glyph-name="UkaliqLeftParenthesisWithDot" unicode="&#xee89;" 
d="M672 704l-141 -704h-166l141 704h166zM515 -77l-37 -188h-166l37 188h166z" />
    <glyph glyph-name="UkaliqDoubleQuotationMarkWithDot" unicode="&#xee8a;" 
d="M372 704l-87 -435h-166l87 435h166zM672 704l-87 -435h-166l87 435h166zM515 -77l-37 -188h-166l37 188h166z" />
    <glyph glyph-name="UkaliqReversedQuestionMarkWithDot" unicode="&#xee8b;" 
d="M672 704l-141 -704h-166l141 704h166zM372 704l-87 -435h-166l87 435h166zM515 -77l-37 -188h-166l37 188h166z" />
    <glyph glyph-name="UkaliqSemicolonWithDot" unicode="&#xee8c;" 
d="M672 704l-87 -435h-166l87 435h166zM318 435l-87 -435h-166l87 435h166zM515 -77l-37 -188h-166l37 188h166z" />
    <glyph glyph-name="UkaliqReversedExclamationMarkWithDot" unicode="&#xee8d;" 
d="M672 704l-141 -704h-166l141 704h166zM318 435l-87 -435h-166l87 435h166zM515 -77l-37 -188h-166l37 188h166z" />
    <glyph glyph-name="UkaliqQuestionMarkWithDot" unicode="&#xee8e;" 
d="M372 704l-141 -704h-166l141 704h166zM672 704l-87 -435h-166l87 435h166zM515 -77l-37 -188h-166l37 188h166z" />
    <glyph glyph-name="UkaliqEqualsWithDot" unicode="&#xee8f;" 
d="M672 704l-141 -704h-166l141 704h166zM372 704l-141 -704h-166l141 704h166zM515 -77l-37 -188h-166l37 188h166z" />
    <glyph glyph-name="UkaliqHyphenWithDot" unicode="&#xee90;" 
d="M115 166h433l-34 -166h-432zM515 -77l-37 -188h-166l37 188h166z" />
    <glyph glyph-name="UkaliqLetterOzoWithDot" unicode="&#xee91;" 
d="M515 -77l-37 -188h-166l37 188h166zM618 435q-87 -435 -536 -435l33 166q283 0 337 269h166z" />
    <glyph glyph-name="UkaliqGreaterThanWithDot" unicode="&#xee92;" 
d="M115 166h433l-34 -166h-432zM372 704l-87 -435h-166l87 435h166zM515 -77l-37 -188h-166l37 188h166z" />
    <glyph glyph-name="UkaliqLetterAtlhaWithDot" unicode="&#xee93;" 
d="M372 704l-87 -435h-166l87 435h166zM515 -77l-37 -188h-166l37 188h166zM618 435q-87 -435 -536 -435l33 166q283 0 337 269h166z" />
    <glyph glyph-name="UkaliqLetterEdzreWithDot" unicode="&#xee94;" 
d="M318 435q-54 -269 230 -269l-34 -166q-449 0 -362 435h166zM515 -77l-37 -188h-166l37 188h166z" />
    <glyph glyph-name="UkaliqOrWithDot" unicode="&#xee95;" 
d="M318 435q-54 -269 13 -269t121 269h166q-87 -435 -320 -435t-146 435h166zM515 -77l-37 -188h-166l37 188h166z" />
    <glyph glyph-name="UkaliqLetterIdzjiWithDot" unicode="&#xee96;" 
d="M372 704l-42 -207q-66 -331 218 -331l-34 -166q-449 0 -350 497l42 207h166zM515 -77l-37 -188h-166l37 188h166z" />
    <glyph glyph-name="UkaliqLetterOdzoWithDot" unicode="&#xee97;" 
d="M372 704l-42 -207q-66 -331 1 -331t121 269h166q-87 -435 -320 -435t-134 497l42 207h166zM515 -77l-37 -188h-166l37 188h166z" />
    <glyph glyph-name="UkaliqLessThanWithDot" unicode="&#xee98;" 
d="M115 166h433l-34 -166h-432zM672 704l-87 -435h-166l87 435h166zM515 -77l-37 -188h-166l37 188h166z" />
    <glyph glyph-name="UkaliqLetterOsoWithDot" unicode="&#xee99;" 
d="M672 704l-42 -207q-99 -497 -548 -497l33 166q283 0 349 331l42 207h166zM515 -77l-37 -188h-166l37 188h166z" />
    <glyph glyph-name="UkaliqMultiplicationWithDot" unicode="&#xee9a;" 
d="M115 166h433l-34 -166h-432zM372 704l-87 -435h-166l87 435h166zM672 704l-87 -435h-166l87 435h166zM515 -77l-37 -188h-166l37 188h166z" />
    <glyph glyph-name="UkaliqLetterApfaWithDot" unicode="&#xee9b;" 
d="M372 704l-87 -435h-166l87 435h166zM672 704l-42 -207q-99 -497 -548 -497l33 166q283 0 349 331l42 207h166zM515 -77l-37 -188h-166l37 188h166z" />
    <glyph glyph-name="UkaliqLetterEtsreWithDot" unicode="&#xee9c;" 
d="M318 435q-54 -269 230 -269l-34 -166q-449 0 -362 435h166zM672 704l-87 -435h-166l87 435h166zM515 -77l-37 -188h-166l37 188h166z" />
    <glyph glyph-name="UkaliqLetterUkkhuWithDot" unicode="&#xee9d;" 
d="M672 704l-42 -207q-99 -497 -332 -497t-146 435h166q-54 -269 13 -269t133 331l42 207h166zM515 -77l-37 -188h-166l37 188h166z" />
    <glyph glyph-name="UkaliqLetterItsjiWithDot" unicode="&#xee9e;" 
d="M372 704l-42 -207q-66 -331 218 -331l-34 -166q-449 0 -350 497l42 207h166zM672 704l-87 -435h-166l87 435h166zM515 -77l-37 -188h-166l37 188h166z" />
    <glyph glyph-name="UkaliqLetterOtsoWithDot" unicode="&#xee9f;" 
d="M372 704l-42 -207q-66 -331 1 -331t133 331l42 207h166l-42 -207q-99 -497 -332 -497t-134 497l42 207h166zM515 -77l-37 -188h-166l37 188h166z" />
    <glyph glyph-name="UkaliqRangeWithDot" unicode="&#xeea0;" 
d="M515 -77l-37 -188h-166l37 188h166zM222 704h433l-33 -167h-433z" />
    <glyph glyph-name="UkaliqLetterEoWithDot" unicode="&#xeea1;" 
d="M618 435l-87 -435h-166l87 435h166zM515 -77l-37 -188h-166l37 188h166zM222 704h433l-33 -167h-433z" />
    <glyph glyph-name="UkaliqLetterUhWithDot" unicode="&#xeea2;" 
d="M622 537q-283 0 -337 -268h-166q87 435 536 435zM515 -77l-37 -188h-166l37 188h166z" />
    <glyph glyph-name="UkaliqLetterEuWithDot" unicode="&#xeea3;" 
d="M618 435l-87 -435h-166l87 435h166zM622 537q-283 0 -337 -268h-166q87 435 536 435zM515 -77l-37 -188h-166l37 188h166z" />
    <glyph glyph-name="UkaliqLetterOeWithDot" unicode="&#xeea4;" 
d="M318 435l-87 -435h-166l87 435h166zM515 -77l-37 -188h-166l37 188h166zM222 704h433l-33 -167h-433z" />
    <glyph glyph-name="UkaliqLetterOehWithDot" unicode="&#xeea5;" 
d="M618 435l-87 -435h-166l87 435h166zM318 435l-87 -435h-166l87 435h166zM515 -77l-37 -188h-166l37 188h166zM222 704h433l-33 -167h-433z" />
    <glyph glyph-name="UkaliqLetterUiWithDot" unicode="&#xeea6;" 
d="M622 537q-283 0 -350 -330l-41 -207h-166l41 207q100 497 549 497zM515 -77l-37 -188h-166l37 188h166z" />
    <glyph glyph-name="UkaliqLetterAhWithDot" unicode="&#xeea7;" 
d="M622 537q-283 0 -350 -330l-41 -207h-166l41 207q100 497 549 497zM618 435l-87 -435h-166l87 435h166zM515 -77l-37 -188h-166l37 188h166z" />
    <glyph glyph-name="UkaliqLetterAeWithDot" unicode="&#xeea8;" 
d="M222 704q450 0 363 -435h-166q53 268 -230 268zM515 -77l-37 -188h-166l37 188h166z" />
    <glyph glyph-name="UkaliqLetterOWithDot" unicode="&#xeea9;" 
d="M222 704q450 0 350 -497l-41 -207h-166l41 207q66 330 -217 330zM515 -77l-37 -188h-166l37 188h166z" />
    <glyph glyph-name="UkaliqLetterIhWithDot" unicode="&#xeeaa;" 
d="M119 269q87 435 320 435t146 -435h-166q53 268 -14 268q-66 0 -120 -268h-166zM515 -77l-37 -188h-166l37 188h166z" />
    <glyph glyph-name="UkaliqLetterUWithDot" unicode="&#xeeab;" 
d="M119 269q87 435 320 435t133 -497l-41 -207h-166l41 207q66 330 -1 330q-66 0 -120 -268h-166zM515 -77l-37 -188h-166l37 188h166z" />
    <glyph glyph-name="UkaliqLetterEWithDot" unicode="&#xeeac;" 
d="M222 704q450 0 363 -435h-166q53 268 -230 268zM318 435l-87 -435h-166l87 435h166zM515 -77l-37 -188h-166l37 188h166z" />
    <glyph glyph-name="UkaliqLetterEhWithDot" unicode="&#xeead;" 
d="M222 704q450 0 350 -497l-41 -207h-166l41 207q66 330 -217 330zM318 435l-87 -435h-166l87 435h166zM515 -77l-37 -188h-166l37 188h166z" />
    <glyph glyph-name="UkaliqLetterIWithDot" unicode="&#xeeae;" 
d="M419 269q53 268 -14 268q-66 0 -133 -330l-41 -207h-166l41 207q100 497 333 497t146 -435h-166zM515 -77l-37 -188h-166l37 188h166z" />
    <glyph glyph-name="UkaliqLetterOhWithDot" unicode="&#xeeaf;" 
d="M65 0l41 207q100 497 333 497t133 -497l-41 -207h-166l41 207q66 330 -1 330q-66 0 -133 -330l-41 -207h-166zM515 -77l-37 -188h-166l37 188h166z" />
    <glyph glyph-name="UkaliqPlusWithDot" unicode="&#xeeb0;" 
d="M115 166h433l-34 -166h-432zM515 -77l-37 -188h-166l37 188h166zM222 704h433l-33 -167h-433z" />
    <glyph glyph-name="UkaliqCurrencyWithDot" unicode="&#xeeb1;" 
d="M515 -77l-37 -188h-166l37 188h166zM618 435q-87 -435 -536 -435l33 166q283 0 337 269h166zM222 704h433l-33 -167h-433z" />
    <glyph glyph-name="UkaliqAtWithDot" unicode="&#xeeb2;" 
d="M115 166h433l-34 -166h-432zM622 537q-283 0 -337 -268h-166q87 435 536 435zM515 -77l-37 -188h-166l37 188h166z" />
    <glyph glyph-name="UkaliqLetterAlhaWithDot" unicode="&#xeeb3;" 
d="M622 537q-283 0 -337 -268h-166q87 435 536 435zM515 -77l-37 -188h-166l37 188h166zM618 435q-87 -435 -536 -435l33 166q283 0 337 269h166z" />
    <glyph glyph-name="UkaliqLetterElreWithDot" unicode="&#xeeb4;" 
d="M318 435q-54 -269 230 -269l-34 -166q-449 0 -362 435h166zM515 -77l-37 -188h-166l37 188h166zM222 704h433l-33 -167h-433z" />
    <glyph glyph-name="UkaliqLetterUlguWithDot" unicode="&#xeeb5;" 
d="M318 435q-54 -269 13 -269t121 269h166q-87 -435 -320 -435t-146 435h166zM515 -77l-37 -188h-166l37 188h166zM222 704h433l-33 -167h-433z" />
    <glyph glyph-name="UkaliqLetterIljiWithDot" unicode="&#xeeb6;" 
d="M622 537q-283 0 -321 -185q-37 -186 247 -186l-34 -166q-449 0 -379 352q71 352 520 352zM515 -77l-37 -188h-166l37 188h166z" />
    <glyph glyph-name="UkaliqLetterOloWithDot" unicode="&#xeeb7;" 
d="M622 537q-283 0 -321 -185q-37 -186 30 -186t121 269h166q-87 -435 -320 -435t-163 352q71 352 520 352zM515 -77l-37 -188h-166l37 188h166z" />
    <glyph glyph-name="UkaliqDegreeWithDot" unicode="&#xeeb8;" 
d="M115 166h433l-34 -166h-432zM222 704q450 0 363 -435h-166q53 268 -230 268zM515 -77l-37 -188h-166l37 188h166z" />
    <glyph glyph-name="UkaliqLetterHbatWithDot" unicode="&#xeeb9;" 
d="M222 704q450 0 379 -352q-70 -352 -519 -352l33 166q283 0 320 186q37 185 -246 185zM515 -77l-37 -188h-166l37 188h166z" />
    <glyph glyph-name="UkaliqLetterAnqaWithDot" unicode="&#xeeba;" 
d="M115 166h433l-34 -166h-432zM119 269q87 435 320 435t146 -435h-166q53 268 -14 268q-66 0 -120 -268h-166zM515 -77l-37 -188h-166l37 188h166z" />
    <glyph glyph-name="UkaliqLetterAmaWithDot" unicode="&#xeebb;" 
d="M119 269q87 435 320 435t162 -352q-70 -352 -519 -352l33 166q283 0 320 186q37 185 -30 185q-66 0 -120 -268h-166zM515 -77l-37 -188h-166l37 188h166z" />
    <glyph glyph-name="UkaliqLetterEnreWithDot" unicode="&#xeebc;" 
d="M222 704q450 0 363 -435h-166q53 268 -230 268zM318 435q-54 -269 230 -269l-34 -166q-449 0 -362 435h166zM515 -77l-37 -188h-166l37 188h166z" />
    <glyph glyph-name="UkaliqLetterUnguWithDot" unicode="&#xeebd;" 
d="M222 704q450 0 379 -352q-70 -352 -303 -352t-146 435h166q-54 -269 13 -269t104 186q37 185 -246 185zM515 -77l-37 -188h-166l37 188h166z" />
    <glyph glyph-name="UkaliqLetterInjiWithDot" unicode="&#xeebe;" 
d="M419 269q53 268 -14 268q-66 0 -104 -185q-37 -186 247 -186l-34 -166q-449 0 -379 352q71 352 304 352t146 -435h-166zM515 -77l-37 -188h-166l37 188h166z" />
    <glyph glyph-name="UkaliqLetterOnoWithDot" unicode="&#xeebf;" 
d="M515 -77l-37 -188h-166l37 188h166zM301 352q-37 -186 30 -186t104 186q37 185 -30 185q-66 0 -104 -185zM135 352q71 352 304 352t162 -352q-70 -352 -303 -352t-163 352z" />
    <glyph glyph-name="UkaliqDashWithDot" unicode="&#xeec0;" 
d="M169 435h432l-33 -166h-433zM515 -77l-37 -188h-166l37 188h166z" />
    <glyph glyph-name="UkaliqLetterAWithDot" unicode="&#xeec1;" 
d="M169 435q449 0 362 -435h-166q54 269 -230 269zM515 -77l-37 -188h-166l37 188h166z" />
    <glyph glyph-name="UkaliqMinusWithDot" unicode="&#xeec2;" 
d="M372 704q-54 -269 229 -269l-33 -166q-449 0 -362 435h166zM515 -77l-37 -188h-166l37 188h166z" />
    <glyph glyph-name="UkaliqLetterAwaWithDot" unicode="&#xeec3;" 
d="M515 -77l-37 -188h-166l37 188h166zM372 704q-54 -269 113 -269q133 0 102 -154l-56 -281h-166l54 270q-295 21 -213 434h166z" />
    <glyph glyph-name="UkaliqLetterErreWithDot" unicode="&#xeec4;" 
d="M568 269q-283 0 -337 -269h-166q87 435 536 435zM515 -77l-37 -188h-166l37 188h166z" />
    <glyph glyph-name="UkaliqAndWithDot" unicode="&#xeec5;" 
d="M65 0q87 435 320 435t146 -435h-166q54 269 -13 269t-121 -269h-166zM515 -77l-37 -188h-166l37 188h166z" />
    <glyph glyph-name="UkaliqLetterIzjiWithDot" unicode="&#xeec6;" 
d="M515 -77l-37 -188h-166l37 188h166zM284 269l-53 -269h-166l70 352l71 352h166l-54 -269h283l-33 -166h-284z" />
    <glyph glyph-name="UkaliqLetterOroWithDot" unicode="&#xeec7;" 
d="M515 -77l-37 -188h-166l37 188h166zM282 257l-51 -257h-166l70 352l71 352h166l-55 -275q291 -44 214 -429h-166q42 212 -83 257z" />
    <glyph glyph-name="UkaliqNotWithDot" unicode="&#xeec8;" 
d="M672 704q-87 -435 -537 -435l34 166q283 0 337 269h166zM515 -77l-37 -188h-166l37 188h166z" />
    <glyph glyph-name="UkaliqDivisionWithDot" unicode="&#xeec9;" 
d="M672 704l-71 -352l-70 -352h-166l53 269h-283l34 166h283l54 269h166zM515 -77l-37 -188h-166l37 188h166z" />
    <glyph glyph-name="UkaliqXorWithDot" unicode="&#xeeca;" 
d="M372 704q-54 -269 13 -269t121 269h166q-87 -435 -320 -435t-146 435h166zM515 -77l-37 -188h-166l37 188h166z" />
    <glyph glyph-name="uniEECB" unicode="&#xeecb;" 
d="M515 -77l-37 -188h-166l37 188h166zM372 704q-42 -211 82 -257l52 257h166l-71 -352l-70 -352h-166l55 275q-291 45 -214 429h166z" />
    <glyph glyph-name="UkaliqLetterIjiWithDot" unicode="&#xeecc;" 
d="M515 -77l-37 -188h-166l37 188h166zM287 280v1v-1zM285 270l-54 -270h-166l56 281q31 154 164 154q167 0 221 269h166q-82 -413 -387 -434z" />
    <glyph glyph-name="UkaliqLetterTkotWithDot" unicode="&#xeecd;" 
d="M672 704l-71 -352l-70 -352h-166l51 256q-143 -45 -185 -256h-166q77 385 386 429l55 275h166zM515 -77l-37 -188h-166l37 188h166z" />
    <glyph glyph-name="UkaliqLetterIsjiWithDot" unicode="&#xeece;" 
d="M515 -77l-37 -188h-166l37 188h166zM286 275l-55 -275h-166l70 352l71 352h166l-52 -257q143 45 186 257h166q-77 -385 -386 -429z" />
    <glyph glyph-name="UkaliqLetterOrroWithDot" unicode="&#xeecf;" 
d="M515 -77l-37 -188h-166l37 188h166zM672 704l-71 -352l-70 -352h-166l53 269h-134l-53 -269h-166l70 352l71 352h166l-54 -269h134l54 269h166z" />
    <glyph glyph-name="UkaliqBaseSixteen" unicode="&#xeed0;" 
d="M115 166h433l-34 -166h-432zM169 435h432l-33 -166h-433zM515 -77l-37 -188h-166l37 188h166z" />
    <glyph glyph-name="UkaliqBaseNegativeTwo" unicode="&#xeed1;" 
d="M169 435q449 0 406 -218q-44 -217 -493 -217l33 166q283 0 293 51q11 52 -273 52zM515 -77l-37 -188h-166l37 188h166z" />
    <glyph glyph-name="UkaliqBaseTwo" unicode="&#xeed2;" 
d="M372 704q-54 -269 229 -269l-33 -166q-449 0 -362 435h166zM115 166h433l-34 -166h-432zM515 -77l-37 -188h-166l37 188h166z" />
    <glyph glyph-name="UkaliqBaseThree" unicode="&#xeed3;" 
d="M515 -77l-37 -188h-166l37 188h166zM372 704q-54 -269 113 -269q133 0 107 -128q-61 -307 -510 -307l33 166q244 0 298 105q-289 25 -207 433h166z" />
    <glyph glyph-name="UkaliqBaseFour" unicode="&#xeed4;" 
d="M568 269q-283 0 -293 -52q-11 -51 273 -51l-34 -166q-449 0 -406 217q44 218 493 218zM515 -77l-37 -188h-166l37 188h166z" />
    <glyph glyph-name="UkaliqBaseFive" unicode="&#xeed5;" 
d="M515 -77l-37 -188h-166l37 188h166zM275 217q-11 -51 56 -51t77 51q11 52 -56 52t-77 -52zM108 217q44 218 277 218t190 -218q-44 -217 -277 -217t-190 217z" />
    <glyph glyph-name="UkaliqBaseSix" unicode="&#xeed6;" 
d="M515 -77l-37 -188h-166l37 188h166zM303 269q34 -103 245 -103l-34 -166q-449 0 -379 352l71 352h166l-54 -269h283l-33 -166h-265z" />
    <glyph glyph-name="UkaliqBaseNegativeEight" unicode="&#xeed7;" 
d="M515 -77l-37 -188h-166l37 188h166zM289 266q-7 -100 42 -100q67 0 77 51q9 40 -119 49zM317 432q296 -22 258 -215q-44 -217 -277 -217t-163 352l71 352h166z" />
    <glyph glyph-name="UkaliqBaseEight" unicode="&#xeed8;" 
d="M115 166h433l-34 -166h-432zM672 704q-87 -435 -537 -435l34 166q283 0 337 269h166zM515 -77l-37 -188h-166l37 188h166z" />
    <glyph glyph-name="UkaliqBaseNegativeTen" unicode="&#xeed9;" 
d="M672 704l-71 -352q-70 -352 -519 -352l33 166q211 0 285 103h-265l34 166h283l54 269h166zM515 -77l-37 -188h-166l37 188h166z" />
    <glyph glyph-name="UkaliqBaseTen" unicode="&#xeeda;" 
d="M372 704q-54 -269 13 -269t121 269h166q-87 -435 -320 -435t-146 435h166zM115 166h433l-34 -166h-432zM515 -77l-37 -188h-166l37 188h166z" />
    <glyph glyph-name="UkaliqBaseNegativeThree" unicode="&#xeedb;" 
d="M515 -77l-37 -188h-166l37 188h166zM372 704q-42 -211 82 -257l52 257h166l-71 -352q-70 -352 -519 -352l33 166q219 0 291 111q-275 52 -200 427h166z" />
    <glyph glyph-name="UkaliqBaseNegativeFour" unicode="&#xeedc;" 
d="M515 -77l-37 -188h-166l37 188h166zM292 305v2v-2zM290 270q13 -104 258 -104l-34 -166q-449 0 -388 307q26 128 159 128q167 0 221 269h166q-82 -410 -382 -434z" />
    <glyph glyph-name="UkaliqBaseNegativeFive" unicode="&#xeedd;" 
d="M672 704l-71 -352q-70 -352 -303 -352t-190 217q39 193 343 215l55 272h166zM515 -77l-37 -188h-166l37 188h166zM413 266q-131 -9 -138 -49q-11 -51 56 -51q49 0 82 100z" />
    <glyph glyph-name="UkaliqBaseNegativeSix" unicode="&#xeede;" 
d="M515 -77l-37 -188h-166l37 188h166zM301 277q28 -111 247 -111l-34 -166q-449 0 -379 352l71 352h166l-52 -257q143 45 186 257h166q-75 -376 -371 -427z" />
    <glyph glyph-name="UkaliqBaseNegativeSixteen" unicode="&#xeedf;" 
d="M515 -77l-37 -188h-166l37 188h166zM452 435l54 269h166l-71 -352q-70 -352 -303 -352t-163 352l71 352h166l-54 -269h134zM414 269h-125q-8 -103 42 -103t83 103z" />
    <glyph glyph-name="UkaliqLetterSchwaWithDot" unicode="&#xeee0;" 
d="M169 435h432l-33 -166h-433zM515 -77l-37 -188h-166l37 188h166zM222 704h433l-33 -167h-433z" />
    <glyph glyph-name="UkaliqLetterOhgoWithDot" unicode="&#xeee1;" 
d="M169 435q449 0 362 -435h-166q54 269 -230 269zM515 -77l-37 -188h-166l37 188h166zM222 704h433l-33 -167h-433z" />
    <glyph glyph-name="UkaliqLetterArhaWithDot" unicode="&#xeee2;" 
d="M622 537q-283 0 -294 -51q-10 -51 273 -51l-33 -166q-449 0 -406 217q44 218 493 218zM515 -77l-37 -188h-166l37 188h166z" />
    <glyph glyph-name="UkaliqLetterAvaWithDot" unicode="&#xeee3;" 
d="M515 -77l-37 -188h-166l37 188h166zM622 537q-283 0 -294 -51q-10 -51 157 -51q133 0 102 -154l-56 -281h-166l54 270q-298 11 -257 216q44 218 493 218z" />
    <glyph glyph-name="UkaliqLetterEzreWithDot" unicode="&#xeee4;" 
d="M568 269q-283 0 -337 -269h-166q87 435 536 435zM515 -77l-37 -188h-166l37 188h166zM222 704h433l-33 -167h-433z" />
    <glyph glyph-name="UkaliqLetterUghuWithDot" unicode="&#xeee5;" 
d="M65 0q87 435 320 435t146 -435h-166q54 269 -13 269t-121 -269h-166zM515 -77l-37 -188h-166l37 188h166zM222 704h433l-33 -167h-433z" />
    <glyph glyph-name="UkaliqLetterIjjiWithDot" unicode="&#xeee6;" 
d="M515 -77l-37 -188h-166l37 188h166zM284 269l-53 -269h-166l70 352q71 352 520 352l-33 -167q-210 0 -285 -102h264l-33 -166h-284z" />
    <glyph glyph-name="UkaliqLetterOdhoWithDot" unicode="&#xeee7;" 
d="M515 -77l-37 -188h-166l37 188h166zM282 257l-51 -257h-166l70 352q71 352 520 352l-33 -167q-218 0 -291 -110q275 -51 200 -427h-166q42 212 -83 257z" />
    <glyph glyph-name="UkaliqLetterOhhoWithDot" unicode="&#xeee8;" 
d="M222 704q450 0 406 -218q-43 -217 -493 -217l34 166q283 0 293 51t-273 51zM515 -77l-37 -188h-166l37 188h166z" />
    <glyph glyph-name="UkaliqLetterAhaWithDot" unicode="&#xeee9;" 
d="M222 704q450 0 379 -352l-70 -352h-166l53 269h-283l34 166h264q-34 102 -244 102zM515 -77l-37 -188h-166l37 188h166z" />
    <glyph glyph-name="UkaliqLetterAqhaWithDot" unicode="&#xeeea;" 
d="M515 -77l-37 -188h-166l37 188h166zM328 486q-10 -51 57 -51t77 51t-57 51q-66 0 -77 -51zM162 486q44 218 277 218t189 -218q-43 -217 -276 -217t-190 217z" />
    <glyph glyph-name="UkaliqLetterAfaWithDot" unicode="&#xeeeb;" 
d="M515 -77l-37 -188h-166l37 188h166zM447 438q7 99 -42 99q-66 0 -77 -51q-8 -39 119 -48zM419 272q-295 22 -257 214q44 218 277 218t162 -352l-70 -352h-166z" />
    <glyph glyph-name="UkaliqLetterEsreWithDot" unicode="&#xeeec;" 
d="M222 704q450 0 406 -218q-41 -206 -343 -216l-54 -270h-166l56 281q31 154 164 154q167 0 177 51t-273 51zM515 -77l-37 -188h-166l37 188h166zM287 280v1v-1z" />
    <glyph glyph-name="UkaliqLetterUkhuWithDot" unicode="&#xeeed;" 
d="M222 704q450 0 379 -352l-70 -352h-166l51 256q-143 -45 -185 -256h-166q75 375 370 427q-28 110 -246 110zM515 -77l-37 -188h-166l37 188h166z" />
    <glyph glyph-name="UkaliqLetterIcjiWithDot" unicode="&#xeeee;" 
d="M515 -77l-37 -188h-166l37 188h166zM285 272l-54 -272h-166l70 352q71 352 304 352t189 -218q-38 -192 -343 -214zM323 438q131 9 139 48q10 51 -57 51q-49 0 -82 -99z" />
    <glyph glyph-name="UkaliqLetterOthoWithDot" unicode="&#xeeef;" 
d="M515 -77l-37 -188h-166l37 188h166zM65 0l70 352q71 352 304 352t162 -352l-70 -352h-166l53 269h-134l-53 -269h-166zM322 435h125q8 102 -42 102q-49 0 -83 -102z" />
    <glyph glyph-name="UkaliqIterationMarkWithDot" unicode="&#xeef0;" 
d="M115 166h433l-34 -166h-432zM169 435h432l-33 -166h-433zM515 -77l-37 -188h-166l37 188h166zM222 704h433l-33 -167h-433z" />
    <glyph glyph-name="UkaliqPercentWithDot" unicode="&#xeef1;" 
d="M169 435q449 0 406 -218q-44 -217 -493 -217l33 166q283 0 293 51q11 52 -273 52zM515 -77l-37 -188h-166l37 188h166zM222 704h433l-33 -167h-433z" />
    <glyph glyph-name="UkaliqLetterAgqaWithDot" unicode="&#xeef2;" 
d="M622 537q-283 0 -294 -51q-10 -51 273 -51l-33 -166q-449 0 -406 217q44 218 493 218zM115 166h433l-34 -166h-432zM515 -77l-37 -188h-166l37 188h166z" />
    <glyph glyph-name="UkaliqLetterAbaWithDot" unicode="&#xeef3;" 
d="M515 -77l-37 -188h-166l37 188h166zM622 537q-283 0 -294 -51q-10 -51 157 -51q133 0 107 -128q-61 -307 -510 -307l33 166q243 0 298 104q-291 12 -251 216q44 218 493 218z" />
    <glyph glyph-name="UkaliqLetterEdreWithDot" unicode="&#xeef4;" 
d="M568 269q-283 0 -293 -52q-11 -51 273 -51l-34 -166q-449 0 -406 217q44 218 493 218zM515 -77l-37 -188h-166l37 188h166zM222 704h433l-33 -167h-433z" />
    <glyph glyph-name="UkaliqLetterUguWithDot" unicode="&#xeef5;" 
d="M515 -77l-37 -188h-166l37 188h166zM222 704h433l-33 -167h-433zM275 217q-11 -51 56 -51t77 51q11 52 -56 52t-77 -52zM108 217q44 218 277 218t190 -218q-44 -217 -277 -217t-190 217z" />
    <glyph glyph-name="UkaliqLetterIgjiWithDot" unicode="&#xeef6;" 
d="M515 -77l-37 -188h-166l37 188h166zM303 269q34 -103 245 -103l-34 -166q-449 0 -379 352q71 352 520 352l-33 -167q-210 0 -285 -102h264l-33 -166h-265z" />
    <glyph glyph-name="UkaliqLetterOdoWithDot" unicode="&#xeef7;" 
d="M515 -77l-37 -188h-166l37 188h166zM289 266q-7 -100 42 -100q67 0 77 51q9 40 -119 49zM334 431q278 -26 241 -214q-44 -217 -277 -217t-163 352q71 352 520 352l-33 -167q-214 0 -288 -106z" />
    <glyph glyph-name="UkaliqLetterOhhkoWithDot" unicode="&#xeef8;" 
d="M115 166h433l-34 -166h-432zM222 704q450 0 406 -218q-43 -217 -493 -217l34 166q283 0 293 51t-273 51zM515 -77l-37 -188h-166l37 188h166z" />
    </font>
</defs>
</svg>
