<?xml version="1.0" standalone="no"?>
<!DOCTYPE svg PUBLIC "-//W3C//DTD SVG 1.1//EN" "http://www.w3.org/Graphics/SVG/1.1/DTD/svg11.dtd" >
<svg xmlns="http://www.w3.org/2000/svg" xmlns:xlink="http://www.w3.org/1999/xlink" version="1.1">
<metadata>
Created by FontForge 20170812 at Mon Jan 23 00:30:09 2023
 By ht,,,
Copyright (C) 2022-2023 Henrik Theiling, License CC-BY-NC4.0
</metadata>
<defs>
<font id="UkaliqPenBlack" horiz-adv-x="578" >
  <font-face 
    font-family="Ukaliq Pen"
    font-weight="850"
    font-stretch="normal"
    units-per-em="1024"
    panose-1="2 0 10 3 0 0 0 0 0 0"
    ascent="727"
    descent="-297"
    bbox="0 -296 578 946"
    underline-thickness="78"
    underline-position="-171"
    unicode-range="U+000D-F1DFF"
  />
<missing-glyph 
d="M73 166h433v-166h-433v166zM522 -77v-188h-166v188h166z" />
    <glyph glyph-name="UkaliqSpace_UkaliqModifierDot" unicode="&#xee00;&#x331;" 
d="M522 -77v-188h-166v188h166z" />
    <glyph glyph-name="UkaliqNumber_UkaliqModifierDot" unicode="&#xee01;&#x331;" 
d="M522 435v-435h-166v435h166zM522 -77v-188h-166v188h166z" />
    <glyph glyph-name="UkaliqRightSingleQuotationMark_UkaliqModifierDot" unicode="&#xee02;&#x331;" 
d="M222 704v-435h-166v435h166zM522 -77v-188h-166v188h166z" />
    <glyph glyph-name="UkaliqColon_UkaliqModifierDot" unicode="&#xee03;&#x331;" 
d="M522 435v-435h-166v435h166zM222 704v-435h-166v435h166zM522 -77v-188h-166v188h166z" />
    <glyph glyph-name="UkaliqFullStop_UkaliqModifierDot" unicode="&#xee04;&#x331;" 
d="M222 435v-435h-166v435h166zM522 -77v-188h-166v188h166z" />
    <glyph glyph-name="UkaliqComma_UkaliqModifierDot" unicode="&#xee05;&#x331;" 
d="M522 435v-435h-166v435h166zM222 435v-435h-166v435h166zM522 -77v-188h-166v188h166z" />
    <glyph glyph-name="UkaliqRightParenthesis_UkaliqModifierDot" unicode="&#xee06;&#x331;" 
d="M222 704v-704h-166v704h166zM522 -77v-188h-166v188h166z" />
    <glyph glyph-name="UkaliqExclamationMark_UkaliqModifierDot" unicode="&#xee07;&#x331;" 
d="M222 704v-704h-166v704h166zM522 435v-435h-166v435h166zM522 -77v-188h-166v188h166z" />
    <glyph glyph-name="UkaliqLeftSingleQuotationMark_UkaliqModifierDot" unicode="&#xee08;&#x331;" 
d="M522 704v-435h-166v435h166zM522 -77v-188h-166v188h166z" />
    <glyph glyph-name="UkaliqLeftParenthesis_UkaliqModifierDot" unicode="&#xee09;&#x331;" 
d="M522 704v-704h-166v704h166zM522 -77v-188h-166v188h166z" />
    <glyph glyph-name="UkaliqDoubleQuotationMark_UkaliqModifierDot" unicode="&#xee0a;&#x331;" 
d="M222 704v-435h-166v435h166zM522 704v-435h-166v435h166zM522 -77v-188h-166v188h166z" />
    <glyph glyph-name="UkaliqReversedQuestionMark_UkaliqModifierDot" unicode="&#xee0b;&#x331;" 
d="M522 704v-704h-166v704h166zM222 704v-435h-166v435h166zM522 -77v-188h-166v188h166z" />
    <glyph glyph-name="UkaliqSemicolon_UkaliqModifierDot" unicode="&#xee0c;&#x331;" 
d="M522 704v-435h-166v435h166zM222 435v-435h-166v435h166zM522 -77v-188h-166v188h166z" />
    <glyph glyph-name="UkaliqReversedExclamationMark_UkaliqModifierDot" unicode="&#xee0d;&#x331;" 
d="M522 704v-704h-166v704h166zM222 435v-435h-166v435h166zM522 -77v-188h-166v188h166z" />
    <glyph glyph-name="UkaliqQuestionMark_UkaliqModifierDot" unicode="&#xee0e;&#x331;" 
d="M222 704v-704h-166v704h166zM522 704v-435h-166v435h166zM522 -77v-188h-166v188h166z" />
    <glyph glyph-name="UkaliqEquals_UkaliqModifierDot" unicode="&#xee0f;&#x331;" 
d="M522 704v-704h-166v704h166zM222 704v-704h-166v704h166zM522 -77v-188h-166v188h166z" />
    <glyph glyph-name="UkaliqHyphen_UkaliqModifierDot" unicode="&#xee10;&#x331;" 
d="M73 166h433v-166h-433v166zM522 -77v-188h-166v188h166z" />
    <glyph glyph-name="UkaliqLetterOzo_UkaliqModifierDot" unicode="&#xee11;&#x331;" 
d="M522 -77v-188h-166v188h166zM522 435q0 -435 -449 -435v166q283 0 283 269h166z" />
    <glyph glyph-name="UkaliqGreaterThan_UkaliqModifierDot" unicode="&#xee12;&#x331;" 
d="M73 166h433v-166h-433v166zM222 704v-435h-166v435h166zM522 -77v-188h-166v188h166z" />
    <glyph glyph-name="UkaliqLetterAtlha_UkaliqModifierDot" unicode="&#xee13;&#x331;" 
d="M222 704v-435h-166v435h166zM522 -77v-188h-166v188h166zM522 435q0 -435 -449 -435v166q283 0 283 269h166z" />
    <glyph glyph-name="UkaliqLetterEdzre_UkaliqModifierDot" unicode="&#xee14;&#x331;" 
d="M222 435q0 -269 284 -269v-166q-450 0 -450 435h166zM522 -77v-188h-166v188h166z" />
    <glyph glyph-name="UkaliqOr_UkaliqModifierDot" unicode="&#xee15;&#x331;" 
d="M222 435q0 -269 67 -269t67 269h166q0 -435 -233 -435t-233 435h166zM522 -77v-188h-166v188h166z" />
    <glyph glyph-name="UkaliqLetterIdzji_UkaliqModifierDot" unicode="&#xee16;&#x331;" 
d="M222 704v-207q0 -331 284 -331v-166q-450 0 -450 497v207h166zM522 -77v-188h-166v188h166z" />
    <glyph glyph-name="UkaliqLetterOdzo_UkaliqModifierDot" unicode="&#xee17;&#x331;" 
d="M222 704v-207q0 -331 67 -331t67 269h166q0 -435 -233 -435t-233 497v207h166zM522 -77v-188h-166v188h166z" />
    <glyph glyph-name="UkaliqLessThan_UkaliqModifierDot" unicode="&#xee18;&#x331;" 
d="M73 166h433v-166h-433v166zM522 704v-435h-166v435h166zM522 -77v-188h-166v188h166z" />
    <glyph glyph-name="UkaliqLetterOso_UkaliqModifierDot" unicode="&#xee19;&#x331;" 
d="M522 704v-207q0 -497 -449 -497v166q283 0 283 331v207h166zM522 -77v-188h-166v188h166z" />
    <glyph glyph-name="UkaliqMultiplication_UkaliqModifierDot" unicode="&#xee1a;&#x331;" 
d="M73 166h433v-166h-433v166zM222 704v-435h-166v435h166zM522 704v-435h-166v435h166zM522 -77v-188h-166v188h166z" />
    <glyph glyph-name="UkaliqLetterApfa_UkaliqModifierDot" unicode="&#xee1b;&#x331;" 
d="M222 704v-435h-166v435h166zM522 704v-207q0 -497 -449 -497v166q283 0 283 331v207h166zM522 -77v-188h-166v188h166z" />
    <glyph glyph-name="UkaliqLetterEtsre_UkaliqModifierDot" unicode="&#xee1c;&#x331;" 
d="M222 435q0 -269 284 -269v-166q-450 0 -450 435h166zM522 704v-435h-166v435h166zM522 -77v-188h-166v188h166z" />
    <glyph glyph-name="UkaliqLetterUkkhu_UkaliqModifierDot" unicode="&#xee1d;&#x331;" 
d="M522 704v-207q0 -497 -233 -497t-233 435h166q0 -269 67 -269t67 331v207h166zM522 -77v-188h-166v188h166z" />
    <glyph glyph-name="UkaliqLetterItsji_UkaliqModifierDot" unicode="&#xee1e;&#x331;" 
d="M222 704v-207q0 -331 284 -331v-166q-450 0 -450 497v207h166zM522 704v-435h-166v435h166zM522 -77v-188h-166v188h166z" />
    <glyph glyph-name="UkaliqLetterOtso_UkaliqModifierDot" unicode="&#xee1f;&#x331;" 
d="M222 704v-207q0 -331 67 -331t67 331v207h166v-207q0 -497 -233 -497t-233 497v207h166zM522 -77v-188h-166v188h166z" />
    <glyph glyph-name="UkaliqRange_UkaliqModifierDot" unicode="&#xee20;&#x331;" 
d="M522 -77v-188h-166v188h166zM73 704h433v-167h-433v167z" />
    <glyph glyph-name="UkaliqLetterEo_UkaliqModifierDot" unicode="&#xee21;&#x331;" 
d="M522 435v-435h-166v435h166zM522 -77v-188h-166v188h166zM73 704h433v-167h-433v167z" />
    <glyph glyph-name="UkaliqLetterUh_UkaliqModifierDot" unicode="&#xee22;&#x331;" 
d="M506 537q-284 0 -284 -268h-166q0 435 450 435v-167zM522 -77v-188h-166v188h166z" />
    <glyph glyph-name="UkaliqLetterEu_UkaliqModifierDot" unicode="&#xee23;&#x331;" 
d="M522 435v-435h-166v435h166zM506 537q-284 0 -284 -268h-166q0 435 450 435v-167zM522 -77v-188h-166v188h166z" />
    <glyph glyph-name="UkaliqLetterOe_UkaliqModifierDot" unicode="&#xee24;&#x331;" 
d="M222 435v-435h-166v435h166zM522 -77v-188h-166v188h166zM73 704h433v-167h-433v167z" />
    <glyph glyph-name="UkaliqLetterOeh_UkaliqModifierDot" unicode="&#xee25;&#x331;" 
d="M522 435v-435h-166v435h166zM222 435v-435h-166v435h166zM522 -77v-188h-166v188h166zM73 704h433v-167h-433v167z" />
    <glyph glyph-name="UkaliqLetterUi_UkaliqModifierDot" unicode="&#xee26;&#x331;" 
d="M506 537q-284 0 -284 -330v-207h-166v207q0 497 450 497v-167zM522 -77v-188h-166v188h166z" />
    <glyph glyph-name="UkaliqLetterAh_UkaliqModifierDot" unicode="&#xee27;&#x331;" 
d="M506 537q-284 0 -284 -330v-207h-166v207q0 497 450 497v-167zM522 435v-435h-166v435h166zM522 -77v-188h-166v188h166z" />
    <glyph glyph-name="UkaliqLetterAe_UkaliqModifierDot" unicode="&#xee28;&#x331;" 
d="M73 704q449 0 449 -435h-166q0 268 -283 268v167zM522 -77v-188h-166v188h166z" />
    <glyph glyph-name="UkaliqLetterO_UkaliqModifierDot" unicode="&#xee29;&#x331;" 
d="M73 704q449 0 449 -497v-207h-166v207q0 330 -283 330v167zM522 -77v-188h-166v188h166z" />
    <glyph glyph-name="UkaliqLetterIh_UkaliqModifierDot" unicode="&#xee2a;&#x331;" 
d="M56 269q0 435 233 435t233 -435h-166q0 268 -67 268t-67 -268h-166zM522 -77v-188h-166v188h166z" />
    <glyph glyph-name="UkaliqLetterU_UkaliqModifierDot" unicode="&#xee2b;&#x331;" 
d="M56 269q0 435 233 435t233 -497v-207h-166v207q0 330 -67 330t-67 -268h-166zM522 -77v-188h-166v188h166z" />
    <glyph glyph-name="UkaliqLetterE_UkaliqModifierDot" unicode="&#xee2c;&#x331;" 
d="M73 704q449 0 449 -435h-166q0 268 -283 268v167zM222 435v-435h-166v435h166zM522 -77v-188h-166v188h166z" />
    <glyph glyph-name="UkaliqLetterEh_UkaliqModifierDot" unicode="&#xee2d;&#x331;" 
d="M73 704q449 0 449 -497v-207h-166v207q0 330 -283 330v167zM222 435v-435h-166v435h166zM522 -77v-188h-166v188h166z" />
    <glyph glyph-name="UkaliqLetterI_UkaliqModifierDot" unicode="&#xee2e;&#x331;" 
d="M356 269q0 268 -67 268t-67 -330v-207h-166v207q0 497 233 497t233 -435h-166zM522 -77v-188h-166v188h166z" />
    <glyph glyph-name="UkaliqLetterOh_UkaliqModifierDot" unicode="&#xee2f;&#x331;" 
d="M56 0v207q0 497 233 497t233 -497v-207h-166v207q0 330 -67 330t-67 -330v-207h-166zM522 -77v-188h-166v188h166z" />
    <glyph glyph-name="UkaliqPlus_UkaliqModifierDot" unicode="&#xee30;&#x331;" 
d="M73 166h433v-166h-433v166zM522 -77v-188h-166v188h166zM73 704h433v-167h-433v167z" />
    <glyph glyph-name="UkaliqCurrency_UkaliqModifierDot" unicode="&#xee31;&#x331;" 
d="M522 -77v-188h-166v188h166zM522 435q0 -435 -449 -435v166q283 0 283 269h166zM73 704h433v-167h-433v167z" />
    <glyph glyph-name="UkaliqAt_UkaliqModifierDot" unicode="&#xee32;&#x331;" 
d="M73 166h433v-166h-433v166zM506 537q-284 0 -284 -268h-166q0 435 450 435v-167zM522 -77v-188h-166v188h166z" />
    <glyph glyph-name="UkaliqLetterAlha_UkaliqModifierDot" unicode="&#xee33;&#x331;" 
d="M506 537q-284 0 -284 -268h-166q0 435 450 435v-167zM522 -77v-188h-166v188h166zM522 435q0 -435 -449 -435v166q283 0 283 269h166z" />
    <glyph glyph-name="UkaliqLetterElre_UkaliqModifierDot" unicode="&#xee34;&#x331;" 
d="M222 435q0 -269 284 -269v-166q-450 0 -450 435h166zM522 -77v-188h-166v188h166zM73 704h433v-167h-433v167z" />
    <glyph glyph-name="UkaliqLetterUlgu_UkaliqModifierDot" unicode="&#xee35;&#x331;" 
d="M222 435q0 -269 67 -269t67 269h166q0 -435 -233 -435t-233 435h166zM522 -77v-188h-166v188h166zM73 704h433v-167h-433v167z" />
    <glyph glyph-name="UkaliqLetterIlji_UkaliqModifierDot" unicode="&#xee36;&#x331;" 
d="M506 537q-284 0 -284 -185q0 -186 284 -186v-166q-450 0 -450 352t450 352v-167zM522 -77v-188h-166v188h166z" />
    <glyph glyph-name="UkaliqLetterOlo_UkaliqModifierDot" unicode="&#xee37;&#x331;" 
d="M506 537q-284 0 -284 -185q0 -186 67 -186t67 269h166q0 -435 -233 -435t-233 352t450 352v-167zM522 -77v-188h-166v188h166z" />
    <glyph glyph-name="UkaliqDegree_UkaliqModifierDot" unicode="&#xee38;&#x331;" 
d="M73 166h433v-166h-433v166zM73 704q449 0 449 -435h-166q0 268 -283 268v167zM522 -77v-188h-166v188h166z" />
    <glyph glyph-name="UkaliqLetterHbat_UkaliqModifierDot" unicode="&#xee39;&#x331;" 
d="M73 704q449 0 449 -352t-449 -352v166q283 0 283 186q0 185 -283 185v167zM522 -77v-188h-166v188h166z" />
    <glyph glyph-name="UkaliqLetterAnqa_UkaliqModifierDot" unicode="&#xee3a;&#x331;" 
d="M73 166h433v-166h-433v166zM56 269q0 435 233 435t233 -435h-166q0 268 -67 268t-67 -268h-166zM522 -77v-188h-166v188h166z" />
    <glyph glyph-name="UkaliqLetterAma_UkaliqModifierDot" unicode="&#xee3b;&#x331;" 
d="M56 269q0 435 233 435t233 -352t-449 -352v166q283 0 283 186q0 185 -67 185t-67 -268h-166zM522 -77v-188h-166v188h166z" />
    <glyph glyph-name="UkaliqLetterEnre_UkaliqModifierDot" unicode="&#xee3c;&#x331;" 
d="M73 704q449 0 449 -435h-166q0 268 -283 268v167zM222 435q0 -269 284 -269v-166q-450 0 -450 435h166zM522 -77v-188h-166v188h166z" />
    <glyph glyph-name="UkaliqLetterUngu_UkaliqModifierDot" unicode="&#xee3d;&#x331;" 
d="M73 704q449 0 449 -352t-233 -352t-233 435h166q0 -269 67 -269t67 186q0 185 -283 185v167zM522 -77v-188h-166v188h166z" />
    <glyph glyph-name="UkaliqLetterInji_UkaliqModifierDot" unicode="&#xee3e;&#x331;" 
d="M356 269q0 268 -67 268t-67 -185q0 -186 284 -186v-166q-450 0 -450 352t233 352t233 -435h-166zM522 -77v-188h-166v188h166z" />
    <glyph glyph-name="UkaliqLetterOno_UkaliqModifierDot" unicode="&#xee3f;&#x331;" 
d="M522 -77v-188h-166v188h166zM222 352q0 -186 67 -186t67 186q0 185 -67 185t-67 -185zM56 352q0 352 233 352t233 -352t-233 -352t-233 352z" />
    <glyph glyph-name="UkaliqDash_UkaliqModifierDot" unicode="&#xee40;&#x331;" 
d="M73 435h433v-166h-433v166zM522 -77v-188h-166v188h166z" />
    <glyph glyph-name="UkaliqLetterA_UkaliqModifierDot" unicode="&#xee41;&#x331;" 
d="M73 435q449 0 449 -435h-166q0 269 -283 269v166zM522 -77v-188h-166v188h166z" />
    <glyph glyph-name="UkaliqMinus_UkaliqModifierDot" unicode="&#xee42;&#x331;" 
d="M222 704q0 -269 284 -269v-166q-450 0 -450 435h166zM522 -77v-188h-166v188h166z" />
    <glyph glyph-name="UkaliqLetterAwa_UkaliqModifierDot" unicode="&#xee43;&#x331;" 
d="M522 -77v-188h-166v188h166zM222 704q0 -269 167 -269q133 0 133 -154v-281h-166v270q-300 21 -300 434h166z" />
    <glyph glyph-name="UkaliqLetterErre_UkaliqModifierDot" unicode="&#xee44;&#x331;" 
d="M506 269q-284 0 -284 -269h-166q0 435 450 435v-166zM522 -77v-188h-166v188h166z" />
    <glyph glyph-name="UkaliqAnd_UkaliqModifierDot" unicode="&#xee45;&#x331;" 
d="M56 0q0 435 233 435t233 -435h-166q0 269 -67 269t-67 -269h-166zM522 -77v-188h-166v188h166z" />
    <glyph glyph-name="UkaliqLetterIzji_UkaliqModifierDot" unicode="&#xee46;&#x331;" 
d="M522 -77v-188h-166v188h166zM222 269v-269h-166v352v352h166v-269h284v-166h-284z" />
    <glyph glyph-name="UkaliqLetterOro_UkaliqModifierDot" unicode="&#xee47;&#x331;" 
d="M522 -77v-188h-166v188h166zM222 257v-257h-166v352v352h166v-275q300 -44 300 -429h-166q0 212 -134 257z" />
    <glyph glyph-name="UkaliqNot_UkaliqModifierDot" unicode="&#xee48;&#x331;" 
d="M522 704q0 -435 -449 -435v166q283 0 283 269h166zM522 -77v-188h-166v188h166z" />
    <glyph glyph-name="UkaliqDivision_UkaliqModifierDot" unicode="&#xee49;&#x331;" 
d="M522 704v-352v-352h-166v269h-283v166h283v269h166zM522 -77v-188h-166v188h166z" />
    <glyph glyph-name="UkaliqXor_UkaliqModifierDot" unicode="&#xee4a;&#x331;" 
d="M222 704q0 -269 67 -269t67 269h166q0 -435 -233 -435t-233 435h166zM522 -77v-188h-166v188h166z" />
    <glyph glyph-name="uniEE4B_UkaliqModifierDot" unicode="&#xee4b;&#x331;" 
d="M522 -77v-188h-166v188h166zM522 704v-352v-352h-166v275q-300 44 -300 429h166q0 -211 134 -257v257h166z" />
    <glyph glyph-name="UkaliqLetterIji_UkaliqModifierDot" unicode="&#xee4c;&#x331;" 
d="M522 -77v-188h-166v188h166zM222 270v-270h-166v281q0 154 133 154q167 0 167 269h166q0 -413 -300 -434z" />
    <glyph glyph-name="UkaliqLetterTkot_UkaliqModifierDot" unicode="&#xee4d;&#x331;" 
d="M522 704v-352v-352h-166v257q-134 -45 -134 -257h-166q0 385 300 429v275h166zM522 -77v-188h-166v188h166z" />
    <glyph glyph-name="UkaliqLetterIsji_UkaliqModifierDot" unicode="&#xee4e;&#x331;" 
d="M522 -77v-188h-166v188h166zM222 275v-275h-166v352v352h166v-257q134 45 134 257h166q0 -385 -300 -429z" />
    <glyph glyph-name="UkaliqLetterOrro_UkaliqModifierDot" unicode="&#xee4f;&#x331;" 
d="M522 -77v-188h-166v188h166zM522 704v-352v-352h-166v269h-134v-269h-166v352v352h166v-269h134v269h166z" />
    <glyph glyph-name="UkaliqDigitZero_UkaliqModifierDot" unicode="&#xee50;&#x331;" 
d="M73 166h433v-166h-433v166zM73 435h433v-166h-433v166zM522 -77v-188h-166v188h166z" />
    <glyph glyph-name="UkaliqDigitOne_UkaliqModifierDot" unicode="&#xee51;&#x331;" 
d="M73 435q449 0 449 -218q0 -217 -449 -217v166q283 0 283 51q0 52 -283 52v166zM522 -77v-188h-166v188h166z" />
    <glyph glyph-name="UkaliqDigitTwo_UkaliqModifierDot" unicode="&#xee52;&#x331;" 
d="M222 704q0 -269 284 -269v-166q-450 0 -450 435h166zM73 166h433v-166h-433v166zM522 -77v-188h-166v188h166z" />
    <glyph glyph-name="UkaliqDigitThree_UkaliqModifierDot" unicode="&#xee53;&#x331;" 
d="M522 -77v-188h-166v188h166zM222 704q0 -269 167 -269q133 0 133 -128q0 -307 -449 -307v166q244 0 278 105q-295 24 -295 433h166z" />
    <glyph glyph-name="UkaliqDigitFour_UkaliqModifierDot" unicode="&#xee54;&#x331;" 
d="M506 269q-284 0 -284 -52q0 -51 284 -51v-166q-450 0 -450 217q0 218 450 218v-166zM522 -77v-188h-166v188h166z" />
    <glyph glyph-name="UkaliqDigitFive_UkaliqModifierDot" unicode="&#xee55;&#x331;" 
d="M522 -77v-188h-166v188h166zM222 217q0 -51 67 -51t67 51q0 52 -67 52t-67 -52zM56 217q0 218 233 218t233 -218q0 -217 -233 -217t-233 217z" />
    <glyph glyph-name="UkaliqDigitSix_UkaliqModifierDot" unicode="&#xee56;&#x331;" 
d="M522 -77v-188h-166v188h166zM241 269q54 -103 265 -103v-166q-450 0 -450 352v352h166v-269h284v-166h-265z" />
    <glyph glyph-name="UkaliqDigitSeven_UkaliqModifierDot" unicode="&#xee57;&#x331;" 
d="M522 -77v-188h-166v188h166zM227 266q13 -100 62 -100q67 0 67 51q0 40 -129 49zM222 432q300 -22 300 -215q0 -217 -233 -217t-233 352v352h166v-272z" />
    <glyph glyph-name="UkaliqDigitEight_UkaliqModifierDot" unicode="&#xee58;&#x331;" 
d="M73 166h433v-166h-433v166zM522 704q0 -435 -449 -435v166q283 0 283 269h166zM522 -77v-188h-166v188h166z" />
    <glyph glyph-name="UkaliqDigitNine_UkaliqModifierDot" unicode="&#xee59;&#x331;" 
d="M522 704v-352q0 -352 -449 -352v166q211 0 264 103h-264v166h283v269h166zM522 -77v-188h-166v188h166z" />
    <glyph glyph-name="UkaliqDigitTen_UkaliqModifierDot" unicode="&#xee5a;&#x331;" 
d="M222 704q0 -269 67 -269t67 269h166q0 -435 -233 -435t-233 435h166zM73 166h433v-166h-433v166zM522 -77v-188h-166v188h166z" />
    <glyph glyph-name="UkaliqDigitEleven_UkaliqModifierDot" unicode="&#xee5b;&#x331;" 
d="M522 -77v-188h-166v188h166zM522 704v-352q0 -352 -449 -352v166q219 0 268 111q-285 51 -285 427h166q0 -211 134 -257v257h166z" />
    <glyph glyph-name="UkaliqDigitTwelve_UkaliqModifierDot" unicode="&#xee5c;&#x331;" 
d="M522 -77v-188h-166v188h166zM227 271q34 -105 279 -105v-166q-450 0 -450 307q0 128 133 128q167 0 167 269h166q0 -409 -295 -433z" />
    <glyph glyph-name="UkaliqDigitThirteen_UkaliqModifierDot" unicode="&#xee5d;&#x331;" 
d="M522 704v-352q0 -352 -233 -352t-233 217q0 193 300 215v272h166zM522 -77v-188h-166v188h166zM351 266q-129 -9 -129 -49q0 -51 67 -51q49 0 62 100z" />
    <glyph glyph-name="UkaliqDigitFourteen_UkaliqModifierDot" unicode="&#xee5e;&#x331;" 
d="M522 -77v-188h-166v188h166zM237 277q50 -111 269 -111v-166q-450 0 -450 352v352h166v-257q134 45 134 257h166q0 -376 -285 -427z" />
    <glyph glyph-name="UkaliqDigitFifteen_UkaliqModifierDot" unicode="&#xee5f;&#x331;" 
d="M522 -77v-188h-166v188h166zM356 435v269h166v-352q0 -352 -233 -352t-233 352v352h166v-269h134zM352 269h-126q13 -103 63 -103t63 103z" />
    <glyph glyph-name="UkaliqLetterSchwa_UkaliqModifierDot" unicode="&#xee60;&#x331;" 
d="M73 435h433v-166h-433v166zM522 -77v-188h-166v188h166zM73 704h433v-167h-433v167z" />
    <glyph glyph-name="UkaliqLetterOhgo_UkaliqModifierDot" unicode="&#xee61;&#x331;" 
d="M73 435q449 0 449 -435h-166q0 269 -283 269v166zM522 -77v-188h-166v188h166zM73 704h433v-167h-433v167z" />
    <glyph glyph-name="UkaliqLetterArha_UkaliqModifierDot" unicode="&#xee62;&#x331;" 
d="M506 537q-284 0 -284 -51t284 -51v-166q-450 0 -450 217q0 218 450 218v-167zM522 -77v-188h-166v188h166z" />
    <glyph glyph-name="UkaliqLetterAva_UkaliqModifierDot" unicode="&#xee63;&#x331;" 
d="M522 -77v-188h-166v188h166zM506 537q-284 0 -284 -51t167 -51q133 0 133 -154v-281h-166v270q-300 10 -300 216q0 218 450 218v-167z" />
    <glyph glyph-name="UkaliqLetterEzre_UkaliqModifierDot" unicode="&#xee64;&#x331;" 
d="M506 269q-284 0 -284 -269h-166q0 435 450 435v-166zM522 -77v-188h-166v188h166zM73 704h433v-167h-433v167z" />
    <glyph glyph-name="UkaliqLetterUghu_UkaliqModifierDot" unicode="&#xee65;&#x331;" 
d="M56 0q0 435 233 435t233 -435h-166q0 269 -67 269t-67 -269h-166zM522 -77v-188h-166v188h166zM73 704h433v-167h-433v167z" />
    <glyph glyph-name="UkaliqLetterIjji_UkaliqModifierDot" unicode="&#xee66;&#x331;" 
d="M522 -77v-188h-166v188h166zM222 269v-269h-166v352q0 352 450 352v-167q-211 0 -265 -102h265v-166h-284z" />
    <glyph glyph-name="UkaliqLetterOdho_UkaliqModifierDot" unicode="&#xee67;&#x331;" 
d="M522 -77v-188h-166v188h166zM222 257v-257h-166v352q0 352 450 352v-167q-219 0 -269 -110q285 -51 285 -427h-166q0 212 -134 257z" />
    <glyph glyph-name="UkaliqLetterOhho_UkaliqModifierDot" unicode="&#xee68;&#x331;" 
d="M73 704q449 0 449 -218q0 -217 -449 -217v166q283 0 283 51t-283 51v167zM522 -77v-188h-166v188h166z" />
    <glyph glyph-name="UkaliqLetterAha_UkaliqModifierDot" unicode="&#xee69;&#x331;" 
d="M73 704q449 0 449 -352v-352h-166v269h-283v166h264q-54 102 -264 102v167zM522 -77v-188h-166v188h166z" />
    <glyph glyph-name="UkaliqLetterAqha_UkaliqModifierDot" unicode="&#xee6a;&#x331;" 
d="M522 -77v-188h-166v188h166zM222 486q0 -51 67 -51t67 51t-67 51t-67 -51zM56 486q0 218 233 218t233 -218q0 -217 -233 -217t-233 217z" />
    <glyph glyph-name="UkaliqLetterAfa_UkaliqModifierDot" unicode="&#xee6b;&#x331;" 
d="M522 -77v-188h-166v188h166zM351 438q-13 99 -62 99q-67 0 -67 -51q0 -39 129 -48zM356 272q-300 22 -300 214q0 218 233 218t233 -352v-352h-166v272z" />
    <glyph glyph-name="UkaliqLetterEsre_UkaliqModifierDot" unicode="&#xee6c;&#x331;" 
d="M73 704q449 0 449 -218q0 -206 -300 -216v-270h-166v281q0 154 133 154q167 0 167 51t-283 51v167zM522 -77v-188h-166v188h166z" />
    <glyph glyph-name="UkaliqLetterUkhu_UkaliqModifierDot" unicode="&#xee6d;&#x331;" 
d="M73 704q449 0 449 -352v-352h-166v257q-134 -45 -134 -257h-166q0 375 285 427q-50 110 -268 110v167zM522 -77v-188h-166v188h166z" />
    <glyph glyph-name="UkaliqLetterIcji_UkaliqModifierDot" unicode="&#xee6e;&#x331;" 
d="M522 -77v-188h-166v188h166zM222 272v-272h-166v352q0 352 233 352t233 -218q0 -192 -300 -214zM227 438q129 9 129 48q0 51 -67 51q-49 0 -62 -99z" />
    <glyph glyph-name="UkaliqLetterOtho_UkaliqModifierDot" unicode="&#xee6f;&#x331;" 
d="M522 -77v-188h-166v188h166zM56 0v352q0 352 233 352t233 -352v-352h-166v269h-134v-269h-166zM226 435h126q-13 102 -63 102t-63 -102z" />
    <glyph glyph-name="UkaliqIterationMark_UkaliqModifierDot" unicode="&#xee70;&#x331;" 
d="M73 166h433v-166h-433v166zM73 435h433v-166h-433v166zM522 -77v-188h-166v188h166zM73 704h433v-167h-433v167z" />
    <glyph glyph-name="UkaliqPercent_UkaliqModifierDot" unicode="&#xee71;&#x331;" 
d="M73 435q449 0 449 -218q0 -217 -449 -217v166q283 0 283 51q0 52 -283 52v166zM522 -77v-188h-166v188h166zM73 704h433v-167h-433v167z" />
    <glyph glyph-name="UkaliqLetterAgqa_UkaliqModifierDot" unicode="&#xee72;&#x331;" 
d="M506 537q-284 0 -284 -51t284 -51v-166q-450 0 -450 217q0 218 450 218v-167zM73 166h433v-166h-433v166zM522 -77v-188h-166v188h166z" />
    <glyph glyph-name="UkaliqLetterAba_UkaliqModifierDot" unicode="&#xee73;&#x331;" 
d="M522 -77v-188h-166v188h166zM506 537q-284 0 -284 -51t167 -51q133 0 133 -128q0 -307 -449 -307v166q243 0 277 104q-294 12 -294 216q0 218 450 218v-167z" />
    <glyph glyph-name="UkaliqLetterEdre_UkaliqModifierDot" unicode="&#xee74;&#x331;" 
d="M506 269q-284 0 -284 -52q0 -51 284 -51v-166q-450 0 -450 217q0 218 450 218v-166zM522 -77v-188h-166v188h166zM73 704h433v-167h-433v167z" />
    <glyph glyph-name="UkaliqLetterUgu_UkaliqModifierDot" unicode="&#xee75;&#x331;" 
d="M522 -77v-188h-166v188h166zM73 704h433v-167h-433v167zM222 217q0 -51 67 -51t67 51q0 52 -67 52t-67 -52zM56 217q0 218 233 218t233 -218q0 -217 -233 -217t-233 217z" />
    <glyph glyph-name="UkaliqLetterIgji_UkaliqModifierDot" unicode="&#xee76;&#x331;" 
d="M522 -77v-188h-166v188h166zM241 269q54 -103 265 -103v-166q-450 0 -450 352t450 352v-167q-211 0 -265 -102h265v-166h-265z" />
    <glyph glyph-name="UkaliqLetterOdo_UkaliqModifierDot" unicode="&#xee77;&#x331;" 
d="M522 -77v-188h-166v188h166zM227 266q13 -100 62 -100q67 0 67 51q0 40 -129 49zM239 431q283 -26 283 -214q0 -217 -233 -217t-233 352t450 352v-167q-215 0 -267 -106z" />
    <glyph glyph-name="UkaliqLetterOhhko_UkaliqModifierDot" unicode="&#xee78;&#x331;" 
d="M73 166h433v-166h-433v166zM73 704q449 0 449 -218q0 -217 -449 -217v166q283 0 283 51t-283 51v167zM522 -77v-188h-166v188h166z" />
    <glyph glyph-name="UkaliqLetterAhka_UkaliqModifierDot" unicode="&#xee79;&#x331;" 
d="M73 704q449 0 449 -352t-449 -352v166q211 0 264 103h-264v166h264q-54 102 -264 102v167zM522 -77v-188h-166v188h166z" />
    <glyph glyph-name="UkaliqLetterAqa_UkaliqModifierDot" unicode="&#xee7a;&#x331;" 
d="M73 166h433v-166h-433v166zM522 -77v-188h-166v188h166zM222 486q0 -51 67 -51t67 51t-67 51t-67 -51zM56 486q0 218 233 218t233 -218q0 -217 -233 -217t-233 217z" />
    <glyph glyph-name="UkaliqLetterApa_UkaliqModifierDot" unicode="&#xee7b;&#x331;" 
d="M522 -77v-188h-166v188h166zM351 438q-13 99 -62 99q-67 0 -67 -51q0 -39 129 -48zM340 273q-284 26 -284 213q0 218 233 218t233 -352t-449 -352v166q215 0 267 107z" />
    <glyph glyph-name="UkaliqLetterEtre_UkaliqModifierDot" unicode="&#xee7c;&#x331;" 
d="M73 704q449 0 449 -218q0 -204 -294 -216q35 -104 278 -104v-166q-450 0 -450 307q0 128 133 128q167 0 167 51t-283 51v167zM522 -77v-188h-166v188h166z" />
    <glyph glyph-name="UkaliqLetterUku_UkaliqModifierDot" unicode="&#xee7d;&#x331;" 
d="M73 704q449 0 449 -352t-233 -352t-233 217q0 188 283 214q-52 106 -266 106v167zM522 -77v-188h-166v188h166zM351 266q-129 -9 -129 -49q0 -51 67 -51q49 0 62 100z" />
    <glyph glyph-name="UkaliqLetterIci_UkaliqModifierDot" unicode="&#xee7e;&#x331;" 
d="M522 -77v-188h-166v188h166zM238 273q52 -107 268 -107v-166q-450 0 -450 352t233 352t233 -218q0 -187 -284 -213zM227 438q129 9 129 48q0 51 -67 51q-49 0 -62 -99z" />
    <glyph glyph-name="UkaliqLetterOto_UkaliqModifierDot" unicode="&#xee7f;&#x331;" 
d="M522 -77v-188h-166v188h166zM226 435h126q-13 102 -63 102t-63 -102zM352 269h-126q13 -103 63 -103t63 103zM56 352q0 352 233 352t233 -352t-233 -352t-233 352z" />
    <glyph glyph-name="UkaliqPatternBlank_UkaliqModifierDot" unicode="&#xf1d00;&#x331;" 
d="M522 -77v-188h-166v188h166z" />
    <glyph glyph-name="UkaliqPatternSegmentsC_UkaliqModifierDot" unicode="&#xf1d01;&#x331;" 
d="M522 435v-435h-166v435h166zM522 -77v-188h-166v188h166z" />
    <glyph glyph-name="UkaliqPatternSegmentsF_UkaliqModifierDot" unicode="&#xf1d02;&#x331;" 
d="M222 704v-435h-166v435h166zM522 -77v-188h-166v188h166z" />
    <glyph glyph-name="UkaliqPatternSegmentsCf_UkaliqModifierDot" unicode="&#xf1d03;&#x331;" 
d="M522 435v-435h-166v435h166zM222 704v-435h-166v435h166zM522 -77v-188h-166v188h166z" />
    <glyph glyph-name="UkaliqPatternSegmentsE_UkaliqModifierDot" unicode="&#xf1d04;&#x331;" 
d="M222 435v-435h-166v435h166zM522 -77v-188h-166v188h166z" />
    <glyph glyph-name="UkaliqPatternSegmentsCe_UkaliqModifierDot" unicode="&#xf1d05;&#x331;" 
d="M522 435v-435h-166v435h166zM222 435v-435h-166v435h166zM522 -77v-188h-166v188h166z" />
    <glyph glyph-name="UkaliqPatternSegmentsEf_UkaliqModifierDot" unicode="&#xf1d06;&#x331;" 
d="M222 704v-704h-166v704h166zM522 -77v-188h-166v188h166z" />
    <glyph glyph-name="UkaliqPatternSegmentsCef_UkaliqModifierDot" unicode="&#xf1d07;&#x331;" 
d="M222 704v-704h-166v704h166zM522 435v-435h-166v435h166zM522 -77v-188h-166v188h166z" />
    <glyph glyph-name="UkaliqPatternSegmentsB_UkaliqModifierDot" unicode="&#xf1d08;&#x331;" 
d="M522 704v-435h-166v435h166zM522 -77v-188h-166v188h166z" />
    <glyph glyph-name="UkaliqPatternSegmentsBc_UkaliqModifierDot" unicode="&#xf1d09;&#x331;" 
d="M522 704v-704h-166v704h166zM522 -77v-188h-166v188h166z" />
    <glyph glyph-name="UkaliqPatternSegmentsBf_UkaliqModifierDot" unicode="&#xf1d0a;&#x331;" 
d="M222 704v-435h-166v435h166zM522 704v-435h-166v435h166zM522 -77v-188h-166v188h166z" />
    <glyph glyph-name="UkaliqPatternSegmentsBcf_UkaliqModifierDot" unicode="&#xf1d0b;&#x331;" 
d="M522 704v-704h-166v704h166zM222 704v-435h-166v435h166zM522 -77v-188h-166v188h166z" />
    <glyph glyph-name="UkaliqPatternSegmentsBe_UkaliqModifierDot" unicode="&#xf1d0c;&#x331;" 
d="M522 704v-435h-166v435h166zM222 435v-435h-166v435h166zM522 -77v-188h-166v188h166z" />
    <glyph glyph-name="UkaliqPatternSegmentsBce_UkaliqModifierDot" unicode="&#xf1d0d;&#x331;" 
d="M522 704v-704h-166v704h166zM222 435v-435h-166v435h166zM522 -77v-188h-166v188h166z" />
    <glyph glyph-name="UkaliqPatternSegmentsBef_UkaliqModifierDot" unicode="&#xf1d0e;&#x331;" 
d="M222 704v-704h-166v704h166zM522 704v-435h-166v435h166zM522 -77v-188h-166v188h166z" />
    <glyph glyph-name="UkaliqPatternSegmentsBcef_UkaliqModifierDot" unicode="&#xf1d0f;&#x331;" 
d="M522 704v-704h-166v704h166zM222 704v-704h-166v704h166zM522 -77v-188h-166v188h166z" />
    <glyph glyph-name="UkaliqPatternSegmentsD_UkaliqModifierDot" unicode="&#xf1d10;&#x331;" 
d="M73 166h433v-166h-433v166zM522 -77v-188h-166v188h166z" />
    <glyph glyph-name="UkaliqPatternSegmentsCd_UkaliqModifierDot" unicode="&#xf1d11;&#x331;" 
d="M522 -77v-188h-166v188h166zM522 435q0 -435 -449 -435v166q283 0 283 269h166z" />
    <glyph glyph-name="UkaliqPatternSegmentsDf_UkaliqModifierDot" unicode="&#xf1d12;&#x331;" 
d="M73 166h433v-166h-433v166zM222 704v-435h-166v435h166zM522 -77v-188h-166v188h166z" />
    <glyph glyph-name="UkaliqPatternSegmentsCdf_UkaliqModifierDot" unicode="&#xf1d13;&#x331;" 
d="M222 704v-435h-166v435h166zM522 -77v-188h-166v188h166zM522 435q0 -435 -449 -435v166q283 0 283 269h166z" />
    <glyph glyph-name="UkaliqPatternSegmentsDe_UkaliqModifierDot" unicode="&#xf1d14;&#x331;" 
d="M222 435q0 -269 284 -269v-166q-450 0 -450 435h166zM522 -77v-188h-166v188h166z" />
    <glyph glyph-name="UkaliqPatternSegmentsCde_UkaliqModifierDot" unicode="&#xf1d15;&#x331;" 
d="M222 435q0 -269 67 -269t67 269h166q0 -435 -233 -435t-233 435h166zM522 -77v-188h-166v188h166z" />
    <glyph glyph-name="UkaliqPatternSegmentsDef_UkaliqModifierDot" unicode="&#xf1d16;&#x331;" 
d="M222 704v-207q0 -331 284 -331v-166q-450 0 -450 497v207h166zM522 -77v-188h-166v188h166z" />
    <glyph glyph-name="UkaliqPatternSegmentsCdef_UkaliqModifierDot" unicode="&#xf1d17;&#x331;" 
d="M222 704v-207q0 -331 67 -331t67 269h166q0 -435 -233 -435t-233 497v207h166zM522 -77v-188h-166v188h166z" />
    <glyph glyph-name="UkaliqPatternSegmentsBd_UkaliqModifierDot" unicode="&#xf1d18;&#x331;" 
d="M73 166h433v-166h-433v166zM522 704v-435h-166v435h166zM522 -77v-188h-166v188h166z" />
    <glyph glyph-name="UkaliqPatternSegmentsBcd_UkaliqModifierDot" unicode="&#xf1d19;&#x331;" 
d="M522 704v-207q0 -497 -449 -497v166q283 0 283 331v207h166zM522 -77v-188h-166v188h166z" />
    <glyph glyph-name="UkaliqPatternSegmentsBdf_UkaliqModifierDot" unicode="&#xf1d1a;&#x331;" 
d="M73 166h433v-166h-433v166zM222 704v-435h-166v435h166zM522 704v-435h-166v435h166zM522 -77v-188h-166v188h166z" />
    <glyph glyph-name="UkaliqPatternSegmentsBcdf_UkaliqModifierDot" unicode="&#xf1d1b;&#x331;" 
d="M222 704v-435h-166v435h166zM522 704v-207q0 -497 -449 -497v166q283 0 283 331v207h166zM522 -77v-188h-166v188h166z" />
    <glyph glyph-name="UkaliqPatternSegmentsBde_UkaliqModifierDot" unicode="&#xf1d1c;&#x331;" 
d="M222 435q0 -269 284 -269v-166q-450 0 -450 435h166zM522 704v-435h-166v435h166zM522 -77v-188h-166v188h166z" />
    <glyph glyph-name="UkaliqPatternSegmentsBcde_UkaliqModifierDot" unicode="&#xf1d1d;&#x331;" 
d="M522 704v-207q0 -497 -233 -497t-233 435h166q0 -269 67 -269t67 331v207h166zM522 -77v-188h-166v188h166z" />
    <glyph glyph-name="UkaliqPatternSegmentsBdef_UkaliqModifierDot" unicode="&#xf1d1e;&#x331;" 
d="M222 704v-207q0 -331 284 -331v-166q-450 0 -450 497v207h166zM522 704v-435h-166v435h166zM522 -77v-188h-166v188h166z" />
    <glyph glyph-name="UkaliqPatternSegmentsBcdef_UkaliqModifierDot" unicode="&#xf1d1f;&#x331;" 
d="M222 704v-207q0 -331 67 -331t67 331v207h166v-207q0 -497 -233 -497t-233 497v207h166zM522 -77v-188h-166v188h166z" />
    <glyph glyph-name="UkaliqPatternSegmentsA_UkaliqModifierDot" unicode="&#xf1d20;&#x331;" 
d="M522 -77v-188h-166v188h166zM73 704h433v-167h-433v167z" />
    <glyph glyph-name="UkaliqPatternSegmentsAc_UkaliqModifierDot" unicode="&#xf1d21;&#x331;" 
d="M522 435v-435h-166v435h166zM522 -77v-188h-166v188h166zM73 704h433v-167h-433v167z" />
    <glyph glyph-name="UkaliqPatternSegmentsAf_UkaliqModifierDot" unicode="&#xf1d22;&#x331;" 
d="M506 537q-284 0 -284 -268h-166q0 435 450 435v-167zM522 -77v-188h-166v188h166z" />
    <glyph glyph-name="UkaliqPatternSegmentsAcf_UkaliqModifierDot" unicode="&#xf1d23;&#x331;" 
d="M522 435v-435h-166v435h166zM506 537q-284 0 -284 -268h-166q0 435 450 435v-167zM522 -77v-188h-166v188h166z" />
    <glyph glyph-name="UkaliqPatternSegmentsAe_UkaliqModifierDot" unicode="&#xf1d24;&#x331;" 
d="M222 435v-435h-166v435h166zM522 -77v-188h-166v188h166zM73 704h433v-167h-433v167z" />
    <glyph glyph-name="UkaliqPatternSegmentsAce_UkaliqModifierDot" unicode="&#xf1d25;&#x331;" 
d="M522 435v-435h-166v435h166zM222 435v-435h-166v435h166zM522 -77v-188h-166v188h166zM73 704h433v-167h-433v167z" />
    <glyph glyph-name="UkaliqPatternSegmentsAef_UkaliqModifierDot" unicode="&#xf1d26;&#x331;" 
d="M506 537q-284 0 -284 -330v-207h-166v207q0 497 450 497v-167zM522 -77v-188h-166v188h166z" />
    <glyph glyph-name="UkaliqPatternSegmentsAcef_UkaliqModifierDot" unicode="&#xf1d27;&#x331;" 
d="M506 537q-284 0 -284 -330v-207h-166v207q0 497 450 497v-167zM522 435v-435h-166v435h166zM522 -77v-188h-166v188h166z" />
    <glyph glyph-name="UkaliqPatternSegmentsAb_UkaliqModifierDot" unicode="&#xf1d28;&#x331;" 
d="M73 704q449 0 449 -435h-166q0 268 -283 268v167zM522 -77v-188h-166v188h166z" />
    <glyph glyph-name="UkaliqPatternSegmentsAbc_UkaliqModifierDot" unicode="&#xf1d29;&#x331;" 
d="M73 704q449 0 449 -497v-207h-166v207q0 330 -283 330v167zM522 -77v-188h-166v188h166z" />
    <glyph glyph-name="UkaliqPatternSegmentsAbf_UkaliqModifierDot" unicode="&#xf1d2a;&#x331;" 
d="M56 269q0 435 233 435t233 -435h-166q0 268 -67 268t-67 -268h-166zM522 -77v-188h-166v188h166z" />
    <glyph glyph-name="UkaliqPatternSegmentsAbcf_UkaliqModifierDot" unicode="&#xf1d2b;&#x331;" 
d="M56 269q0 435 233 435t233 -497v-207h-166v207q0 330 -67 330t-67 -268h-166zM522 -77v-188h-166v188h166z" />
    <glyph glyph-name="UkaliqPatternSegmentsAbe_UkaliqModifierDot" unicode="&#xf1d2c;&#x331;" 
d="M73 704q449 0 449 -435h-166q0 268 -283 268v167zM222 435v-435h-166v435h166zM522 -77v-188h-166v188h166z" />
    <glyph glyph-name="UkaliqPatternSegmentsAbce_UkaliqModifierDot" unicode="&#xf1d2d;&#x331;" 
d="M73 704q449 0 449 -497v-207h-166v207q0 330 -283 330v167zM222 435v-435h-166v435h166zM522 -77v-188h-166v188h166z" />
    <glyph glyph-name="UkaliqPatternSegmentsAbef_UkaliqModifierDot" unicode="&#xf1d2e;&#x331;" 
d="M356 269q0 268 -67 268t-67 -330v-207h-166v207q0 497 233 497t233 -435h-166zM522 -77v-188h-166v188h166z" />
    <glyph glyph-name="UkaliqPatternSegmentsAbcef_UkaliqModifierDot" unicode="&#xf1d2f;&#x331;" 
d="M56 0v207q0 497 233 497t233 -497v-207h-166v207q0 330 -67 330t-67 -330v-207h-166zM522 -77v-188h-166v188h166z" />
    <glyph glyph-name="UkaliqPatternSegmentsAd_UkaliqModifierDot" unicode="&#xf1d30;&#x331;" 
d="M73 166h433v-166h-433v166zM522 -77v-188h-166v188h166zM73 704h433v-167h-433v167z" />
    <glyph glyph-name="UkaliqPatternSegmentsAcd_UkaliqModifierDot" unicode="&#xf1d31;&#x331;" 
d="M522 -77v-188h-166v188h166zM522 435q0 -435 -449 -435v166q283 0 283 269h166zM73 704h433v-167h-433v167z" />
    <glyph glyph-name="UkaliqPatternSegmentsAdf_UkaliqModifierDot" unicode="&#xf1d32;&#x331;" 
d="M73 166h433v-166h-433v166zM506 537q-284 0 -284 -268h-166q0 435 450 435v-167zM522 -77v-188h-166v188h166z" />
    <glyph glyph-name="UkaliqPatternSegmentsAcdf_UkaliqModifierDot" unicode="&#xf1d33;&#x331;" 
d="M506 537q-284 0 -284 -268h-166q0 435 450 435v-167zM522 -77v-188h-166v188h166zM522 435q0 -435 -449 -435v166q283 0 283 269h166z" />
    <glyph glyph-name="UkaliqPatternSegmentsAde_UkaliqModifierDot" unicode="&#xf1d34;&#x331;" 
d="M222 435q0 -269 284 -269v-166q-450 0 -450 435h166zM522 -77v-188h-166v188h166zM73 704h433v-167h-433v167z" />
    <glyph glyph-name="UkaliqPatternSegmentsAcde_UkaliqModifierDot" unicode="&#xf1d35;&#x331;" 
d="M222 435q0 -269 67 -269t67 269h166q0 -435 -233 -435t-233 435h166zM522 -77v-188h-166v188h166zM73 704h433v-167h-433v167z" />
    <glyph glyph-name="UkaliqPatternSegmentsAdef_UkaliqModifierDot" unicode="&#xf1d36;&#x331;" 
d="M506 537q-284 0 -284 -185q0 -186 284 -186v-166q-450 0 -450 352t450 352v-167zM522 -77v-188h-166v188h166z" />
    <glyph glyph-name="UkaliqPatternSegmentsAcdef_UkaliqModifierDot" unicode="&#xf1d37;&#x331;" 
d="M506 537q-284 0 -284 -185q0 -186 67 -186t67 269h166q0 -435 -233 -435t-233 352t450 352v-167zM522 -77v-188h-166v188h166z" />
    <glyph glyph-name="UkaliqPatternSegmentsAbd_UkaliqModifierDot" unicode="&#xf1d38;&#x331;" 
d="M73 166h433v-166h-433v166zM73 704q449 0 449 -435h-166q0 268 -283 268v167zM522 -77v-188h-166v188h166z" />
    <glyph glyph-name="UkaliqPatternSegmentsAbcd_UkaliqModifierDot" unicode="&#xf1d39;&#x331;" 
d="M73 704q449 0 449 -352t-449 -352v166q283 0 283 186q0 185 -283 185v167zM522 -77v-188h-166v188h166z" />
    <glyph glyph-name="UkaliqPatternSegmentsAbdf_UkaliqModifierDot" unicode="&#xf1d3a;&#x331;" 
d="M73 166h433v-166h-433v166zM56 269q0 435 233 435t233 -435h-166q0 268 -67 268t-67 -268h-166zM522 -77v-188h-166v188h166z" />
    <glyph glyph-name="UkaliqPatternSegmentsAbcdf_UkaliqModifierDot" unicode="&#xf1d3b;&#x331;" 
d="M56 269q0 435 233 435t233 -352t-449 -352v166q283 0 283 186q0 185 -67 185t-67 -268h-166zM522 -77v-188h-166v188h166z" />
    <glyph glyph-name="UkaliqPatternSegmentsAbde_UkaliqModifierDot" unicode="&#xf1d3c;&#x331;" 
d="M73 704q449 0 449 -435h-166q0 268 -283 268v167zM222 435q0 -269 284 -269v-166q-450 0 -450 435h166zM522 -77v-188h-166v188h166z" />
    <glyph glyph-name="UkaliqPatternSegmentsAbcde_UkaliqModifierDot" unicode="&#xf1d3d;&#x331;" 
d="M73 704q449 0 449 -352t-233 -352t-233 435h166q0 -269 67 -269t67 186q0 185 -283 185v167zM522 -77v-188h-166v188h166z" />
    <glyph glyph-name="UkaliqPatternSegmentsAbdef_UkaliqModifierDot" unicode="&#xf1d3e;&#x331;" 
d="M356 269q0 268 -67 268t-67 -185q0 -186 284 -186v-166q-450 0 -450 352t233 352t233 -435h-166zM522 -77v-188h-166v188h166z" />
    <glyph glyph-name="UkaliqPatternSegmentsAbcdef_UkaliqModifierDot" unicode="&#xf1d3f;&#x331;" 
d="M522 -77v-188h-166v188h166zM222 352q0 -186 67 -186t67 186q0 185 -67 185t-67 -185zM56 352q0 352 233 352t233 -352t-233 -352t-233 352z" />
    <glyph glyph-name="UkaliqPatternSegmentsG_UkaliqModifierDot" unicode="&#xf1d40;&#x331;" 
d="M73 435h433v-166h-433v166zM522 -77v-188h-166v188h166z" />
    <glyph glyph-name="UkaliqPatternSegmentsCg_UkaliqModifierDot" unicode="&#xf1d41;&#x331;" 
d="M73 435q449 0 449 -435h-166q0 269 -283 269v166zM522 -77v-188h-166v188h166z" />
    <glyph glyph-name="UkaliqPatternSegmentsFg_UkaliqModifierDot" unicode="&#xf1d42;&#x331;" 
d="M222 704q0 -269 284 -269v-166q-450 0 -450 435h166zM522 -77v-188h-166v188h166z" />
    <glyph glyph-name="UkaliqPatternSegmentsCfg_UkaliqModifierDot" unicode="&#xf1d43;&#x331;" 
d="M522 -77v-188h-166v188h166zM222 704q0 -269 167 -269q133 0 133 -154v-281h-166v270q-300 21 -300 434h166z" />
    <glyph glyph-name="UkaliqPatternSegmentsEg_UkaliqModifierDot" unicode="&#xf1d44;&#x331;" 
d="M506 269q-284 0 -284 -269h-166q0 435 450 435v-166zM522 -77v-188h-166v188h166z" />
    <glyph glyph-name="UkaliqPatternSegmentsCeg_UkaliqModifierDot" unicode="&#xf1d45;&#x331;" 
d="M56 0q0 435 233 435t233 -435h-166q0 269 -67 269t-67 -269h-166zM522 -77v-188h-166v188h166z" />
    <glyph glyph-name="UkaliqPatternSegmentsEfg_UkaliqModifierDot" unicode="&#xf1d46;&#x331;" 
d="M522 -77v-188h-166v188h166zM222 269v-269h-166v352v352h166v-269h284v-166h-284z" />
    <glyph glyph-name="UkaliqPatternSegmentsCefg_UkaliqModifierDot" unicode="&#xf1d47;&#x331;" 
d="M522 -77v-188h-166v188h166zM222 257v-257h-166v352v352h166v-275q300 -44 300 -429h-166q0 212 -134 257z" />
    <glyph glyph-name="UkaliqPatternSegmentsBg_UkaliqModifierDot" unicode="&#xf1d48;&#x331;" 
d="M522 704q0 -435 -449 -435v166q283 0 283 269h166zM522 -77v-188h-166v188h166z" />
    <glyph glyph-name="UkaliqPatternSegmentsBcg_UkaliqModifierDot" unicode="&#xf1d49;&#x331;" 
d="M522 704v-352v-352h-166v269h-283v166h283v269h166zM522 -77v-188h-166v188h166z" />
    <glyph glyph-name="UkaliqPatternSegmentsBfg_UkaliqModifierDot" unicode="&#xf1d4a;&#x331;" 
d="M222 704q0 -269 67 -269t67 269h166q0 -435 -233 -435t-233 435h166zM522 -77v-188h-166v188h166z" />
    <glyph glyph-name="UkaliqPatternSegmentsBcfg_UkaliqModifierDot" unicode="&#xf1d4b;&#x331;" 
d="M522 -77v-188h-166v188h166zM522 704v-352v-352h-166v275q-300 44 -300 429h166q0 -211 134 -257v257h166z" />
    <glyph glyph-name="UkaliqPatternSegmentsBeg_UkaliqModifierDot" unicode="&#xf1d4c;&#x331;" 
d="M522 -77v-188h-166v188h166zM222 270v-270h-166v281q0 154 133 154q167 0 167 269h166q0 -413 -300 -434z" />
    <glyph glyph-name="UkaliqPatternSegmentsBceg_UkaliqModifierDot" unicode="&#xf1d4d;&#x331;" 
d="M522 704v-352v-352h-166v257q-134 -45 -134 -257h-166q0 385 300 429v275h166zM522 -77v-188h-166v188h166z" />
    <glyph glyph-name="UkaliqPatternSegmentsBefg_UkaliqModifierDot" unicode="&#xf1d4e;&#x331;" 
d="M522 -77v-188h-166v188h166zM222 275v-275h-166v352v352h166v-257q134 45 134 257h166q0 -385 -300 -429z" />
    <glyph glyph-name="UkaliqPatternSegmentsBcefg_UkaliqModifierDot" unicode="&#xf1d4f;&#x331;" 
d="M522 -77v-188h-166v188h166zM522 704v-352v-352h-166v269h-134v-269h-166v352v352h166v-269h134v269h166z" />
    <glyph glyph-name="UkaliqPatternSegmentsDg_UkaliqModifierDot" unicode="&#xf1d50;&#x331;" 
d="M73 166h433v-166h-433v166zM73 435h433v-166h-433v166zM522 -77v-188h-166v188h166z" />
    <glyph glyph-name="UkaliqPatternSegmentsCdg_UkaliqModifierDot" unicode="&#xf1d51;&#x331;" 
d="M73 435q449 0 449 -218q0 -217 -449 -217v166q283 0 283 51q0 52 -283 52v166zM522 -77v-188h-166v188h166z" />
    <glyph glyph-name="UkaliqPatternSegmentsDfg_UkaliqModifierDot" unicode="&#xf1d52;&#x331;" 
d="M222 704q0 -269 284 -269v-166q-450 0 -450 435h166zM73 166h433v-166h-433v166zM522 -77v-188h-166v188h166z" />
    <glyph glyph-name="UkaliqPatternSegmentsCdfg_UkaliqModifierDot" unicode="&#xf1d53;&#x331;" 
d="M522 -77v-188h-166v188h166zM222 704q0 -269 167 -269q133 0 133 -128q0 -307 -449 -307v166q244 0 278 105q-295 24 -295 433h166z" />
    <glyph glyph-name="UkaliqPatternSegmentsDeg_UkaliqModifierDot" unicode="&#xf1d54;&#x331;" 
d="M506 269q-284 0 -284 -52q0 -51 284 -51v-166q-450 0 -450 217q0 218 450 218v-166zM522 -77v-188h-166v188h166z" />
    <glyph glyph-name="UkaliqPatternSegmentsCdeg_UkaliqModifierDot" unicode="&#xf1d55;&#x331;" 
d="M522 -77v-188h-166v188h166zM222 217q0 -51 67 -51t67 51q0 52 -67 52t-67 -52zM56 217q0 218 233 218t233 -218q0 -217 -233 -217t-233 217z" />
    <glyph glyph-name="UkaliqPatternSegmentsDefg_UkaliqModifierDot" unicode="&#xf1d56;&#x331;" 
d="M522 -77v-188h-166v188h166zM241 269q54 -103 265 -103v-166q-450 0 -450 352v352h166v-269h284v-166h-265z" />
    <glyph glyph-name="UkaliqPatternSegmentsCdefg_UkaliqModifierDot" unicode="&#xf1d57;&#x331;" 
d="M522 -77v-188h-166v188h166zM227 266q13 -100 62 -100q67 0 67 51q0 40 -129 49zM222 432q300 -22 300 -215q0 -217 -233 -217t-233 352v352h166v-272z" />
    <glyph glyph-name="UkaliqPatternSegmentsBdg_UkaliqModifierDot" unicode="&#xf1d58;&#x331;" 
d="M73 166h433v-166h-433v166zM522 704q0 -435 -449 -435v166q283 0 283 269h166zM522 -77v-188h-166v188h166z" />
    <glyph glyph-name="UkaliqPatternSegmentsBcdg_UkaliqModifierDot" unicode="&#xf1d59;&#x331;" 
d="M522 704v-352q0 -352 -449 -352v166q211 0 264 103h-264v166h283v269h166zM522 -77v-188h-166v188h166z" />
    <glyph glyph-name="UkaliqPatternSegmentsBdfg_UkaliqModifierDot" unicode="&#xf1d5a;&#x331;" 
d="M222 704q0 -269 67 -269t67 269h166q0 -435 -233 -435t-233 435h166zM73 166h433v-166h-433v166zM522 -77v-188h-166v188h166z" />
    <glyph glyph-name="UkaliqPatternSegmentsBcdfg_UkaliqModifierDot" unicode="&#xf1d5b;&#x331;" 
d="M522 -77v-188h-166v188h166zM522 704v-352q0 -352 -449 -352v166q219 0 268 111q-285 51 -285 427h166q0 -211 134 -257v257h166z" />
    <glyph glyph-name="UkaliqPatternSegmentsBdeg_UkaliqModifierDot" unicode="&#xf1d5c;&#x331;" 
d="M522 -77v-188h-166v188h166zM227 271q34 -105 279 -105v-166q-450 0 -450 307q0 128 133 128q167 0 167 269h166q0 -409 -295 -433z" />
    <glyph glyph-name="UkaliqPatternSegmentsBcdeg_UkaliqModifierDot" unicode="&#xf1d5d;&#x331;" 
d="M522 704v-352q0 -352 -233 -352t-233 217q0 193 300 215v272h166zM522 -77v-188h-166v188h166zM351 266q-129 -9 -129 -49q0 -51 67 -51q49 0 62 100z" />
    <glyph glyph-name="UkaliqPatternSegmentsBdefg_UkaliqModifierDot" unicode="&#xf1d5e;&#x331;" 
d="M522 -77v-188h-166v188h166zM237 277q50 -111 269 -111v-166q-450 0 -450 352v352h166v-257q134 45 134 257h166q0 -376 -285 -427z" />
    <glyph glyph-name="UkaliqPatternSegmentsBcdefg_UkaliqModifierDot" unicode="&#xf1d5f;&#x331;" 
d="M522 -77v-188h-166v188h166zM356 435v269h166v-352q0 -352 -233 -352t-233 352v352h166v-269h134zM352 269h-126q13 -103 63 -103t63 103z" />
    <glyph glyph-name="UkaliqPatternSegmentsAg_UkaliqModifierDot" unicode="&#xf1d60;&#x331;" 
d="M73 435h433v-166h-433v166zM522 -77v-188h-166v188h166zM73 704h433v-167h-433v167z" />
    <glyph glyph-name="UkaliqPatternSegmentsAcg_UkaliqModifierDot" unicode="&#xf1d61;&#x331;" 
d="M73 435q449 0 449 -435h-166q0 269 -283 269v166zM522 -77v-188h-166v188h166zM73 704h433v-167h-433v167z" />
    <glyph glyph-name="UkaliqPatternSegmentsAfg_UkaliqModifierDot" unicode="&#xf1d62;&#x331;" 
d="M506 537q-284 0 -284 -51t284 -51v-166q-450 0 -450 217q0 218 450 218v-167zM522 -77v-188h-166v188h166z" />
    <glyph glyph-name="UkaliqPatternSegmentsAcfg_UkaliqModifierDot" unicode="&#xf1d63;&#x331;" 
d="M522 -77v-188h-166v188h166zM506 537q-284 0 -284 -51t167 -51q133 0 133 -154v-281h-166v270q-300 10 -300 216q0 218 450 218v-167z" />
    <glyph glyph-name="UkaliqPatternSegmentsAeg_UkaliqModifierDot" unicode="&#xf1d64;&#x331;" 
d="M506 269q-284 0 -284 -269h-166q0 435 450 435v-166zM522 -77v-188h-166v188h166zM73 704h433v-167h-433v167z" />
    <glyph glyph-name="UkaliqPatternSegmentsAceg_UkaliqModifierDot" unicode="&#xf1d65;&#x331;" 
d="M56 0q0 435 233 435t233 -435h-166q0 269 -67 269t-67 -269h-166zM522 -77v-188h-166v188h166zM73 704h433v-167h-433v167z" />
    <glyph glyph-name="UkaliqPatternSegmentsAefg_UkaliqModifierDot" unicode="&#xf1d66;&#x331;" 
d="M522 -77v-188h-166v188h166zM222 269v-269h-166v352q0 352 450 352v-167q-211 0 -265 -102h265v-166h-284z" />
    <glyph glyph-name="UkaliqPatternSegmentsAcefg_UkaliqModifierDot" unicode="&#xf1d67;&#x331;" 
d="M522 -77v-188h-166v188h166zM222 257v-257h-166v352q0 352 450 352v-167q-219 0 -269 -110q285 -51 285 -427h-166q0 212 -134 257z" />
    <glyph glyph-name="UkaliqPatternSegmentsAbg_UkaliqModifierDot" unicode="&#xf1d68;&#x331;" 
d="M73 704q449 0 449 -218q0 -217 -449 -217v166q283 0 283 51t-283 51v167zM522 -77v-188h-166v188h166z" />
    <glyph glyph-name="UkaliqPatternSegmentsAbcg_UkaliqModifierDot" unicode="&#xf1d69;&#x331;" 
d="M73 704q449 0 449 -352v-352h-166v269h-283v166h264q-54 102 -264 102v167zM522 -77v-188h-166v188h166z" />
    <glyph glyph-name="UkaliqPatternSegmentsAbfg_UkaliqModifierDot" unicode="&#xf1d6a;&#x331;" 
d="M522 -77v-188h-166v188h166zM222 486q0 -51 67 -51t67 51t-67 51t-67 -51zM56 486q0 218 233 218t233 -218q0 -217 -233 -217t-233 217z" />
    <glyph glyph-name="UkaliqPatternSegmentsAbcfg_UkaliqModifierDot" unicode="&#xf1d6b;&#x331;" 
d="M522 -77v-188h-166v188h166zM351 438q-13 99 -62 99q-67 0 -67 -51q0 -39 129 -48zM356 272q-300 22 -300 214q0 218 233 218t233 -352v-352h-166v272z" />
    <glyph glyph-name="UkaliqPatternSegmentsAbeg_UkaliqModifierDot" unicode="&#xf1d6c;&#x331;" 
d="M73 704q449 0 449 -218q0 -206 -300 -216v-270h-166v281q0 154 133 154q167 0 167 51t-283 51v167zM522 -77v-188h-166v188h166z" />
    <glyph glyph-name="UkaliqPatternSegmentsAbceg_UkaliqModifierDot" unicode="&#xf1d6d;&#x331;" 
d="M73 704q449 0 449 -352v-352h-166v257q-134 -45 -134 -257h-166q0 375 285 427q-50 110 -268 110v167zM522 -77v-188h-166v188h166z" />
    <glyph glyph-name="UkaliqPatternSegmentsAbefg_UkaliqModifierDot" unicode="&#xf1d6e;&#x331;" 
d="M522 -77v-188h-166v188h166zM222 272v-272h-166v352q0 352 233 352t233 -218q0 -192 -300 -214zM227 438q129 9 129 48q0 51 -67 51q-49 0 -62 -99z" />
    <glyph glyph-name="UkaliqPatternSegmentsAbcefg_UkaliqModifierDot" unicode="&#xf1d6f;&#x331;" 
d="M522 -77v-188h-166v188h166zM56 0v352q0 352 233 352t233 -352v-352h-166v269h-134v-269h-166zM226 435h126q-13 102 -63 102t-63 -102z" />
    <glyph glyph-name="UkaliqPatternSegmentsAdg_UkaliqModifierDot" unicode="&#xf1d70;&#x331;" 
d="M73 166h433v-166h-433v166zM73 435h433v-166h-433v166zM522 -77v-188h-166v188h166zM73 704h433v-167h-433v167z" />
    <glyph glyph-name="UkaliqPatternSegmentsAcdg_UkaliqModifierDot" unicode="&#xf1d71;&#x331;" 
d="M73 435q449 0 449 -218q0 -217 -449 -217v166q283 0 283 51q0 52 -283 52v166zM522 -77v-188h-166v188h166zM73 704h433v-167h-433v167z" />
    <glyph glyph-name="UkaliqPatternSegmentsAdfg_UkaliqModifierDot" unicode="&#xf1d72;&#x331;" 
d="M506 537q-284 0 -284 -51t284 -51v-166q-450 0 -450 217q0 218 450 218v-167zM73 166h433v-166h-433v166zM522 -77v-188h-166v188h166z" />
    <glyph glyph-name="UkaliqPatternSegmentsAcdfg_UkaliqModifierDot" unicode="&#xf1d73;&#x331;" 
d="M522 -77v-188h-166v188h166zM506 537q-284 0 -284 -51t167 -51q133 0 133 -128q0 -307 -449 -307v166q243 0 277 104q-294 12 -294 216q0 218 450 218v-167z" />
    <glyph glyph-name="UkaliqPatternSegmentsAdeg_UkaliqModifierDot" unicode="&#xf1d74;&#x331;" 
d="M506 269q-284 0 -284 -52q0 -51 284 -51v-166q-450 0 -450 217q0 218 450 218v-166zM522 -77v-188h-166v188h166zM73 704h433v-167h-433v167z" />
    <glyph glyph-name="UkaliqPatternSegmentsAcdeg_UkaliqModifierDot" unicode="&#xf1d75;&#x331;" 
d="M522 -77v-188h-166v188h166zM73 704h433v-167h-433v167zM222 217q0 -51 67 -51t67 51q0 52 -67 52t-67 -52zM56 217q0 218 233 218t233 -218q0 -217 -233 -217t-233 217z" />
    <glyph glyph-name="UkaliqPatternSegmentsAdefg_UkaliqModifierDot" unicode="&#xf1d76;&#x331;" 
d="M522 -77v-188h-166v188h166zM241 269q54 -103 265 -103v-166q-450 0 -450 352t450 352v-167q-211 0 -265 -102h265v-166h-265z" />
    <glyph glyph-name="UkaliqPatternSegmentsAcdefg_UkaliqModifierDot" unicode="&#xf1d77;&#x331;" 
d="M522 -77v-188h-166v188h166zM227 266q13 -100 62 -100q67 0 67 51q0 40 -129 49zM239 431q283 -26 283 -214q0 -217 -233 -217t-233 352t450 352v-167q-215 0 -267 -106z" />
    <glyph glyph-name="UkaliqPatternSegmentsAbdg_UkaliqModifierDot" unicode="&#xf1d78;&#x331;" 
d="M73 166h433v-166h-433v166zM73 704q449 0 449 -218q0 -217 -449 -217v166q283 0 283 51t-283 51v167zM522 -77v-188h-166v188h166z" />
    <glyph glyph-name="UkaliqPatternSegmentsAbcdg_UkaliqModifierDot" unicode="&#xf1d79;&#x331;" 
d="M73 704q449 0 449 -352t-449 -352v166q211 0 264 103h-264v166h264q-54 102 -264 102v167zM522 -77v-188h-166v188h166z" />
    <glyph glyph-name="UkaliqPatternSegmentsAbdfg_UkaliqModifierDot" unicode="&#xf1d7a;&#x331;" 
d="M73 166h433v-166h-433v166zM522 -77v-188h-166v188h166zM222 486q0 -51 67 -51t67 51t-67 51t-67 -51zM56 486q0 218 233 218t233 -218q0 -217 -233 -217t-233 217z" />
    <glyph glyph-name="UkaliqPatternSegmentsAbcdfg_UkaliqModifierDot" unicode="&#xf1d7b;&#x331;" 
d="M522 -77v-188h-166v188h166zM351 438q-13 99 -62 99q-67 0 -67 -51q0 -39 129 -48zM340 273q-284 26 -284 213q0 218 233 218t233 -352t-449 -352v166q215 0 267 107z" />
    <glyph glyph-name="UkaliqPatternSegmentsAbdeg_UkaliqModifierDot" unicode="&#xf1d7c;&#x331;" 
d="M73 704q449 0 449 -218q0 -204 -294 -216q35 -104 278 -104v-166q-450 0 -450 307q0 128 133 128q167 0 167 51t-283 51v167zM522 -77v-188h-166v188h166z" />
    <glyph glyph-name="UkaliqPatternSegmentsAbcdeg_UkaliqModifierDot" unicode="&#xf1d7d;&#x331;" 
d="M73 704q449 0 449 -352t-233 -352t-233 217q0 188 283 214q-52 106 -266 106v167zM522 -77v-188h-166v188h166zM351 266q-129 -9 -129 -49q0 -51 67 -51q49 0 62 100z" />
    <glyph glyph-name="UkaliqPatternSegmentsAbdefg_UkaliqModifierDot" unicode="&#xf1d7e;&#x331;" 
d="M522 -77v-188h-166v188h166zM238 273q52 -107 268 -107v-166q-450 0 -450 352t233 352t233 -218q0 -187 -284 -213zM227 438q129 9 129 48q0 51 -67 51q-49 0 -62 -99z" />
    <glyph glyph-name="UkaliqPatternSegmentsAbcdefg_UkaliqModifierDot" unicode="&#xf1d7f;&#x331;" 
d="M522 -77v-188h-166v188h166zM226 435h126q-13 102 -63 102t-63 -102zM352 269h-126q13 -103 63 -103t63 103zM56 352q0 352 233 352t233 -352t-233 -352t-233 352z" />
    <glyph glyph-name=".notdef" 
d="M73 166h433v-166h-433v166zM522 -77v-188h-166v188h166z" />
    <glyph glyph-name="NULL" horiz-adv-x="0" 
 />
    <glyph glyph-name="uni000D" unicode="&#xd;" horiz-adv-x="0" 
 />
    <glyph glyph-name="uni200D" unicode="&#x200d;" horiz-adv-x="0" 
 />
    <glyph glyph-name="uni200B" unicode="&#x200b;" horiz-adv-x="0" 
 />
    <glyph glyph-name="uni200C" unicode="&#x200c;" horiz-adv-x="0" 
 />
    <glyph glyph-name="uniFEFF" unicode="&#xfeff;" horiz-adv-x="0" 
 />
    <glyph glyph-name="space" unicode=" " 
 />
    <glyph glyph-name="uni00A0" unicode="&#xa0;" 
 />
    <glyph glyph-name="UkaliqModifierDot" unicode="&#x331;" 
d="M522 -77v-188h-166v188h166z" />
    <glyph glyph-name="uni2002" unicode="&#x2002;" 
 />
    <glyph glyph-name="uni2007" unicode="&#x2007;" 
 />
    <glyph glyph-name="uni2B1B" unicode="&#x2b1b;" 
d="M0 946h578v-1242h-578v1242z" />
    <glyph glyph-name="UkaliqSpace" unicode="&#xee00;" 
 />
    <glyph glyph-name="UkaliqNumber" unicode="&#xee01;" 
d="M522 435v-435h-166v435h166z" />
    <glyph glyph-name="UkaliqRightSingleQuotationMark" unicode="&#xee02;" 
d="M222 704v-435h-166v435h166z" />
    <glyph glyph-name="UkaliqColon" unicode="&#xee03;" 
d="M522 435v-435h-166v435h166zM222 704v-435h-166v435h166z" />
    <glyph glyph-name="UkaliqFullStop" unicode="&#xee04;" 
d="M222 435v-435h-166v435h166z" />
    <glyph glyph-name="UkaliqComma" unicode="&#xee05;" 
d="M522 435v-435h-166v435h166zM222 435v-435h-166v435h166z" />
    <glyph glyph-name="UkaliqRightParenthesis" unicode="&#xee06;" 
d="M222 704v-704h-166v704h166z" />
    <glyph glyph-name="UkaliqExclamationMark" unicode="&#xee07;" 
d="M222 704v-704h-166v704h166zM522 435v-435h-166v435h166z" />
    <glyph glyph-name="UkaliqLeftSingleQuotationMark" unicode="&#xee08;" 
d="M522 704v-435h-166v435h166z" />
    <glyph glyph-name="UkaliqLeftParenthesis" unicode="&#xee09;" 
d="M522 704v-704h-166v704h166z" />
    <glyph glyph-name="UkaliqDoubleQuotationMark" unicode="&#xee0a;" 
d="M222 704v-435h-166v435h166zM522 704v-435h-166v435h166z" />
    <glyph glyph-name="UkaliqReversedQuestionMark" unicode="&#xee0b;" 
d="M522 704v-704h-166v704h166zM222 704v-435h-166v435h166z" />
    <glyph glyph-name="UkaliqSemicolon" unicode="&#xee0c;" 
d="M522 704v-435h-166v435h166zM222 435v-435h-166v435h166z" />
    <glyph glyph-name="UkaliqReversedExclamationMark" unicode="&#xee0d;" 
d="M522 704v-704h-166v704h166zM222 435v-435h-166v435h166z" />
    <glyph glyph-name="UkaliqQuestionMark" unicode="&#xee0e;" 
d="M222 704v-704h-166v704h166zM522 704v-435h-166v435h166z" />
    <glyph glyph-name="UkaliqEquals" unicode="&#xee0f;" 
d="M522 704v-704h-166v704h166zM222 704v-704h-166v704h166z" />
    <glyph glyph-name="UkaliqHyphen" unicode="&#xee10;" 
d="M73 166h433v-166h-433v166z" />
    <glyph glyph-name="UkaliqLetterOzo" unicode="&#xee11;" 
d="M522 435q0 -435 -449 -435v166q283 0 283 269h166z" />
    <glyph glyph-name="UkaliqGreaterThan" unicode="&#xee12;" 
d="M73 166h433v-166h-433v166zM222 704v-435h-166v435h166z" />
    <glyph glyph-name="UkaliqLetterAtlha" unicode="&#xee13;" 
d="M222 704v-435h-166v435h166zM522 435q0 -435 -449 -435v166q283 0 283 269h166z" />
    <glyph glyph-name="UkaliqLetterEdzre" unicode="&#xee14;" 
d="M222 435q0 -269 284 -269v-166q-450 0 -450 435h166z" />
    <glyph glyph-name="UkaliqOr" unicode="&#xee15;" 
d="M222 435q0 -269 67 -269t67 269h166q0 -435 -233 -435t-233 435h166z" />
    <glyph glyph-name="UkaliqLetterIdzji" unicode="&#xee16;" 
d="M222 704v-207q0 -331 284 -331v-166q-450 0 -450 497v207h166z" />
    <glyph glyph-name="UkaliqLetterOdzo" unicode="&#xee17;" 
d="M222 704v-207q0 -331 67 -331t67 269h166q0 -435 -233 -435t-233 497v207h166z" />
    <glyph glyph-name="UkaliqLessThan" unicode="&#xee18;" 
d="M73 166h433v-166h-433v166zM522 704v-435h-166v435h166z" />
    <glyph glyph-name="UkaliqLetterOso" unicode="&#xee19;" 
d="M522 704v-207q0 -497 -449 -497v166q283 0 283 331v207h166z" />
    <glyph glyph-name="UkaliqMultiplication" unicode="&#xee1a;" 
d="M73 166h433v-166h-433v166zM222 704v-435h-166v435h166zM522 704v-435h-166v435h166z" />
    <glyph glyph-name="UkaliqLetterApfa" unicode="&#xee1b;" 
d="M222 704v-435h-166v435h166zM522 704v-207q0 -497 -449 -497v166q283 0 283 331v207h166z" />
    <glyph glyph-name="UkaliqLetterEtsre" unicode="&#xee1c;" 
d="M222 435q0 -269 284 -269v-166q-450 0 -450 435h166zM522 704v-435h-166v435h166z" />
    <glyph glyph-name="UkaliqLetterUkkhu" unicode="&#xee1d;" 
d="M522 704v-207q0 -497 -233 -497t-233 435h166q0 -269 67 -269t67 331v207h166z" />
    <glyph glyph-name="UkaliqLetterItsji" unicode="&#xee1e;" 
d="M222 704v-207q0 -331 284 -331v-166q-450 0 -450 497v207h166zM522 704v-435h-166v435h166z" />
    <glyph glyph-name="UkaliqLetterOtso" unicode="&#xee1f;" 
d="M222 704v-207q0 -331 67 -331t67 331v207h166v-207q0 -497 -233 -497t-233 497v207h166z" />
    <glyph glyph-name="UkaliqRange" unicode="&#xee20;" 
d="M73 704h433v-167h-433v167z" />
    <glyph glyph-name="UkaliqLetterEo" unicode="&#xee21;" 
d="M522 435v-435h-166v435h166zM73 704h433v-167h-433v167z" />
    <glyph glyph-name="UkaliqLetterUh" unicode="&#xee22;" 
d="M506 537q-284 0 -284 -268h-166q0 435 450 435v-167z" />
    <glyph glyph-name="UkaliqLetterEu" unicode="&#xee23;" 
d="M522 435v-435h-166v435h166zM506 537q-284 0 -284 -268h-166q0 435 450 435v-167z" />
    <glyph glyph-name="UkaliqLetterOe" unicode="&#xee24;" 
d="M222 435v-435h-166v435h166zM73 704h433v-167h-433v167z" />
    <glyph glyph-name="UkaliqLetterOeh" unicode="&#xee25;" 
d="M522 435v-435h-166v435h166zM222 435v-435h-166v435h166zM73 704h433v-167h-433v167z" />
    <glyph glyph-name="UkaliqLetterUi" unicode="&#xee26;" 
d="M506 537q-284 0 -284 -330v-207h-166v207q0 497 450 497v-167z" />
    <glyph glyph-name="UkaliqLetterAh" unicode="&#xee27;" 
d="M506 537q-284 0 -284 -330v-207h-166v207q0 497 450 497v-167zM522 435v-435h-166v435h166z" />
    <glyph glyph-name="UkaliqLetterAe" unicode="&#xee28;" 
d="M73 704q449 0 449 -435h-166q0 268 -283 268v167z" />
    <glyph glyph-name="UkaliqLetterO" unicode="&#xee29;" 
d="M73 704q449 0 449 -497v-207h-166v207q0 330 -283 330v167z" />
    <glyph glyph-name="UkaliqLetterIh" unicode="&#xee2a;" 
d="M56 269q0 435 233 435t233 -435h-166q0 268 -67 268t-67 -268h-166z" />
    <glyph glyph-name="UkaliqLetterU" unicode="&#xee2b;" 
d="M56 269q0 435 233 435t233 -497v-207h-166v207q0 330 -67 330t-67 -268h-166z" />
    <glyph glyph-name="UkaliqLetterE" unicode="&#xee2c;" 
d="M73 704q449 0 449 -435h-166q0 268 -283 268v167zM222 435v-435h-166v435h166z" />
    <glyph glyph-name="UkaliqLetterEh" unicode="&#xee2d;" 
d="M73 704q449 0 449 -497v-207h-166v207q0 330 -283 330v167zM222 435v-435h-166v435h166z" />
    <glyph glyph-name="UkaliqLetterI" unicode="&#xee2e;" 
d="M356 269q0 268 -67 268t-67 -330v-207h-166v207q0 497 233 497t233 -435h-166z" />
    <glyph glyph-name="UkaliqLetterOh" unicode="&#xee2f;" 
d="M56 0v207q0 497 233 497t233 -497v-207h-166v207q0 330 -67 330t-67 -330v-207h-166z" />
    <glyph glyph-name="UkaliqPlus" unicode="&#xee30;" 
d="M73 166h433v-166h-433v166zM73 704h433v-167h-433v167z" />
    <glyph glyph-name="UkaliqCurrency" unicode="&#xee31;" 
d="M522 435q0 -435 -449 -435v166q283 0 283 269h166zM73 704h433v-167h-433v167z" />
    <glyph glyph-name="UkaliqAt" unicode="&#xee32;" 
d="M73 166h433v-166h-433v166zM506 537q-284 0 -284 -268h-166q0 435 450 435v-167z" />
    <glyph glyph-name="UkaliqLetterAlha" unicode="&#xee33;" 
d="M506 537q-284 0 -284 -268h-166q0 435 450 435v-167zM522 435q0 -435 -449 -435v166q283 0 283 269h166z" />
    <glyph glyph-name="UkaliqLetterElre" unicode="&#xee34;" 
d="M222 435q0 -269 284 -269v-166q-450 0 -450 435h166zM73 704h433v-167h-433v167z" />
    <glyph glyph-name="UkaliqLetterUlgu" unicode="&#xee35;" 
d="M222 435q0 -269 67 -269t67 269h166q0 -435 -233 -435t-233 435h166zM73 704h433v-167h-433v167z" />
    <glyph glyph-name="UkaliqLetterIlji" unicode="&#xee36;" 
d="M506 537q-284 0 -284 -185q0 -186 284 -186v-166q-450 0 -450 352t450 352v-167z" />
    <glyph glyph-name="UkaliqLetterOlo" unicode="&#xee37;" 
d="M506 537q-284 0 -284 -185q0 -186 67 -186t67 269h166q0 -435 -233 -435t-233 352t450 352v-167z" />
    <glyph glyph-name="UkaliqDegree" unicode="&#xee38;" 
d="M73 166h433v-166h-433v166zM73 704q449 0 449 -435h-166q0 268 -283 268v167z" />
    <glyph glyph-name="UkaliqLetterHbat" unicode="&#xee39;" 
d="M73 704q449 0 449 -352t-449 -352v166q283 0 283 186q0 185 -283 185v167z" />
    <glyph glyph-name="UkaliqLetterAnqa" unicode="&#xee3a;" 
d="M73 166h433v-166h-433v166zM56 269q0 435 233 435t233 -435h-166q0 268 -67 268t-67 -268h-166z" />
    <glyph glyph-name="UkaliqLetterAma" unicode="&#xee3b;" 
d="M56 269q0 435 233 435t233 -352t-449 -352v166q283 0 283 186q0 185 -67 185t-67 -268h-166z" />
    <glyph glyph-name="UkaliqLetterEnre" unicode="&#xee3c;" 
d="M73 704q449 0 449 -435h-166q0 268 -283 268v167zM222 435q0 -269 284 -269v-166q-450 0 -450 435h166z" />
    <glyph glyph-name="UkaliqLetterUngu" unicode="&#xee3d;" 
d="M73 704q449 0 449 -352t-233 -352t-233 435h166q0 -269 67 -269t67 186q0 185 -283 185v167z" />
    <glyph glyph-name="UkaliqLetterInji" unicode="&#xee3e;" 
d="M356 269q0 268 -67 268t-67 -185q0 -186 284 -186v-166q-450 0 -450 352t233 352t233 -435h-166z" />
    <glyph glyph-name="UkaliqLetterOno" unicode="&#xee3f;" 
d="M222 352q0 -186 67 -186t67 186q0 185 -67 185t-67 -185zM56 352q0 352 233 352t233 -352t-233 -352t-233 352z" />
    <glyph glyph-name="UkaliqDash" unicode="&#xee40;" 
d="M73 435h433v-166h-433v166z" />
    <glyph glyph-name="UkaliqLetterA" unicode="&#xee41;" 
d="M73 435q449 0 449 -435h-166q0 269 -283 269v166z" />
    <glyph glyph-name="UkaliqMinus" unicode="&#xee42;" 
d="M222 704q0 -269 284 -269v-166q-450 0 -450 435h166z" />
    <glyph glyph-name="UkaliqLetterAwa" unicode="&#xee43;" 
d="M222 704q0 -269 167 -269q133 0 133 -154v-281h-166v270q-300 21 -300 434h166z" />
    <glyph glyph-name="UkaliqLetterErre" unicode="&#xee44;" 
d="M506 269q-284 0 -284 -269h-166q0 435 450 435v-166z" />
    <glyph glyph-name="UkaliqAnd" unicode="&#xee45;" 
d="M56 0q0 435 233 435t233 -435h-166q0 269 -67 269t-67 -269h-166z" />
    <glyph glyph-name="UkaliqLetterIzji" unicode="&#xee46;" 
d="M222 269v-269h-166v352v352h166v-269h284v-166h-284z" />
    <glyph glyph-name="UkaliqLetterOro" unicode="&#xee47;" 
d="M222 257v-257h-166v352v352h166v-275q300 -44 300 -429h-166q0 212 -134 257z" />
    <glyph glyph-name="UkaliqNot" unicode="&#xee48;" 
d="M522 704q0 -435 -449 -435v166q283 0 283 269h166z" />
    <glyph glyph-name="UkaliqDivision" unicode="&#xee49;" 
d="M522 704v-352v-352h-166v269h-283v166h283v269h166z" />
    <glyph glyph-name="UkaliqXor" unicode="&#xee4a;" 
d="M222 704q0 -269 67 -269t67 269h166q0 -435 -233 -435t-233 435h166z" />
    <glyph glyph-name="uniEE4B" unicode="&#xee4b;" 
d="M522 704v-352v-352h-166v275q-300 44 -300 429h166q0 -211 134 -257v257h166z" />
    <glyph glyph-name="UkaliqLetterIji" unicode="&#xee4c;" 
d="M222 270v-270h-166v281q0 154 133 154q167 0 167 269h166q0 -413 -300 -434z" />
    <glyph glyph-name="UkaliqLetterTkot" unicode="&#xee4d;" 
d="M522 704v-352v-352h-166v257q-134 -45 -134 -257h-166q0 385 300 429v275h166z" />
    <glyph glyph-name="UkaliqLetterIsji" unicode="&#xee4e;" 
d="M222 275v-275h-166v352v352h166v-257q134 45 134 257h166q0 -385 -300 -429z" />
    <glyph glyph-name="UkaliqLetterOrro" unicode="&#xee4f;" 
d="M522 704v-352v-352h-166v269h-134v-269h-166v352v352h166v-269h134v269h166z" />
    <glyph glyph-name="UkaliqDigitZero" unicode="&#xee50;" 
d="M73 166h433v-166h-433v166zM73 435h433v-166h-433v166z" />
    <glyph glyph-name="UkaliqDigitOne" unicode="&#xee51;" 
d="M73 435q449 0 449 -218q0 -217 -449 -217v166q283 0 283 51q0 52 -283 52v166z" />
    <glyph glyph-name="UkaliqDigitTwo" unicode="&#xee52;" 
d="M222 704q0 -269 284 -269v-166q-450 0 -450 435h166zM73 166h433v-166h-433v166z" />
    <glyph glyph-name="UkaliqDigitThree" unicode="&#xee53;" 
d="M222 704q0 -269 167 -269q133 0 133 -128q0 -307 -449 -307v166q244 0 278 105q-295 24 -295 433h166z" />
    <glyph glyph-name="UkaliqDigitFour" unicode="&#xee54;" 
d="M506 269q-284 0 -284 -52q0 -51 284 -51v-166q-450 0 -450 217q0 218 450 218v-166z" />
    <glyph glyph-name="UkaliqDigitFive" unicode="&#xee55;" 
d="M222 217q0 -51 67 -51t67 51q0 52 -67 52t-67 -52zM56 217q0 218 233 218t233 -218q0 -217 -233 -217t-233 217z" />
    <glyph glyph-name="UkaliqDigitSix" unicode="&#xee56;" 
d="M241 269q54 -103 265 -103v-166q-450 0 -450 352v352h166v-269h284v-166h-265z" />
    <glyph glyph-name="UkaliqDigitSeven" unicode="&#xee57;" 
d="M227 266q13 -100 62 -100q67 0 67 51q0 40 -129 49zM222 432q300 -22 300 -215q0 -217 -233 -217t-233 352v352h166v-272z" />
    <glyph glyph-name="UkaliqDigitEight" unicode="&#xee58;" 
d="M73 166h433v-166h-433v166zM522 704q0 -435 -449 -435v166q283 0 283 269h166z" />
    <glyph glyph-name="UkaliqDigitNine" unicode="&#xee59;" 
d="M522 704v-352q0 -352 -449 -352v166q211 0 264 103h-264v166h283v269h166z" />
    <glyph glyph-name="UkaliqDigitTen" unicode="&#xee5a;" 
d="M222 704q0 -269 67 -269t67 269h166q0 -435 -233 -435t-233 435h166zM73 166h433v-166h-433v166z" />
    <glyph glyph-name="UkaliqDigitEleven" unicode="&#xee5b;" 
d="M522 704v-352q0 -352 -449 -352v166q219 0 268 111q-285 51 -285 427h166q0 -211 134 -257v257h166z" />
    <glyph glyph-name="UkaliqDigitTwelve" unicode="&#xee5c;" 
d="M227 271q34 -105 279 -105v-166q-450 0 -450 307q0 128 133 128q167 0 167 269h166q0 -409 -295 -433z" />
    <glyph glyph-name="UkaliqDigitThirteen" unicode="&#xee5d;" 
d="M522 704v-352q0 -352 -233 -352t-233 217q0 193 300 215v272h166zM351 266q-129 -9 -129 -49q0 -51 67 -51q49 0 62 100z" />
    <glyph glyph-name="UkaliqDigitFourteen" unicode="&#xee5e;" 
d="M237 277q50 -111 269 -111v-166q-450 0 -450 352v352h166v-257q134 45 134 257h166q0 -376 -285 -427z" />
    <glyph glyph-name="UkaliqDigitFifteen" unicode="&#xee5f;" 
d="M356 435v269h166v-352q0 -352 -233 -352t-233 352v352h166v-269h134zM352 269h-126q13 -103 63 -103t63 103z" />
    <glyph glyph-name="UkaliqLetterSchwa" unicode="&#xee60;" 
d="M73 435h433v-166h-433v166zM73 704h433v-167h-433v167z" />
    <glyph glyph-name="UkaliqLetterOhgo" unicode="&#xee61;" 
d="M73 435q449 0 449 -435h-166q0 269 -283 269v166zM73 704h433v-167h-433v167z" />
    <glyph glyph-name="UkaliqLetterArha" unicode="&#xee62;" 
d="M506 537q-284 0 -284 -51t284 -51v-166q-450 0 -450 217q0 218 450 218v-167z" />
    <glyph glyph-name="UkaliqLetterAva" unicode="&#xee63;" 
d="M506 537q-284 0 -284 -51t167 -51q133 0 133 -154v-281h-166v270q-300 10 -300 216q0 218 450 218v-167z" />
    <glyph glyph-name="UkaliqLetterEzre" unicode="&#xee64;" 
d="M506 269q-284 0 -284 -269h-166q0 435 450 435v-166zM73 704h433v-167h-433v167z" />
    <glyph glyph-name="UkaliqLetterUghu" unicode="&#xee65;" 
d="M56 0q0 435 233 435t233 -435h-166q0 269 -67 269t-67 -269h-166zM73 704h433v-167h-433v167z" />
    <glyph glyph-name="UkaliqLetterIjji" unicode="&#xee66;" 
d="M222 269v-269h-166v352q0 352 450 352v-167q-211 0 -265 -102h265v-166h-284z" />
    <glyph glyph-name="UkaliqLetterOdho" unicode="&#xee67;" 
d="M222 257v-257h-166v352q0 352 450 352v-167q-219 0 -269 -110q285 -51 285 -427h-166q0 212 -134 257z" />
    <glyph glyph-name="UkaliqLetterOhho" unicode="&#xee68;" 
d="M73 704q449 0 449 -218q0 -217 -449 -217v166q283 0 283 51t-283 51v167z" />
    <glyph glyph-name="UkaliqLetterAha" unicode="&#xee69;" 
d="M73 704q449 0 449 -352v-352h-166v269h-283v166h264q-54 102 -264 102v167z" />
    <glyph glyph-name="UkaliqLetterAqha" unicode="&#xee6a;" 
d="M222 486q0 -51 67 -51t67 51t-67 51t-67 -51zM56 486q0 218 233 218t233 -218q0 -217 -233 -217t-233 217z" />
    <glyph glyph-name="UkaliqLetterAfa" unicode="&#xee6b;" 
d="M351 438q-13 99 -62 99q-67 0 -67 -51q0 -39 129 -48zM356 272q-300 22 -300 214q0 218 233 218t233 -352v-352h-166v272z" />
    <glyph glyph-name="UkaliqLetterEsre" unicode="&#xee6c;" 
d="M73 704q449 0 449 -218q0 -206 -300 -216v-270h-166v281q0 154 133 154q167 0 167 51t-283 51v167z" />
    <glyph glyph-name="UkaliqLetterUkhu" unicode="&#xee6d;" 
d="M73 704q449 0 449 -352v-352h-166v257q-134 -45 -134 -257h-166q0 375 285 427q-50 110 -268 110v167z" />
    <glyph glyph-name="UkaliqLetterIcji" unicode="&#xee6e;" 
d="M222 272v-272h-166v352q0 352 233 352t233 -218q0 -192 -300 -214zM227 438q129 9 129 48q0 51 -67 51q-49 0 -62 -99z" />
    <glyph glyph-name="UkaliqLetterOtho" unicode="&#xee6f;" 
d="M56 0v352q0 352 233 352t233 -352v-352h-166v269h-134v-269h-166zM226 435h126q-13 102 -63 102t-63 -102z" />
    <glyph glyph-name="UkaliqIterationMark" unicode="&#xee70;" 
d="M73 166h433v-166h-433v166zM73 435h433v-166h-433v166zM73 704h433v-167h-433v167z" />
    <glyph glyph-name="UkaliqPercent" unicode="&#xee71;" 
d="M73 435q449 0 449 -218q0 -217 -449 -217v166q283 0 283 51q0 52 -283 52v166zM73 704h433v-167h-433v167z" />
    <glyph glyph-name="UkaliqLetterAgqa" unicode="&#xee72;" 
d="M506 537q-284 0 -284 -51t284 -51v-166q-450 0 -450 217q0 218 450 218v-167zM73 166h433v-166h-433v166z" />
    <glyph glyph-name="UkaliqLetterAba" unicode="&#xee73;" 
d="M506 537q-284 0 -284 -51t167 -51q133 0 133 -128q0 -307 -449 -307v166q243 0 277 104q-294 12 -294 216q0 218 450 218v-167z" />
    <glyph glyph-name="UkaliqLetterEdre" unicode="&#xee74;" 
d="M506 269q-284 0 -284 -52q0 -51 284 -51v-166q-450 0 -450 217q0 218 450 218v-166zM73 704h433v-167h-433v167z" />
    <glyph glyph-name="UkaliqLetterUgu" unicode="&#xee75;" 
d="M73 704h433v-167h-433v167zM222 217q0 -51 67 -51t67 51q0 52 -67 52t-67 -52zM56 217q0 218 233 218t233 -218q0 -217 -233 -217t-233 217z" />
    <glyph glyph-name="UkaliqLetterIgji" unicode="&#xee76;" 
d="M241 269q54 -103 265 -103v-166q-450 0 -450 352t450 352v-167q-211 0 -265 -102h265v-166h-265z" />
    <glyph glyph-name="UkaliqLetterOdo" unicode="&#xee77;" 
d="M227 266q13 -100 62 -100q67 0 67 51q0 40 -129 49zM239 431q283 -26 283 -214q0 -217 -233 -217t-233 352t450 352v-167q-215 0 -267 -106z" />
    <glyph glyph-name="UkaliqLetterOhhko" unicode="&#xee78;" 
d="M73 166h433v-166h-433v166zM73 704q449 0 449 -218q0 -217 -449 -217v166q283 0 283 51t-283 51v167z" />
    <glyph glyph-name="UkaliqLetterAhka" unicode="&#xee79;" 
d="M73 704q449 0 449 -352t-449 -352v166q211 0 264 103h-264v166h264q-54 102 -264 102v167z" />
    <glyph glyph-name="UkaliqLetterAqa" unicode="&#xee7a;" 
d="M73 166h433v-166h-433v166zM222 486q0 -51 67 -51t67 51t-67 51t-67 -51zM56 486q0 218 233 218t233 -218q0 -217 -233 -217t-233 217z" />
    <glyph glyph-name="UkaliqLetterApa" unicode="&#xee7b;" 
d="M351 438q-13 99 -62 99q-67 0 -67 -51q0 -39 129 -48zM340 273q-284 26 -284 213q0 218 233 218t233 -352t-449 -352v166q215 0 267 107z" />
    <glyph glyph-name="UkaliqLetterEtre" unicode="&#xee7c;" 
d="M73 704q449 0 449 -218q0 -204 -294 -216q35 -104 278 -104v-166q-450 0 -450 307q0 128 133 128q167 0 167 51t-283 51v167z" />
    <glyph glyph-name="UkaliqLetterUku" unicode="&#xee7d;" 
d="M73 704q449 0 449 -352t-233 -352t-233 217q0 188 283 214q-52 106 -266 106v167zM351 266q-129 -9 -129 -49q0 -51 67 -51q49 0 62 100z" />
    <glyph glyph-name="UkaliqLetterIci" unicode="&#xee7e;" 
d="M238 273q52 -107 268 -107v-166q-450 0 -450 352t233 352t233 -218q0 -187 -284 -213zM227 438q129 9 129 48q0 51 -67 51q-49 0 -62 -99z" />
    <glyph glyph-name="UkaliqLetterOto" unicode="&#xee7f;" 
d="M226 435h126q-13 102 -63 102t-63 -102zM352 269h-126q13 -103 63 -103t63 103zM56 352q0 352 233 352t233 -352t-233 -352t-233 352z" />
    <glyph glyph-name="UkaliqDot" unicode="&#xee80;" 
d="M522 -77v-188h-166v188h166z" />
    <glyph glyph-name="UkaliqNumberWithDot" unicode="&#xee81;" 
d="M522 435v-435h-166v435h166zM522 -77v-188h-166v188h166z" />
    <glyph glyph-name="UkaliqRightSingleQuotationMarkWithDot" unicode="&#xee82;" 
d="M222 704v-435h-166v435h166zM522 -77v-188h-166v188h166z" />
    <glyph glyph-name="UkaliqColonWithDot" unicode="&#xee83;" 
d="M522 435v-435h-166v435h166zM222 704v-435h-166v435h166zM522 -77v-188h-166v188h166z" />
    <glyph glyph-name="UkaliqFullStopWithDot" unicode="&#xee84;" 
d="M222 435v-435h-166v435h166zM522 -77v-188h-166v188h166z" />
    <glyph glyph-name="UkaliqCommaWithDot" unicode="&#xee85;" 
d="M522 435v-435h-166v435h166zM222 435v-435h-166v435h166zM522 -77v-188h-166v188h166z" />
    <glyph glyph-name="UkaliqRightParenthesisWithDot" unicode="&#xee86;" 
d="M222 704v-704h-166v704h166zM522 -77v-188h-166v188h166z" />
    <glyph glyph-name="UkaliqExclamationMarkWithDot" unicode="&#xee87;" 
d="M222 704v-704h-166v704h166zM522 435v-435h-166v435h166zM522 -77v-188h-166v188h166z" />
    <glyph glyph-name="UkaliqLeftSingleQuotationMarkWithDot" unicode="&#xee88;" 
d="M522 704v-435h-166v435h166zM522 -77v-188h-166v188h166z" />
    <glyph glyph-name="UkaliqLeftParenthesisWithDot" unicode="&#xee89;" 
d="M522 704v-704h-166v704h166zM522 -77v-188h-166v188h166z" />
    <glyph glyph-name="UkaliqDoubleQuotationMarkWithDot" unicode="&#xee8a;" 
d="M222 704v-435h-166v435h166zM522 704v-435h-166v435h166zM522 -77v-188h-166v188h166z" />
    <glyph glyph-name="UkaliqReversedQuestionMarkWithDot" unicode="&#xee8b;" 
d="M522 704v-704h-166v704h166zM222 704v-435h-166v435h166zM522 -77v-188h-166v188h166z" />
    <glyph glyph-name="UkaliqSemicolonWithDot" unicode="&#xee8c;" 
d="M522 704v-435h-166v435h166zM222 435v-435h-166v435h166zM522 -77v-188h-166v188h166z" />
    <glyph glyph-name="UkaliqReversedExclamationMarkWithDot" unicode="&#xee8d;" 
d="M522 704v-704h-166v704h166zM222 435v-435h-166v435h166zM522 -77v-188h-166v188h166z" />
    <glyph glyph-name="UkaliqQuestionMarkWithDot" unicode="&#xee8e;" 
d="M222 704v-704h-166v704h166zM522 704v-435h-166v435h166zM522 -77v-188h-166v188h166z" />
    <glyph glyph-name="UkaliqEqualsWithDot" unicode="&#xee8f;" 
d="M522 704v-704h-166v704h166zM222 704v-704h-166v704h166zM522 -77v-188h-166v188h166z" />
    <glyph glyph-name="UkaliqHyphenWithDot" unicode="&#xee90;" 
d="M73 166h433v-166h-433v166zM522 -77v-188h-166v188h166z" />
    <glyph glyph-name="UkaliqLetterOzoWithDot" unicode="&#xee91;" 
d="M522 -77v-188h-166v188h166zM522 435q0 -435 -449 -435v166q283 0 283 269h166z" />
    <glyph glyph-name="UkaliqGreaterThanWithDot" unicode="&#xee92;" 
d="M73 166h433v-166h-433v166zM222 704v-435h-166v435h166zM522 -77v-188h-166v188h166z" />
    <glyph glyph-name="UkaliqLetterAtlhaWithDot" unicode="&#xee93;" 
d="M222 704v-435h-166v435h166zM522 -77v-188h-166v188h166zM522 435q0 -435 -449 -435v166q283 0 283 269h166z" />
    <glyph glyph-name="UkaliqLetterEdzreWithDot" unicode="&#xee94;" 
d="M222 435q0 -269 284 -269v-166q-450 0 -450 435h166zM522 -77v-188h-166v188h166z" />
    <glyph glyph-name="UkaliqOrWithDot" unicode="&#xee95;" 
d="M222 435q0 -269 67 -269t67 269h166q0 -435 -233 -435t-233 435h166zM522 -77v-188h-166v188h166z" />
    <glyph glyph-name="UkaliqLetterIdzjiWithDot" unicode="&#xee96;" 
d="M222 704v-207q0 -331 284 -331v-166q-450 0 -450 497v207h166zM522 -77v-188h-166v188h166z" />
    <glyph glyph-name="UkaliqLetterOdzoWithDot" unicode="&#xee97;" 
d="M222 704v-207q0 -331 67 -331t67 269h166q0 -435 -233 -435t-233 497v207h166zM522 -77v-188h-166v188h166z" />
    <glyph glyph-name="UkaliqLessThanWithDot" unicode="&#xee98;" 
d="M73 166h433v-166h-433v166zM522 704v-435h-166v435h166zM522 -77v-188h-166v188h166z" />
    <glyph glyph-name="UkaliqLetterOsoWithDot" unicode="&#xee99;" 
d="M522 704v-207q0 -497 -449 -497v166q283 0 283 331v207h166zM522 -77v-188h-166v188h166z" />
    <glyph glyph-name="UkaliqMultiplicationWithDot" unicode="&#xee9a;" 
d="M73 166h433v-166h-433v166zM222 704v-435h-166v435h166zM522 704v-435h-166v435h166zM522 -77v-188h-166v188h166z" />
    <glyph glyph-name="UkaliqLetterApfaWithDot" unicode="&#xee9b;" 
d="M222 704v-435h-166v435h166zM522 704v-207q0 -497 -449 -497v166q283 0 283 331v207h166zM522 -77v-188h-166v188h166z" />
    <glyph glyph-name="UkaliqLetterEtsreWithDot" unicode="&#xee9c;" 
d="M222 435q0 -269 284 -269v-166q-450 0 -450 435h166zM522 704v-435h-166v435h166zM522 -77v-188h-166v188h166z" />
    <glyph glyph-name="UkaliqLetterUkkhuWithDot" unicode="&#xee9d;" 
d="M522 704v-207q0 -497 -233 -497t-233 435h166q0 -269 67 -269t67 331v207h166zM522 -77v-188h-166v188h166z" />
    <glyph glyph-name="UkaliqLetterItsjiWithDot" unicode="&#xee9e;" 
d="M222 704v-207q0 -331 284 -331v-166q-450 0 -450 497v207h166zM522 704v-435h-166v435h166zM522 -77v-188h-166v188h166z" />
    <glyph glyph-name="UkaliqLetterOtsoWithDot" unicode="&#xee9f;" 
d="M222 704v-207q0 -331 67 -331t67 331v207h166v-207q0 -497 -233 -497t-233 497v207h166zM522 -77v-188h-166v188h166z" />
    <glyph glyph-name="UkaliqRangeWithDot" unicode="&#xeea0;" 
d="M522 -77v-188h-166v188h166zM73 704h433v-167h-433v167z" />
    <glyph glyph-name="UkaliqLetterEoWithDot" unicode="&#xeea1;" 
d="M522 435v-435h-166v435h166zM522 -77v-188h-166v188h166zM73 704h433v-167h-433v167z" />
    <glyph glyph-name="UkaliqLetterUhWithDot" unicode="&#xeea2;" 
d="M506 537q-284 0 -284 -268h-166q0 435 450 435v-167zM522 -77v-188h-166v188h166z" />
    <glyph glyph-name="UkaliqLetterEuWithDot" unicode="&#xeea3;" 
d="M522 435v-435h-166v435h166zM506 537q-284 0 -284 -268h-166q0 435 450 435v-167zM522 -77v-188h-166v188h166z" />
    <glyph glyph-name="UkaliqLetterOeWithDot" unicode="&#xeea4;" 
d="M222 435v-435h-166v435h166zM522 -77v-188h-166v188h166zM73 704h433v-167h-433v167z" />
    <glyph glyph-name="UkaliqLetterOehWithDot" unicode="&#xeea5;" 
d="M522 435v-435h-166v435h166zM222 435v-435h-166v435h166zM522 -77v-188h-166v188h166zM73 704h433v-167h-433v167z" />
    <glyph glyph-name="UkaliqLetterUiWithDot" unicode="&#xeea6;" 
d="M506 537q-284 0 -284 -330v-207h-166v207q0 497 450 497v-167zM522 -77v-188h-166v188h166z" />
    <glyph glyph-name="UkaliqLetterAhWithDot" unicode="&#xeea7;" 
d="M506 537q-284 0 -284 -330v-207h-166v207q0 497 450 497v-167zM522 435v-435h-166v435h166zM522 -77v-188h-166v188h166z" />
    <glyph glyph-name="UkaliqLetterAeWithDot" unicode="&#xeea8;" 
d="M73 704q449 0 449 -435h-166q0 268 -283 268v167zM522 -77v-188h-166v188h166z" />
    <glyph glyph-name="UkaliqLetterOWithDot" unicode="&#xeea9;" 
d="M73 704q449 0 449 -497v-207h-166v207q0 330 -283 330v167zM522 -77v-188h-166v188h166z" />
    <glyph glyph-name="UkaliqLetterIhWithDot" unicode="&#xeeaa;" 
d="M56 269q0 435 233 435t233 -435h-166q0 268 -67 268t-67 -268h-166zM522 -77v-188h-166v188h166z" />
    <glyph glyph-name="UkaliqLetterUWithDot" unicode="&#xeeab;" 
d="M56 269q0 435 233 435t233 -497v-207h-166v207q0 330 -67 330t-67 -268h-166zM522 -77v-188h-166v188h166z" />
    <glyph glyph-name="UkaliqLetterEWithDot" unicode="&#xeeac;" 
d="M73 704q449 0 449 -435h-166q0 268 -283 268v167zM222 435v-435h-166v435h166zM522 -77v-188h-166v188h166z" />
    <glyph glyph-name="UkaliqLetterEhWithDot" unicode="&#xeead;" 
d="M73 704q449 0 449 -497v-207h-166v207q0 330 -283 330v167zM222 435v-435h-166v435h166zM522 -77v-188h-166v188h166z" />
    <glyph glyph-name="UkaliqLetterIWithDot" unicode="&#xeeae;" 
d="M356 269q0 268 -67 268t-67 -330v-207h-166v207q0 497 233 497t233 -435h-166zM522 -77v-188h-166v188h166z" />
    <glyph glyph-name="UkaliqLetterOhWithDot" unicode="&#xeeaf;" 
d="M56 0v207q0 497 233 497t233 -497v-207h-166v207q0 330 -67 330t-67 -330v-207h-166zM522 -77v-188h-166v188h166z" />
    <glyph glyph-name="UkaliqPlusWithDot" unicode="&#xeeb0;" 
d="M73 166h433v-166h-433v166zM522 -77v-188h-166v188h166zM73 704h433v-167h-433v167z" />
    <glyph glyph-name="UkaliqCurrencyWithDot" unicode="&#xeeb1;" 
d="M522 -77v-188h-166v188h166zM522 435q0 -435 -449 -435v166q283 0 283 269h166zM73 704h433v-167h-433v167z" />
    <glyph glyph-name="UkaliqAtWithDot" unicode="&#xeeb2;" 
d="M73 166h433v-166h-433v166zM506 537q-284 0 -284 -268h-166q0 435 450 435v-167zM522 -77v-188h-166v188h166z" />
    <glyph glyph-name="UkaliqLetterAlhaWithDot" unicode="&#xeeb3;" 
d="M506 537q-284 0 -284 -268h-166q0 435 450 435v-167zM522 -77v-188h-166v188h166zM522 435q0 -435 -449 -435v166q283 0 283 269h166z" />
    <glyph glyph-name="UkaliqLetterElreWithDot" unicode="&#xeeb4;" 
d="M222 435q0 -269 284 -269v-166q-450 0 -450 435h166zM522 -77v-188h-166v188h166zM73 704h433v-167h-433v167z" />
    <glyph glyph-name="UkaliqLetterUlguWithDot" unicode="&#xeeb5;" 
d="M222 435q0 -269 67 -269t67 269h166q0 -435 -233 -435t-233 435h166zM522 -77v-188h-166v188h166zM73 704h433v-167h-433v167z" />
    <glyph glyph-name="UkaliqLetterIljiWithDot" unicode="&#xeeb6;" 
d="M506 537q-284 0 -284 -185q0 -186 284 -186v-166q-450 0 -450 352t450 352v-167zM522 -77v-188h-166v188h166z" />
    <glyph glyph-name="UkaliqLetterOloWithDot" unicode="&#xeeb7;" 
d="M506 537q-284 0 -284 -185q0 -186 67 -186t67 269h166q0 -435 -233 -435t-233 352t450 352v-167zM522 -77v-188h-166v188h166z" />
    <glyph glyph-name="UkaliqDegreeWithDot" unicode="&#xeeb8;" 
d="M73 166h433v-166h-433v166zM73 704q449 0 449 -435h-166q0 268 -283 268v167zM522 -77v-188h-166v188h166z" />
    <glyph glyph-name="UkaliqLetterHbatWithDot" unicode="&#xeeb9;" 
d="M73 704q449 0 449 -352t-449 -352v166q283 0 283 186q0 185 -283 185v167zM522 -77v-188h-166v188h166z" />
    <glyph glyph-name="UkaliqLetterAnqaWithDot" unicode="&#xeeba;" 
d="M73 166h433v-166h-433v166zM56 269q0 435 233 435t233 -435h-166q0 268 -67 268t-67 -268h-166zM522 -77v-188h-166v188h166z" />
    <glyph glyph-name="UkaliqLetterAmaWithDot" unicode="&#xeebb;" 
d="M56 269q0 435 233 435t233 -352t-449 -352v166q283 0 283 186q0 185 -67 185t-67 -268h-166zM522 -77v-188h-166v188h166z" />
    <glyph glyph-name="UkaliqLetterEnreWithDot" unicode="&#xeebc;" 
d="M73 704q449 0 449 -435h-166q0 268 -283 268v167zM222 435q0 -269 284 -269v-166q-450 0 -450 435h166zM522 -77v-188h-166v188h166z" />
    <glyph glyph-name="UkaliqLetterUnguWithDot" unicode="&#xeebd;" 
d="M73 704q449 0 449 -352t-233 -352t-233 435h166q0 -269 67 -269t67 186q0 185 -283 185v167zM522 -77v-188h-166v188h166z" />
    <glyph glyph-name="UkaliqLetterInjiWithDot" unicode="&#xeebe;" 
d="M356 269q0 268 -67 268t-67 -185q0 -186 284 -186v-166q-450 0 -450 352t233 352t233 -435h-166zM522 -77v-188h-166v188h166z" />
    <glyph glyph-name="UkaliqLetterOnoWithDot" unicode="&#xeebf;" 
d="M522 -77v-188h-166v188h166zM222 352q0 -186 67 -186t67 186q0 185 -67 185t-67 -185zM56 352q0 352 233 352t233 -352t-233 -352t-233 352z" />
    <glyph glyph-name="UkaliqDashWithDot" unicode="&#xeec0;" 
d="M73 435h433v-166h-433v166zM522 -77v-188h-166v188h166z" />
    <glyph glyph-name="UkaliqLetterAWithDot" unicode="&#xeec1;" 
d="M73 435q449 0 449 -435h-166q0 269 -283 269v166zM522 -77v-188h-166v188h166z" />
    <glyph glyph-name="UkaliqMinusWithDot" unicode="&#xeec2;" 
d="M222 704q0 -269 284 -269v-166q-450 0 -450 435h166zM522 -77v-188h-166v188h166z" />
    <glyph glyph-name="UkaliqLetterAwaWithDot" unicode="&#xeec3;" 
d="M522 -77v-188h-166v188h166zM222 704q0 -269 167 -269q133 0 133 -154v-281h-166v270q-300 21 -300 434h166z" />
    <glyph glyph-name="UkaliqLetterErreWithDot" unicode="&#xeec4;" 
d="M506 269q-284 0 -284 -269h-166q0 435 450 435v-166zM522 -77v-188h-166v188h166z" />
    <glyph glyph-name="UkaliqAndWithDot" unicode="&#xeec5;" 
d="M56 0q0 435 233 435t233 -435h-166q0 269 -67 269t-67 -269h-166zM522 -77v-188h-166v188h166z" />
    <glyph glyph-name="UkaliqLetterIzjiWithDot" unicode="&#xeec6;" 
d="M522 -77v-188h-166v188h166zM222 269v-269h-166v352v352h166v-269h284v-166h-284z" />
    <glyph glyph-name="UkaliqLetterOroWithDot" unicode="&#xeec7;" 
d="M522 -77v-188h-166v188h166zM222 257v-257h-166v352v352h166v-275q300 -44 300 -429h-166q0 212 -134 257z" />
    <glyph glyph-name="UkaliqNotWithDot" unicode="&#xeec8;" 
d="M522 704q0 -435 -449 -435v166q283 0 283 269h166zM522 -77v-188h-166v188h166z" />
    <glyph glyph-name="UkaliqDivisionWithDot" unicode="&#xeec9;" 
d="M522 704v-352v-352h-166v269h-283v166h283v269h166zM522 -77v-188h-166v188h166z" />
    <glyph glyph-name="UkaliqXorWithDot" unicode="&#xeeca;" 
d="M222 704q0 -269 67 -269t67 269h166q0 -435 -233 -435t-233 435h166zM522 -77v-188h-166v188h166z" />
    <glyph glyph-name="uniEECB" unicode="&#xeecb;" 
d="M522 -77v-188h-166v188h166zM522 704v-352v-352h-166v275q-300 44 -300 429h166q0 -211 134 -257v257h166z" />
    <glyph glyph-name="UkaliqLetterIjiWithDot" unicode="&#xeecc;" 
d="M522 -77v-188h-166v188h166zM222 270v-270h-166v281q0 154 133 154q167 0 167 269h166q0 -413 -300 -434z" />
    <glyph glyph-name="UkaliqLetterTkotWithDot" unicode="&#xeecd;" 
d="M522 704v-352v-352h-166v257q-134 -45 -134 -257h-166q0 385 300 429v275h166zM522 -77v-188h-166v188h166z" />
    <glyph glyph-name="UkaliqLetterIsjiWithDot" unicode="&#xeece;" 
d="M522 -77v-188h-166v188h166zM222 275v-275h-166v352v352h166v-257q134 45 134 257h166q0 -385 -300 -429z" />
    <glyph glyph-name="UkaliqLetterOrroWithDot" unicode="&#xeecf;" 
d="M522 -77v-188h-166v188h166zM522 704v-352v-352h-166v269h-134v-269h-166v352v352h166v-269h134v269h166z" />
    <glyph glyph-name="UkaliqBaseSixteen" unicode="&#xeed0;" 
d="M73 166h433v-166h-433v166zM73 435h433v-166h-433v166zM522 -77v-188h-166v188h166z" />
    <glyph glyph-name="UkaliqBaseNegativeTwo" unicode="&#xeed1;" 
d="M73 435q449 0 449 -218q0 -217 -449 -217v166q283 0 283 51q0 52 -283 52v166zM522 -77v-188h-166v188h166z" />
    <glyph glyph-name="UkaliqBaseTwo" unicode="&#xeed2;" 
d="M222 704q0 -269 284 -269v-166q-450 0 -450 435h166zM73 166h433v-166h-433v166zM522 -77v-188h-166v188h166z" />
    <glyph glyph-name="UkaliqBaseThree" unicode="&#xeed3;" 
d="M522 -77v-188h-166v188h166zM222 704q0 -269 167 -269q133 0 133 -128q0 -307 -449 -307v166q244 0 278 105q-295 24 -295 433h166z" />
    <glyph glyph-name="UkaliqBaseFour" unicode="&#xeed4;" 
d="M506 269q-284 0 -284 -52q0 -51 284 -51v-166q-450 0 -450 217q0 218 450 218v-166zM522 -77v-188h-166v188h166z" />
    <glyph glyph-name="UkaliqBaseFive" unicode="&#xeed5;" 
d="M522 -77v-188h-166v188h166zM222 217q0 -51 67 -51t67 51q0 52 -67 52t-67 -52zM56 217q0 218 233 218t233 -218q0 -217 -233 -217t-233 217z" />
    <glyph glyph-name="UkaliqBaseSix" unicode="&#xeed6;" 
d="M522 -77v-188h-166v188h166zM241 269q54 -103 265 -103v-166q-450 0 -450 352v352h166v-269h284v-166h-265z" />
    <glyph glyph-name="UkaliqBaseNegativeEight" unicode="&#xeed7;" 
d="M522 -77v-188h-166v188h166zM227 266q13 -100 62 -100q67 0 67 51q0 40 -129 49zM222 432q300 -22 300 -215q0 -217 -233 -217t-233 352v352h166v-272z" />
    <glyph glyph-name="UkaliqBaseEight" unicode="&#xeed8;" 
d="M73 166h433v-166h-433v166zM522 704q0 -435 -449 -435v166q283 0 283 269h166zM522 -77v-188h-166v188h166z" />
    <glyph glyph-name="UkaliqBaseNegativeTen" unicode="&#xeed9;" 
d="M522 704v-352q0 -352 -449 -352v166q211 0 264 103h-264v166h283v269h166zM522 -77v-188h-166v188h166z" />
    <glyph glyph-name="UkaliqBaseTen" unicode="&#xeeda;" 
d="M222 704q0 -269 67 -269t67 269h166q0 -435 -233 -435t-233 435h166zM73 166h433v-166h-433v166zM522 -77v-188h-166v188h166z" />
    <glyph glyph-name="UkaliqBaseNegativeThree" unicode="&#xeedb;" 
d="M522 -77v-188h-166v188h166zM522 704v-352q0 -352 -449 -352v166q219 0 268 111q-285 51 -285 427h166q0 -211 134 -257v257h166z" />
    <glyph glyph-name="UkaliqBaseNegativeFour" unicode="&#xeedc;" 
d="M522 -77v-188h-166v188h166zM227 271q34 -105 279 -105v-166q-450 0 -450 307q0 128 133 128q167 0 167 269h166q0 -409 -295 -433z" />
    <glyph glyph-name="UkaliqBaseNegativeFive" unicode="&#xeedd;" 
d="M522 704v-352q0 -352 -233 -352t-233 217q0 193 300 215v272h166zM522 -77v-188h-166v188h166zM351 266q-129 -9 -129 -49q0 -51 67 -51q49 0 62 100z" />
    <glyph glyph-name="UkaliqBaseNegativeSix" unicode="&#xeede;" 
d="M522 -77v-188h-166v188h166zM237 277q50 -111 269 -111v-166q-450 0 -450 352v352h166v-257q134 45 134 257h166q0 -376 -285 -427z" />
    <glyph glyph-name="UkaliqBaseNegativeSixteen" unicode="&#xeedf;" 
d="M522 -77v-188h-166v188h166zM356 435v269h166v-352q0 -352 -233 -352t-233 352v352h166v-269h134zM352 269h-126q13 -103 63 -103t63 103z" />
    <glyph glyph-name="UkaliqLetterSchwaWithDot" unicode="&#xeee0;" 
d="M73 435h433v-166h-433v166zM522 -77v-188h-166v188h166zM73 704h433v-167h-433v167z" />
    <glyph glyph-name="UkaliqLetterOhgoWithDot" unicode="&#xeee1;" 
d="M73 435q449 0 449 -435h-166q0 269 -283 269v166zM522 -77v-188h-166v188h166zM73 704h433v-167h-433v167z" />
    <glyph glyph-name="UkaliqLetterArhaWithDot" unicode="&#xeee2;" 
d="M506 537q-284 0 -284 -51t284 -51v-166q-450 0 -450 217q0 218 450 218v-167zM522 -77v-188h-166v188h166z" />
    <glyph glyph-name="UkaliqLetterAvaWithDot" unicode="&#xeee3;" 
d="M522 -77v-188h-166v188h166zM506 537q-284 0 -284 -51t167 -51q133 0 133 -154v-281h-166v270q-300 10 -300 216q0 218 450 218v-167z" />
    <glyph glyph-name="UkaliqLetterEzreWithDot" unicode="&#xeee4;" 
d="M506 269q-284 0 -284 -269h-166q0 435 450 435v-166zM522 -77v-188h-166v188h166zM73 704h433v-167h-433v167z" />
    <glyph glyph-name="UkaliqLetterUghuWithDot" unicode="&#xeee5;" 
d="M56 0q0 435 233 435t233 -435h-166q0 269 -67 269t-67 -269h-166zM522 -77v-188h-166v188h166zM73 704h433v-167h-433v167z" />
    <glyph glyph-name="UkaliqLetterIjjiWithDot" unicode="&#xeee6;" 
d="M522 -77v-188h-166v188h166zM222 269v-269h-166v352q0 352 450 352v-167q-211 0 -265 -102h265v-166h-284z" />
    <glyph glyph-name="UkaliqLetterOdhoWithDot" unicode="&#xeee7;" 
d="M522 -77v-188h-166v188h166zM222 257v-257h-166v352q0 352 450 352v-167q-219 0 -269 -110q285 -51 285 -427h-166q0 212 -134 257z" />
    <glyph glyph-name="UkaliqLetterOhhoWithDot" unicode="&#xeee8;" 
d="M73 704q449 0 449 -218q0 -217 -449 -217v166q283 0 283 51t-283 51v167zM522 -77v-188h-166v188h166z" />
    <glyph glyph-name="UkaliqLetterAhaWithDot" unicode="&#xeee9;" 
d="M73 704q449 0 449 -352v-352h-166v269h-283v166h264q-54 102 -264 102v167zM522 -77v-188h-166v188h166z" />
    <glyph glyph-name="UkaliqLetterAqhaWithDot" unicode="&#xeeea;" 
d="M522 -77v-188h-166v188h166zM222 486q0 -51 67 -51t67 51t-67 51t-67 -51zM56 486q0 218 233 218t233 -218q0 -217 -233 -217t-233 217z" />
    <glyph glyph-name="UkaliqLetterAfaWithDot" unicode="&#xeeeb;" 
d="M522 -77v-188h-166v188h166zM351 438q-13 99 -62 99q-67 0 -67 -51q0 -39 129 -48zM356 272q-300 22 -300 214q0 218 233 218t233 -352v-352h-166v272z" />
    <glyph glyph-name="UkaliqLetterEsreWithDot" unicode="&#xeeec;" 
d="M73 704q449 0 449 -218q0 -206 -300 -216v-270h-166v281q0 154 133 154q167 0 167 51t-283 51v167zM522 -77v-188h-166v188h166z" />
    <glyph glyph-name="UkaliqLetterUkhuWithDot" unicode="&#xeeed;" 
d="M73 704q449 0 449 -352v-352h-166v257q-134 -45 -134 -257h-166q0 375 285 427q-50 110 -268 110v167zM522 -77v-188h-166v188h166z" />
    <glyph glyph-name="UkaliqLetterIcjiWithDot" unicode="&#xeeee;" 
d="M522 -77v-188h-166v188h166zM222 272v-272h-166v352q0 352 233 352t233 -218q0 -192 -300 -214zM227 438q129 9 129 48q0 51 -67 51q-49 0 -62 -99z" />
    <glyph glyph-name="UkaliqLetterOthoWithDot" unicode="&#xeeef;" 
d="M522 -77v-188h-166v188h166zM56 0v352q0 352 233 352t233 -352v-352h-166v269h-134v-269h-166zM226 435h126q-13 102 -63 102t-63 -102z" />
    <glyph glyph-name="UkaliqIterationMarkWithDot" unicode="&#xeef0;" 
d="M73 166h433v-166h-433v166zM73 435h433v-166h-433v166zM522 -77v-188h-166v188h166zM73 704h433v-167h-433v167z" />
    <glyph glyph-name="UkaliqPercentWithDot" unicode="&#xeef1;" 
d="M73 435q449 0 449 -218q0 -217 -449 -217v166q283 0 283 51q0 52 -283 52v166zM522 -77v-188h-166v188h166zM73 704h433v-167h-433v167z" />
    <glyph glyph-name="UkaliqLetterAgqaWithDot" unicode="&#xeef2;" 
d="M506 537q-284 0 -284 -51t284 -51v-166q-450 0 -450 217q0 218 450 218v-167zM73 166h433v-166h-433v166zM522 -77v-188h-166v188h166z" />
    <glyph glyph-name="UkaliqLetterAbaWithDot" unicode="&#xeef3;" 
d="M522 -77v-188h-166v188h166zM506 537q-284 0 -284 -51t167 -51q133 0 133 -128q0 -307 -449 -307v166q243 0 277 104q-294 12 -294 216q0 218 450 218v-167z" />
    <glyph glyph-name="UkaliqLetterEdreWithDot" unicode="&#xeef4;" 
d="M506 269q-284 0 -284 -52q0 -51 284 -51v-166q-450 0 -450 217q0 218 450 218v-166zM522 -77v-188h-166v188h166zM73 704h433v-167h-433v167z" />
    <glyph glyph-name="UkaliqLetterUguWithDot" unicode="&#xeef5;" 
d="M522 -77v-188h-166v188h166zM73 704h433v-167h-433v167zM222 217q0 -51 67 -51t67 51q0 52 -67 52t-67 -52zM56 217q0 218 233 218t233 -218q0 -217 -233 -217t-233 217z" />
    <glyph glyph-name="UkaliqLetterIgjiWithDot" unicode="&#xeef6;" 
d="M522 -77v-188h-166v188h166zM241 269q54 -103 265 -103v-166q-450 0 -450 352t450 352v-167q-211 0 -265 -102h265v-166h-265z" />
    <glyph glyph-name="UkaliqLetterOdoWithDot" unicode="&#xeef7;" 
d="M522 -77v-188h-166v188h166zM227 266q13 -100 62 -100q67 0 67 51q0 40 -129 49zM239 431q283 -26 283 -214q0 -217 -233 -217t-233 352t450 352v-167q-215 0 -267 -106z" />
    <glyph glyph-name="UkaliqLetterOhhkoWithDot" unicode="&#xeef8;" 
d="M73 166h433v-166h-433v166zM73 704q449 0 449 -218q0 -217 -449 -217v166q283 0 283 51t-283 51v167zM522 -77v-188h-166v188h166z" />
    <glyph glyph-name="UkaliqLetterAhkaWithDot" unicode="&#xeef9;" 
d="M73 704q449 0 449 -352t-449 -352v166q211 0 264 103h-264v166h264q-54 102 -264 102v167zM522 -77v-188h-166v188h166z" />
    <glyph glyph-name="UkaliqLetterAqaWithDot" unicode="&#xeefa;" 
d="M73 166h433v-166h-433v166zM522 -77v-188h-166v188h166zM222 486q0 -51 67 -51t67 51t-67 51t-67 -51zM56 486q0 218 233 218t233 -218q0 -217 -233 -217t-233 217z" />
    <glyph glyph-name="UkaliqLetterApaWithDot" unicode="&#xeefb;" 
d="M522 -77v-188h-166v188h166zM351 438q-13 99 -62 99q-67 0 -67 -51q0 -39 129 -48zM340 273q-284 26 -284 213q0 218 233 218t233 -352t-449 -352v166q215 0 267 107z" />
    <glyph glyph-name="UkaliqLetterEtreWithDot" unicode="&#xeefc;" 
d="M73 704q449 0 449 -218q0 -204 -294 -216q35 -104 278 -104v-166q-450 0 -450 307q0 128 133 128q167 0 167 51t-283 51v167zM522 -77v-188h-166v188h166z" />
    <glyph glyph-name="UkaliqLetterUkuWithDot" unicode="&#xeefd;" 
d="M73 704q449 0 449 -352t-233 -352t-233 217q0 188 283 214q-52 106 -266 106v167zM522 -77v-188h-166v188h166zM351 266q-129 -9 -129 -49q0 -51 67 -51q49 0 62 100z" />
    <glyph glyph-name="UkaliqLetterIciWithDot" unicode="&#xeefe;" 
d="M522 -77v-188h-166v188h166zM238 273q52 -107 268 -107v-166q-450 0 -450 352t233 352t233 -218q0 -187 -284 -213zM227 438q129 9 129 48q0 51 -67 51q-49 0 -62 -99z" />
    <glyph glyph-name="UkaliqLetterOtoWithDot" unicode="&#xeeff;" 
d="M522 -77v-188h-166v188h166zM226 435h126q-13 102 -63 102t-63 -102zM352 269h-126q13 -103 63 -103t63 103zM56 352q0 352 233 352t233 -352t-233 -352t-233 352z" />
    <glyph glyph-name="UkaliqPatternBlank" unicode="&#xf1d00;" 
 />
    <glyph glyph-name="UkaliqPatternSegmentsC" unicode="&#xf1d01;" 
d="M522 435v-435h-166v435h166z" />
    <glyph glyph-name="UkaliqPatternSegmentsF" unicode="&#xf1d02;" 
d="M222 704v-435h-166v435h166z" />
    <glyph glyph-name="UkaliqPatternSegmentsCf" unicode="&#xf1d03;" 
d="M522 435v-435h-166v435h166zM222 704v-435h-166v435h166z" />
    <glyph glyph-name="UkaliqPatternSegmentsE" unicode="&#xf1d04;" 
d="M222 435v-435h-166v435h166z" />
    <glyph glyph-name="UkaliqPatternSegmentsCe" unicode="&#xf1d05;" 
d="M522 435v-435h-166v435h166zM222 435v-435h-166v435h166z" />
    <glyph glyph-name="UkaliqPatternSegmentsEf" unicode="&#xf1d06;" 
d="M222 704v-704h-166v704h166z" />
    <glyph glyph-name="UkaliqPatternSegmentsCef" unicode="&#xf1d07;" 
d="M222 704v-704h-166v704h166zM522 435v-435h-166v435h166z" />
    <glyph glyph-name="UkaliqPatternSegmentsB" unicode="&#xf1d08;" 
d="M522 704v-435h-166v435h166z" />
    <glyph glyph-name="UkaliqPatternSegmentsBc" unicode="&#xf1d09;" 
d="M522 704v-704h-166v704h166z" />
    <glyph glyph-name="UkaliqPatternSegmentsBf" unicode="&#xf1d0a;" 
d="M222 704v-435h-166v435h166zM522 704v-435h-166v435h166z" />
    <glyph glyph-name="UkaliqPatternSegmentsBcf" unicode="&#xf1d0b;" 
d="M522 704v-704h-166v704h166zM222 704v-435h-166v435h166z" />
    <glyph glyph-name="UkaliqPatternSegmentsBe" unicode="&#xf1d0c;" 
d="M522 704v-435h-166v435h166zM222 435v-435h-166v435h166z" />
    <glyph glyph-name="UkaliqPatternSegmentsBce" unicode="&#xf1d0d;" 
d="M522 704v-704h-166v704h166zM222 435v-435h-166v435h166z" />
    <glyph glyph-name="UkaliqPatternSegmentsBef" unicode="&#xf1d0e;" 
d="M222 704v-704h-166v704h166zM522 704v-435h-166v435h166z" />
    <glyph glyph-name="UkaliqPatternSegmentsBcef" unicode="&#xf1d0f;" 
d="M522 704v-704h-166v704h166zM222 704v-704h-166v704h166z" />
    <glyph glyph-name="UkaliqPatternSegmentsD" unicode="&#xf1d10;" 
d="M73 166h433v-166h-433v166z" />
    <glyph glyph-name="UkaliqPatternSegmentsCd" unicode="&#xf1d11;" 
d="M522 435q0 -435 -449 -435v166q283 0 283 269h166z" />
    <glyph glyph-name="UkaliqPatternSegmentsDf" unicode="&#xf1d12;" 
d="M73 166h433v-166h-433v166zM222 704v-435h-166v435h166z" />
    <glyph glyph-name="UkaliqPatternSegmentsCdf" unicode="&#xf1d13;" 
d="M222 704v-435h-166v435h166zM522 435q0 -435 -449 -435v166q283 0 283 269h166z" />
    <glyph glyph-name="UkaliqPatternSegmentsDe" unicode="&#xf1d14;" 
d="M222 435q0 -269 284 -269v-166q-450 0 -450 435h166z" />
    <glyph glyph-name="UkaliqPatternSegmentsCde" unicode="&#xf1d15;" 
d="M222 435q0 -269 67 -269t67 269h166q0 -435 -233 -435t-233 435h166z" />
    <glyph glyph-name="UkaliqPatternSegmentsDef" unicode="&#xf1d16;" 
d="M222 704v-207q0 -331 284 -331v-166q-450 0 -450 497v207h166z" />
    <glyph glyph-name="UkaliqPatternSegmentsCdef" unicode="&#xf1d17;" 
d="M222 704v-207q0 -331 67 -331t67 269h166q0 -435 -233 -435t-233 497v207h166z" />
    <glyph glyph-name="UkaliqPatternSegmentsBd" unicode="&#xf1d18;" 
d="M73 166h433v-166h-433v166zM522 704v-435h-166v435h166z" />
    <glyph glyph-name="UkaliqPatternSegmentsBcd" unicode="&#xf1d19;" 
d="M522 704v-207q0 -497 -449 -497v166q283 0 283 331v207h166z" />
    <glyph glyph-name="UkaliqPatternSegmentsBdf" unicode="&#xf1d1a;" 
d="M73 166h433v-166h-433v166zM222 704v-435h-166v435h166zM522 704v-435h-166v435h166z" />
    <glyph glyph-name="UkaliqPatternSegmentsBcdf" unicode="&#xf1d1b;" 
d="M222 704v-435h-166v435h166zM522 704v-207q0 -497 -449 -497v166q283 0 283 331v207h166z" />
    <glyph glyph-name="UkaliqPatternSegmentsBde" unicode="&#xf1d1c;" 
d="M222 435q0 -269 284 -269v-166q-450 0 -450 435h166zM522 704v-435h-166v435h166z" />
    <glyph glyph-name="UkaliqPatternSegmentsBcde" unicode="&#xf1d1d;" 
d="M522 704v-207q0 -497 -233 -497t-233 435h166q0 -269 67 -269t67 331v207h166z" />
    <glyph glyph-name="UkaliqPatternSegmentsBdef" unicode="&#xf1d1e;" 
d="M222 704v-207q0 -331 284 -331v-166q-450 0 -450 497v207h166zM522 704v-435h-166v435h166z" />
    <glyph glyph-name="UkaliqPatternSegmentsBcdef" unicode="&#xf1d1f;" 
d="M222 704v-207q0 -331 67 -331t67 331v207h166v-207q0 -497 -233 -497t-233 497v207h166z" />
    <glyph glyph-name="UkaliqPatternSegmentsA" unicode="&#xf1d20;" 
d="M73 704h433v-167h-433v167z" />
    <glyph glyph-name="UkaliqPatternSegmentsAc" unicode="&#xf1d21;" 
d="M522 435v-435h-166v435h166zM73 704h433v-167h-433v167z" />
    <glyph glyph-name="UkaliqPatternSegmentsAf" unicode="&#xf1d22;" 
d="M506 537q-284 0 -284 -268h-166q0 435 450 435v-167z" />
    <glyph glyph-name="UkaliqPatternSegmentsAcf" unicode="&#xf1d23;" 
d="M522 435v-435h-166v435h166zM506 537q-284 0 -284 -268h-166q0 435 450 435v-167z" />
    <glyph glyph-name="UkaliqPatternSegmentsAe" unicode="&#xf1d24;" 
d="M222 435v-435h-166v435h166zM73 704h433v-167h-433v167z" />
    <glyph glyph-name="UkaliqPatternSegmentsAce" unicode="&#xf1d25;" 
d="M522 435v-435h-166v435h166zM222 435v-435h-166v435h166zM73 704h433v-167h-433v167z" />
    <glyph glyph-name="UkaliqPatternSegmentsAef" unicode="&#xf1d26;" 
d="M506 537q-284 0 -284 -330v-207h-166v207q0 497 450 497v-167z" />
    <glyph glyph-name="UkaliqPatternSegmentsAcef" unicode="&#xf1d27;" 
d="M506 537q-284 0 -284 -330v-207h-166v207q0 497 450 497v-167zM522 435v-435h-166v435h166z" />
    <glyph glyph-name="UkaliqPatternSegmentsAb" unicode="&#xf1d28;" 
d="M73 704q449 0 449 -435h-166q0 268 -283 268v167z" />
    <glyph glyph-name="UkaliqPatternSegmentsAbc" unicode="&#xf1d29;" 
d="M73 704q449 0 449 -497v-207h-166v207q0 330 -283 330v167z" />
    <glyph glyph-name="UkaliqPatternSegmentsAbf" unicode="&#xf1d2a;" 
d="M56 269q0 435 233 435t233 -435h-166q0 268 -67 268t-67 -268h-166z" />
    <glyph glyph-name="UkaliqPatternSegmentsAbcf" unicode="&#xf1d2b;" 
d="M56 269q0 435 233 435t233 -497v-207h-166v207q0 330 -67 330t-67 -268h-166z" />
    <glyph glyph-name="UkaliqPatternSegmentsAbe" unicode="&#xf1d2c;" 
d="M73 704q449 0 449 -435h-166q0 268 -283 268v167zM222 435v-435h-166v435h166z" />
    </font>
</defs>
</svg>
